osu file format v14

[General]
AudioFilename: audio.mp3
AudioLeadIn: 0
PreviewTime: 54244
Countdown: 0
SampleSet: Soft
StackLeniency: 0.4
Mode: 0
LetterboxInBreaks: 0
WidescreenStoryboard: 1

[Editor]
Bookmarks: 88914
DistanceSpacing: 0.9
BeatDivisor: 4
GridSize: 32
TimelineZoom: 3.499999

[Metadata]
Title:DREAM SOLISTER
TitleUnicode:DREAM SOLISTER
Artist:TRUE
ArtistUnicode:TRUE
Creator:Marcuddles
Version:Sound Out!
Source:響け!ユーフォニアム
Tags:tv size Sound Hibike! Euphonium Original Soundtrack Omoide Music opening Shiratoi Andrea osuplayer111
BeatmapID:1547955
BeatmapSetID:692587

[Difficulty]
HPDrainRate:6.5
CircleSize:4.8
OverallDifficulty:8
ApproachRate:9.1
SliderMultiplier:1.9
SliderTickRate:1

[Events]
//Background and Video events
0,0,"Marcuddles.jpg",0,0
//Break Periods
//Storyboard Layer 0 (Background)
//Storyboard Layer 1 (Fail)
//Storyboard Layer 2 (Pass)
//Storyboard Layer 3 (Foreground)
//Storyboard Sound Samples

[TimingPoints]
533,359.281437125748,4,2,23,80,1,0
533,-125,4,2,23,80,0,0
1431,-111.111111111111,4,2,23,80,0,0
1790,340.909090909091,4,2,23,80,1,0
1790,-111.111111111111,4,2,23,80,0,0
2642,405.405405405405,4,2,23,80,1,0
2643,-125,4,2,23,80,0,0
3047,359.281437125748,4,2,23,80,1,0
3047,-111.111111111111,4,2,23,80,0,0
3406,375,4,2,23,80,1,0
3406,-125,4,2,23,80,0,0
3968,-125,4,2,23,80,0,0
3969,340.909090909091,4,2,23,80,1,0
4309,355.029585798817,4,2,23,80,1,0
4309,-111.111111111111,4,2,23,80,0,0
4483,-125,4,2,23,80,0,0
4663,-125,4,2,23,80,0,0
4841,359.281437125748,4,2,23,80,1,0
5201,-125,4,2,23,80,0,0
5919,-111.111111111111,4,2,23,80,0,0
6279,-100,4,2,23,80,0,0
6548,-100,4,2,23,5,0,0
6638,-100,4,2,23,80,0,0
6818,-100,4,2,23,30,0,0
6997,-100,4,2,23,80,0,0
7267,-100,4,2,23,5,0,0
7356,-100,4,2,23,80,0,0
7895,-100,4,2,23,5,0,0
8075,-100,4,2,23,80,0,0
8255,-100,4,2,23,5,0,0
8434,-83.3333333333333,4,2,23,80,0,0
8794,-100,4,2,23,80,0,0
9153,-111.111111111111,4,2,23,70,0,0
9422,-111.111111111111,4,2,23,5,0,0
9512,-111.111111111111,4,2,23,70,0,0
12297,-111.111111111111,4,2,23,5,0,0
12386,-111.111111111111,4,2,23,70,0,0
13285,-100,4,2,23,70,0,0
13554,-100,4,2,23,5,0,0
13644,-100,4,2,23,70,0,0
13913,-100,4,2,23,5,0,0
14003,-222.222222222222,4,2,23,80,0,0
15261,-142.857142857143,4,2,23,60,0,0
26019,359.281437125748,4,2,23,60,1,0
26019,-153.846153846154,4,2,23,60,0,0
26198,-100,4,2,23,50,0,0
26400,359.281437125748,4,2,23,60,1,0
26400,-142.857142857143,4,2,23,60,0,0
30801,-142.857142857143,4,2,23,5,0,0
30891,-142.857142857143,4,2,23,70,0,0
32417,-142.857142857143,4,2,23,5,0,0
32507,-142.857142857143,4,2,23,60,0,0
35292,-142.857142857143,4,2,23,5,0,0
35382,-142.857142857143,4,2,23,60,0,0
37088,-142.857142857143,4,2,23,5,0,0
37178,-166.666666666667,4,2,23,60,0,0
37447,-166.666666666667,4,2,23,5,0,0
37537,-200,4,2,23,60,0,0
37807,-200,4,2,23,5,0,0
37897,-153.846153846154,4,2,23,55,0,0
38435,-166.666666666667,4,2,23,55,0,0
38615,-166.666666666667,4,2,23,25,0,0
38795,-166.666666666667,4,2,23,55,0,0
38974,-166.666666666667,4,2,23,25,0,0
39154,-166.666666666667,4,2,23,55,0,0
39334,-166.666666666667,4,2,23,25,0,0
39513,-166.666666666667,4,2,23,55,0,0
41489,-166.666666666667,4,2,23,25,0,0
41669,-166.666666666667,4,2,23,55,0,0
41848,-166.666666666667,4,2,23,25,0,0
42029,-166.666666666667,4,2,23,55,0,0
42208,-166.666666666667,4,2,23,25,0,0
42388,-166.666666666667,4,2,23,55,0,0
43555,-166.666666666667,4,2,23,5,0,0
43645,-142.857142857143,4,2,23,60,0,0
44364,-142.857142857143,4,2,23,25,0,0
44543,-142.857142857143,4,2,23,60,0,0
44723,-142.857142857143,4,2,23,25,0,0
44902,-142.857142857143,4,2,23,35,0,0
45082,-142.857142857143,4,2,23,60,0,0
45352,-142.857142857143,4,2,23,5,0,0
45441,-142.857142857143,4,2,23,60,0,0
45621,-142.857142857143,4,2,23,50,0,0
45801,-142.857142857143,4,2,23,60,0,0
45980,-142.857142857143,4,2,23,50,0,0
46160,-166.666666666667,4,2,23,60,0,0
46429,-142.857142857143,4,2,23,5,0,0
46519,-133.333333333333,4,2,23,70,0,0
48136,-133.333333333333,4,2,23,30,0,0
48316,-133.333333333333,4,2,23,70,0,0
48495,-133.333333333333,4,2,23,30,0,0
48675,-133.333333333333,4,2,23,70,0,0
51370,-117.647058823529,4,2,23,70,0,0
51639,-133.333333333333,4,2,23,5,0,0
51729,-133.333333333333,4,2,23,70,0,0
51908,-181.818181818181,4,2,23,70,0,0
52178,-181.818181818181,4,2,23,5,0,0
52268,-181.818181818181,4,2,23,70,0,0
52986,-181.818181818181,4,2,23,75,0,0
53525,-105.263157894737,4,2,23,70,0,0
53795,-105.263157894737,4,2,23,5,0,0
53885,-95.2380952380954,4,2,23,60,0,0
53974,-105.263157894737,4,2,23,5,0,0
54064,-200,4,2,23,70,0,0
54423,-100,4,2,23,80,0,0
54783,-100,4,2,23,80,0,0
55142,-100,4,2,23,85,0,1
55411,-100,4,2,23,5,0,1
55501,-100,4,2,23,85,0,1
56669,-100,4,2,23,5,0,1
56759,-100,4,2,23,85,0,1
57298,-100,4,2,23,85,0,1
57477,-100,4,2,23,75,0,1
57657,-153.846153846153,4,2,23,85,0,1
57926,-153.846153846153,4,2,23,5,0,1
58016,-100,4,2,23,85,0,1
59543,-100,4,2,23,5,0,1
59633,-100,4,2,23,85,0,1
59992,-100,4,2,23,40,0,1
60172,-100,4,2,23,85,0,1
60531,-142.857142857143,4,2,23,85,0,1
60711,-142.857142857143,4,2,23,50,0,1
60891,-100,4,2,23,85,0,1
61160,-100,4,2,23,5,0,1
61250,-100,4,2,23,85,0,1
61609,-100,4,2,23,50,0,1
61789,-100,4,2,23,85,0,1
61968,-100,4,2,23,50,0,1
62148,-100,4,2,23,85,0,1
62328,-100,4,2,23,50,0,1
62507,-100,4,2,23,45,0,1
62687,-100,4,2,23,85,0,1
63046,-100,4,2,23,85,0,1
63226,-100,4,2,23,40,0,1
63405,-142.857142857143,4,2,23,85,0,1
63675,-153.846153846153,4,2,23,5,0,1
63765,-100,4,2,23,85,0,1
63944,-100,4,2,23,30,0,1
64124,-100,4,2,23,85,0,1
65292,-100,4,2,23,5,0,1
65382,-100,4,2,23,85,0,1
66459,-100,4,2,23,85,0,0
66639,-100,4,2,23,85,0,1
66908,-100,4,2,23,5,0,1
66998,-100,4,2,23,85,0,1
67178,-100,4,2,23,30,0,1
67268,-100,4,2,23,5,0,1
67358,-100,4,2,23,85,0,1
68166,-100,4,2,23,5,0,1
68256,-100,4,2,23,85,0,1
68795,-100,4,2,23,85,0,1
68974,-100,4,2,23,40,0,1
69154,-142.857142857143,4,2,23,85,0,1
69423,-100,4,2,23,5,0,1
69513,-100,4,2,23,85,0,1
69783,-100,4,2,23,5,0,1
69873,-100,4,2,23,85,0,1
70232,-100,4,2,23,40,0,1
70411,-100,4,2,23,85,0,1
70591,-100,4,2,23,40,0,1
70771,-100,4,2,23,85,0,1
71040,-100,4,2,23,5,0,1
71130,-100,4,2,23,85,0,1
71849,-100,4,2,23,60,0,1
72028,-100,4,2,23,80,0,0
72388,-100,4,2,23,85,0,1
73914,-100,4,2,23,5,0,1
74004,-100,4,2,23,85,0,1
74364,-100,4,2,23,60,0,1
74543,-100,4,2,23,85,0,1
74723,-100,4,2,23,60,0,1
74902,-142.857142857143,4,2,23,85,0,1
75172,-142.857142857143,4,2,23,5,0,1
75262,-100,4,2,23,85,0,1
75441,-100,4,2,23,70,0,1
75621,-100,4,2,23,85,0,1
76789,-100,4,2,23,5,0,1
76879,-100,4,2,23,85,0,1
77597,-100,4,2,23,5,0,1
77687,-100,4,2,23,85,0,1
77867,-100,4,2,23,5,0,1
77956,-100,4,2,23,85,0,1
78046,-100,4,2,23,5,0,1
78136,-100,4,2,23,85,0,1
78944,-100,4,2,23,5,0,1
79034,-100,4,2,23,85,0,1
80382,-100,4,2,23,5,0,1
80471,-100,4,2,23,85,0,1
82268,-100,4,2,23,85,0,1
83885,-99.9999999999999,4,2,23,75,0,0
84154,-99.9999999999999,4,2,23,5,0,0
84244,-99.9999999999999,4,2,23,75,0,0
85322,-111.111111111111,4,2,23,50,0,0
85501,-111.111111111111,4,2,23,75,0,0
85681,-111.111111111111,4,2,23,50,0,0
85861,-111.111111111111,4,2,23,75,0,0
86040,-111.111111111111,4,2,23,75,0,0
86220,-111.111111111111,4,2,23,65,0,0
86759,-90.9090909090909,4,2,23,85,0,0
87298,-188.679245283019,4,2,23,30,0,0
88914,-188.679245283019,4,2,23,50,0,0

[Colours]
Combo1 : 173,91,255
Combo2 : 121,188,255
Combo3 : 255,128,128
Combo4 : 255,165,121

[HitObjects]
176,256,533,6,0,B|195:205|162:160|162:160|186:183|213:185,1,152,6|0,0:0|0:0,0:0:0:0:
281,153,1071,1,0,0:0:0:0:
362,128,1251,5,2,0:0:0:0:
345,259,1431,2,0,B|383:240|383:240|438:253,1,85.4999973907472,0|2,0:0|0:0,0:0:0:0:
205,184,1790,6,0,B|123:160|135:233|45:217,1,170.999994781494,4|0,0:0|0:0,0:0:0:0:
55,39,2301,2,0,P|67:116|73:155,1,85.4999973907472,8|0,0:0|0:0,0:0:0:0:
205,184,2643,2,0,P|196:120|188:81,1,76,0|0,0:0|0:0,0:0:0:0:
285,25,3047,2,0,P|301:60|303:86,1,42.7499986953736,8|0,0:0|0:0,0:0:0:0:
294,92,3226,1,0,0:0:0:0:
349,191,3407,6,0,B|296:179|296:179|262:197|262:197|193:181,1,152,4|0,0:0|0:0,0:0:0:0:
240,280,3968,1,0,0:0:0:0:
276,366,4139,5,0,0:0:0:0:
401,236,4309,2,0,B|355:226|355:226|309:250,1,85.4999973907472,2|2,0:0|0:0,0:0:0:0:
438,145,4664,6,0,B|416:194|416:194|456:288,1,152,4|0,0:0|0:0,0:0:0:0:
330,168,5201,2,0,L|318:258,1,76,2|0,0:0|0:0,0:0:0:0:
213,117,5560,2,0,L|223:192,1,76,2|0,0:0|0:0,0:0:0:0:
215,288,5919,5,8,0:0:0:0:
175,300,6008,1,8,0:0:0:0:
136,285,6099,5,8,0:0:0:0:
104,279,6188,1,8,0:0:0:0:
75,292,6279,6,0,B|103:246|103:246|70:154,1,142.5,12|0,0:0|1:0,0:0:0:0:
145,93,6638,2,0,L|180:191,1,95,0|0,0:0|0:0,0:0:0:0:
270,266,6997,6,0,B|343:240|338:297|412:269,1,142.5,6|0,0:0|0:0,0:0:0:0:
364,144,7356,2,0,P|372:194|374:221,1,47.5,0|8,0:0|0:0,0:0:0:0:
463,107,7536,2,0,P|460:154|458:188,1,47.5,8|8,0:0|0:0,0:0:0:0:
399,45,7716,6,0,P|335:45|272:121,1,142.5,14|0,0:0|0:0,0:0:0:0:
223,168,8075,2,0,B|196:167|170:156|170:156|137:173|137:173|116:165|86:164,1,142.5,14|0,0:0|0:0,0:0:0:0:
56,91,8434,6,0,B|72:133|72:133|33:224,1,113.999996520996,14|0,0:0|0:0,0:0:0:0:
101,275,8704,1,0,0:0:0:0:
110,290,8794,2,0,P|156:280|194:275,1,47.5,2|2,0:0|0:0,0:0:0:0:
241,326,8973,2,0,L|290:313,1,47.5,2|2,0:0|0:0,0:0:0:0:
392,255,9153,6,0,P|420:204|386:140,1,128.249996086121,2|0,0:0|1:0,0:0:0:0:
315,111,9512,2,0,L|223:122,1,85.4999973907472,8|0,0:0|0:0,0:0:0:0:
105,217,9871,1,2,0:0:0:0:
55,77,10051,1,2,0:0:0:0:
147,137,10231,1,8,0:0:0:0:
49,292,10410,6,0,P|23:259|23:198,1,85.4999973907472,4|0,0:0|0:0,0:0:0:0:
160,292,10770,2,0,P|154:333|128:367,1,85.4999973907472,2|8,0:0|0:0,0:0:0:0:
105,217,11129,1,0,0:0:0:0:
105,217,11309,1,0,0:0:0:0:
248,287,11488,1,2,0:0:0:0:
248,287,11668,1,8,0:0:0:0:
224,130,11847,5,0,0:0:0:0:
224,130,11937,1,0,0:0:0:0:
224,130,12027,2,0,B|141:111|141:111|163:154,1,128.249996086121,4|0,0:0|0:0,0:0:0:0:
170,165,12386,1,8,0:0:0:0:
305,68,12566,2,0,L|214:46,1,85.4999973907472,0|2,0:0|0:0,0:0:0:0:
251,167,12925,1,2,0:0:0:0:
285,290,13105,1,8,0:0:0:0:
485,191,13285,6,0,B|410:163|424:221|344:205,1,142.5,4|0,0:0|0:0,0:0:0:0:
349,206,13644,1,2,0:0:0:0:
353,75,13824,2,0,P|363:117|369:143,1,47.5,8|0,0:0|1:0,0:0:0:0:
219,285,14003,6,0,B|236:248|212:213|212:213|237:181|216:135|216:135|212:163|186:178,1,213.749993476868,6|4,0:0|0:0,0:0:0:0:
185,178,15261,5,8,0:0:0:0:
219,285,15440,2,0,P|252:281|290:247,1,66.4999979705811,0|0,0:0|0:0,0:0:0:0:
321,170,15800,2,0,P|354:174|392:208,1,66.4999979705811,0|8,0:0|0:0,0:0:0:0:
456,290,16159,1,0,0:0:0:0:
466,157,16339,6,0,L|455:299,1,132.999995941162,2|8,0:0|0:0,0:0:0:0:
357,349,16877,2,0,P|324:352|279:327,1,66.4999979705811,0|0,0:0|0:0,0:0:0:0:
211,256,17237,1,2,0:0:0:0:
260,167,17416,1,8,0:0:0:0:
176,15,17596,1,2,0:0:0:0:
216,89,17776,6,0,L|347:68,1,132.999995941162,0|8,0:0|0:0,0:0:0:0:
459,126,18315,2,0,P|472:163|464:203,1,66.4999979705811,0|0,0:0|0:0,0:0:0:0:
352,230,18674,2,0,L|314:222,2,33.2499989852906,0|0|8,0:0|0:0|0:0,0:0:0:0:
426,293,19033,2,0,B|429:331|429:331|399:375,1,66.4999979705811,0|0,0:0|0:0,0:0:0:0:
319,223,19392,6,0,L|313:185,1,33.2499989852906,0|0,0:0|0:0,0:0:0:0:
299,106,19572,1,8,0:0:0:0:
385,129,19752,1,2,0:0:0:0:
472,150,19931,1,8,0:0:0:0:
358,40,20111,5,2,0:0:0:0:
360,29,20200,1,2,0:0:0:0:
362,18,20290,1,8,0:0:0:0:
385,129,20470,1,2,0:0:0:0:
414,235,20650,6,0,P|449:229|479:199,1,66.4999979705811,8|0,0:0|0:0,0:0:0:0:
316,202,21009,1,0,0:0:0:0:
316,202,21189,1,0,0:0:0:0:
362,307,21368,1,8,0:0:0:0:
284,336,21548,2,0,B|260:331|241:322|241:322|212:338|212:338|182:323|146:319,1,132.999995941162,0|0,0:0|0:0,0:0:0:0:
75,245,22087,6,0,P|139:234|170:231,1,66.4999979705811,8|0,0:0|0:0,0:0:0:0:
246,123,22446,1,0,0:0:0:0:
154,83,22626,2,0,P|165:149|168:180,1,66.4999979705811,2|0,0:0|0:0,0:0:0:0:
251,244,22985,1,2,0:0:0:0:
336,204,23165,1,8,0:0:0:0:
494,284,23344,1,2,0:0:0:0:
420,246,23524,6,0,L|439:111,1,132.999995941162,4|8,0:0|0:0,0:0:0:0:
309,38,24063,2,0,L|318:106,1,66.4999979705811,0|0,0:0|0:0,0:0:0:0:
232,173,24422,2,0,L|194:164,2,33.2499989852906,0|0|0,0:0|0:0|0:0,0:0:0:0:
299,249,24782,1,8,0:0:0:0:
293,275,24871,1,8,0:0:0:0:
286,301,24961,1,10,0:0:0:0:
392,264,25141,6,0,L|425:271,1,33.2499989852906,8|8,0:0|0:0,0:0:0:0:
299,249,25321,1,8,0:0:0:0:
402,188,25500,6,0,L|434:194,1,33.2499989852906,10|8,0:0|0:0,0:0:0:0:
308,172,25680,1,8,0:0:0:0:
350,95,25859,1,2,0:0:0:0:
312,15,26019,2,0,P|279:17|239:56,1,61.7499971733095,12|0,0:0|0:0,0:0:0:0:
211,167,26400,6,0,B|145:145|153:195|82:183,1,132.999995941162
99,100,26938,1,0,0:0:0:0:
186,248,27118,1,2,0:0:0:0:
268,110,27298,1,2,0:0:0:0:
285,317,27477,1,8,0:0:0:0:
336,226,27657,6,0,P|386:219|452:274,1,132.999995941162,4|8,0:0|0:0,0:0:0:0:
479,153,28196,1,8,0:0:0:0:
426,74,28376,2,0,P|399:100|387:155,1,66.4999979705811,0|8,0:0|0:0,0:0:0:0:
372,309,28735,1,2,0:0:0:0:
281,271,28914,1,2,0:0:0:0:
178,334,29094,1,8,0:0:0:0:
75,303,29274,6,0,P|56:257|95:180,1,132.999995941162,4|8,0:0|0:0,0:0:0:0:
149,251,29813,1,0,0:0:0:0:
261,189,29992,1,2,0:0:0:0:
213,95,30172,1,2,0:0:0:0:
363,22,30352,1,10,0:0:0:0:
346,129,30531,6,0,P|390:100|457:109,1,99.7499969558717,4|0,0:0|1:0,0:0:0:0:
450,114,30891,1,0,0:0:0:0:
424,249,31070,2,0,L|413:178,1,66.4999979705811,8|0,0:0|0:0,0:0:0:0:
509,264,31429,1,0,0:0:0:0:
364,315,31609,1,8,0:0:0:0:
505,245,31789,1,8,0:0:0:0:
359,344,31968,5,8,0:0:0:0:
359,344,32058,1,0,0:0:0:0:
359,344,32148,2,0,L|256:329,1,99.7499969558717,4|0,0:0|3:0,0:0:0:0:
237,325,32507,1,8,0:0:0:0:
336,242,32687,2,0,P|348:210|335:173,1,66.4999979705811,2|2,0:0|0:0,0:0:0:0:
242,131,33046,2,0,P|230:97|242:50,1,66.4999979705811,0|8,0:0|0:0,0:0:0:0:
399,109,33405,6,0,L|322:95,1,66.4999979705811,0|0,0:0|0:0,0:0:0:0:
426,37,33765,1,0,0:0:0:0:
477,107,33944,2,0,L|543:118,1,66.4999979705811,8|0,0:0|0:0,0:0:0:0:
429,189,34304,1,2,0:0:0:0:
452,280,34483,1,2,0:0:0:0:
474,375,34663,2,0,P|445:361|392:362,1,66.4999979705811,8|2,0:0|0:0,0:0:0:0:
208,304,35022,6,0,L|308:293,1,99.7499969558717,6|0,0:0|3:0,0:0:0:0:
334,268,35382,2,0,L|262:277,1,66.4999979705811,8|2,0:0|0:0,0:0:0:0:
345,162,35741,1,8,0:0:0:0:
446,266,35920,1,2,0:0:0:0:
471,95,36100,1,10,0:0:0:0:
442,292,36280,5,6,0:0:0:0:
442,292,36639,5,2,0:0:0:0:
330,195,36819,2,0,L|232:181,1,99.7499969558717,6|0,0:0|3:0,0:0:0:0:
322,184,37178,2,0,L|231:170,1,85.4999973907472,0|0,0:0|3:0,0:0:0:0:
315,172,37537,2,0,L|241:160,1,71.25,0|0,0:0|3:0,0:0:0:0:
165,142,37897,6,0,P|154:93|198:28,1,123.499994346619,2|0,0:0|0:0,0:0:0:0:
66,140,38435,2,0,P|77:196|80:216,1,56.9999982604981,2|0,0:0|0:0,0:0:0:0:
165,239,38795,2,0,P|160:284|161:308,1,56.9999982604981,0|0,0:0|0:0,0:0:0:0:
212,364,39154,1,0,0:0:0:0:
212,364,39334,1,2,0:0:0:0:
276,296,39513,5,0,0:0:0:0:
354,282,39693,1,0,0:0:0:0:
419,328,39873,1,0,0:0:0:0:
301,211,40052,6,0,L|312:143,1,56.9999982604981,0|0,0:0|0:0,0:0:0:0:
301,211,40411,1,8,0:0:0:0:
155,81,40771,6,0,P|113:78|45:124,1,113.999996520996,4|0,0:0|0:0,0:0:0:0:
214,18,41310,2,0,P|267:29|286:35,1,56.9999982604981,0|0,0:0|0:0,0:0:0:0:
328,109,41669,2,0,P|368:102|397:94,1,56.9999982604981,0|8,0:0|0:0,0:0:0:0:
466,33,42028,1,0,0:0:0:0:
466,33,42208,1,0,0:0:0:0:
501,146,42388,5,0,0:0:0:0:
429,181,42567,1,0,0:0:0:0:
410,254,42747,1,0,0:0:0:0:
347,209,42926,5,0,0:0:0:0:
428,262,43106,1,0,0:0:0:0:
343,314,43286,2,0,P|309:320|259:290,1,85.4999973907472,8|0,0:0|3:0,0:0:0:0:
254,284,43645,6,0,P|265:221|204:161,1,132.999995941162,4|8,0:0|0:0,0:0:0:0:
312,54,44184,2,0,P|305:112|305:137,1,66.4999979705811,0|0,0:0|0:0,0:0:0:0:
190,17,44543,2,0,P|195:49|197:83,1,66.4999979705811,0|8,0:0|0:0,0:0:0:0:
103,223,44902,1,0,0:0:0:0:
33,169,45082,6,0,P|82:133|145:141,1,99.7499969558717,2|0,0:0|1:0,0:0:0:0:
119,131,45441,2,0,P|105:103|114:48,1,66.4999979705811,8|0,0:0|0:0,0:0:0:0:
103,223,45801,2,0,P|80:249|37:262,1,66.4999979705811,2|0,0:0|0:0,0:0:0:0:
194,183,46160,2,0,P|226:189|268:230,1,85.4999973907472,10|0,0:0|1:0,0:0:0:0:
264,223,46519,6,0,L|278:80,1,142.500005435944,6|8,0:0|0:0,0:0:0:0:
277,81,47058,1,0,0:0:0:0:
364,14,47238,2,0,P|419:72|407:154,1,142.500005435944,2|10,0:0|0:0,0:0:0:0:
349,186,47777,1,0,0:0:0:0:
272,242,47956,6,0,P|225:237|183:235,1,71.2500027179719,2|0,0:0|0:0,0:0:0:0:
96,166,48316,2,0,P|142:159|179:150,1,71.2500027179719,10|2,0:0|0:0,0:0:0:0:
339,55,48675,2,0,P|287:48|242:128,1,142.500005435944,10|10,0:0|0:0,0:0:0:0:
239,115,49394,5,6,0:0:0:0:
349,186,49573,1,2,0:0:0:0:
418,130,49753,2,0,P|431:97|415:52,1,71.2500027179719,10|2,0:0|0:0,0:0:0:0:
263,206,50112,1,10,0:0:0:0:
418,201,50292,2,0,L|328:181,1,71.2500027179719
236,297,50651,6,0,P|192:276|176:174,1,142.500005435944,6|2,0:0|0:0,0:0:0:0:
290,96,51190,1,10,0:0:0:0:
395,214,51370,2,0,B|353:207|353:207|322:222|322:222|272:214,1,121.125002310276,2|0,0:0|3:0,0:0:0:0:
263,206,51729,1,2,0:0:0:0:
459,120,51908,1,10,0:0:0:0:
459,120,52268,5,6,0:0:0:0:
425,287,52447,1,2,0:0:0:0:
330,145,52627,5,8,0:0:0:0:
436,322,52807,1,0,0:0:0:0:
266,254,52986,5,2,0:0:0:0:
448,354,53166,1,10,0:0:0:0:
389,92,53346,1,2,0:0:0:0:
173,258,53525,6,0,B|129:251|84:241|84:241|105:258|115:291,1,135.374996385098,10|0,0:0|1:0,0:0:0:0:
109,276,53885,2,0,L|117:219,1,49.8749984779358,2|0,0:0|1:0,0:0:0:0:
131,90,54064,2,0,B|180:77|222:114|222:114|227:54|272:30,1,190
469,252,55142,6,0,B|392:232|411:289|331:277,1,142.5,6|0,0:0|0:0,0:0:0:0:
255,175,55501,2,0,P|304:171|355:202,1,95,8|0,0:0|0:0,0:0:0:0:
444,342,55861,1,2,0:0:0:0:
459,124,56040,2,0,L|451:228,1,95,2|8,0:0|0:0,0:0:0:0:
316,341,56399,6,0,B|221:353|221:353|249:311,1,142.5,4|0,0:0|0:0,0:0:0:0:
258,295,56759,1,0,0:0:0:0:
368,186,56938,2,0,P|414:189|455:224,1,95,8|0,0:0|0:0,0:0:0:0:
460,248,57208,1,0,0:0:0:0:
460,248,57298,1,2,0:0:0:0:
382,85,57477,1,0,0:0:0:0:
277,217,57657,2,0,P|228:215|187:180,1,92.6249957599642,10|0,0:0|0:0,0:0:0:0:
187,164,58016,5,10,0:0:0:0:
294,292,58196,1,0,0:0:0:0:
111,277,58376,5,10,0:0:0:0:
290,326,58555,1,2,0:0:0:0:
271,101,58735,5,10,0:0:0:0:
289,356,58914,2,0,B|305:311|305:311|278:264,1,95,2|8,0:0|0:0,0:0:0:0:
429,115,59274,6,0,L|414:265,1,142.5,4|0,0:0|3:0,0:0:0:0:
410,280,59633,1,2,0:0:0:0:
264,176,59813,2,0,P|222:192|186:256,1,95,8|0,0:0|0:0,0:0:0:0:
158,337,60172,5,2,0:0:0:0:
153,355,60531,1,4,0:0:0:0:
150,373,60891,6,0,P|167:320|111:257,1,142.5,2|0,0:0|0:0,0:0:0:0:
91,252,61250,1,8,0:0:0:0:
195,85,61429,2,0,L|181:178,1,95,2|0,0:0|0:0,0:0:0:0:
264,249,61789,1,0,0:0:0:0:
180,178,61968,1,8,0:0:0:0:
287,127,62148,6,0,P|328:137|368:197,1,95,0|2,0:0|0:0,0:0:0:0:
362,175,62507,1,0,0:0:0:0:
275,325,62687,2,0,L|297:228,1,95,8|0,0:0|0:0,0:0:0:0:
292,214,62956,1,0,0:0:0:0:
292,214,63046,1,10,0:0:0:0:
354,368,63226,1,0,0:0:0:0:
162,335,63405,2,0,L|265:312,1,99.7499969558717,8|0,0:0|1:0,0:0:0:0:
275,325,63765,6,0,P|233:320|187:261,1,95,6|0,0:0|0:0,0:0:0:0:
191,59,64124,5,10,0:0:0:0:
265,216,64304,1,2,0:0:0:0:
312,13,64483,5,10,0:0:0:0:
272,193,64663,1,2,0:0:0:0:
445,58,64843,1,8,0:0:0:0:
458,286,65022,6,0,B|385:265|394:322|319:308,1,142.5,6|0,0:0|0:0,0:0:0:0:
303,295,65382,1,2,0:0:0:0:
434,373,65561,1,2,0:0:0:0:
458,286,65741,1,10,0:0:0:0:
379,153,65920,5,8,0:0:0:0:
303,295,66100,1,8,0:0:0:0:
287,292,66189,1,8,0:0:0:0:
271,289,66280,5,8,0:0:0:0:
286,254,66369,1,8,0:0:0:0:
283,215,66459,1,8,0:0:0:0:
263,183,66549,1,8,0:0:0:0:
230,164,66639,6,0,B|208:173|183:175|183:175|163:206|163:206|130:208|92:224,1,142.5,4|0,0:0|0:0,0:0:0:0:
16,111,66998,2,0,P|86:121|132:128,1,95,8|0,0:0|0:0,0:0:0:0:
234,258,67358,1,10,0:0:0:0:
255,39,67537,2,0,B|240:85|240:85|271:145,1,95,10|8,0:0|0:0,0:0:0:0:
468,123,67897,6,0,P|427:72|335:69,1,142.5,6|0,0:0|0:0,0:0:0:0:
335,73,68256,1,0,0:0:0:0:
381,261,68435,2,0,L|396:162,1,95,8|0,0:0|0:0,0:0:0:0:
387,151,68705,1,0,0:0:0:0:
387,151,68795,1,8,0:0:0:0:
452,303,68974,1,8,0:0:0:0:
267,285,69154,2,0,P|315:250|373:255,1,99.7499969558717,8|0,0:0|0:0,0:0:0:0:
381,261,69513,6,0,L|235:238,1,142.5,6|0,0:0|0:0,0:0:0:0:
219,235,69873,1,8,0:0:0:0:
345,116,70052,2,0,P|326:75|343:9,1,95,10|0,0:0|0:0,0:0:0:0:
192,146,70411,2,0,P|211:105|194:39,1,95,10|0,0:0|0:0,0:0:0:0:
86,226,70771,6,0,B|128:205|128:205|236:240,1,142.5,6|0,0:0|0:0,0:0:0:0:
238,243,71130,1,0,0:0:0:0:
375,146,71310,2,0,L|266:164,1,95,8|0,0:0|0:0,0:0:0:0:
469,200,71669,6,0,B|494:135|454:80|454:80|489:108|518:109,1,190,12|0,0:0|0:0,0:0:0:0:
469,200,72388,5,14,0:0:0:0:
375,146,72567,1,2,0:0:0:0:
243,311,72747,5,10,0:0:0:0:
394,266,72926,1,2,0:0:0:0:
187,158,73106,5,10,0:0:0:0:
337,328,73286,1,2,0:0:0:0:
336,84,73465,1,10,0:0:0:0:
213,254,73645,6,0,P|151:249|95:166,1,142.5,6|0,0:0|0:0,0:0:0:0:
105,170,74004,1,0,0:0:0:0:
148,3,74184,5,10,0:0:0:0:
187,158,74364,1,2,0:0:0:0:
367,97,74543,5,10,0:0:0:0:
230,56,74723,1,2,0:0:0:0:
379,185,74902,2,0,P|415:182|457:125,1,99.7499969558717,10|0,0:0|0:0,0:0:0:0:
455,136,75262,6,0,P|439:185|461:253,1,95,14|2,0:0|0:0,0:0:0:0:
499,309,75621,1,10,0:0:0:0:
290,305,75801,5,2,0:0:0:0:
427,255,75980,1,10,0:0:0:0:
194,156,76160,5,2,0:0:0:0:
333,211,76340,1,10,0:0:0:0:
98,305,76519,6,0,B|72:259|72:259|115:152,1,142.5,6|0,0:0|0:0,0:0:0:0:
97,148,76879,1,10,0:0:0:0:
167,360,77058,1,10,0:0:0:0:
333,211,77238,5,0,0:0:0:0:
333,211,77328,1,0,0:0:0:0:
333,211,77417,2,0,B|291:187|291:187|224:202,1,95,6|0,0:0|1:0,0:0:0:0:
184,96,77687,2,0,B|226:120|226:120|293:105,1,95,6|0,0:0|1:0,0:0:0:0:
334,61,77956,1,0,0:0:0:0:
397,282,78136,5,2,0:0:0:0:
245,197,78316,1,0,0:0:0:0:
450,141,78495,1,10,0:0:0:0:
355,359,78675,6,0,L|372:192,1,142.5,6|0,0:0|0:0,0:0:0:0:
363,193,79034,1,0,0:0:0:0:
483,78,79214,2,0,L|464:191,1,95,2|0,0:0|0:0,0:0:0:0:
322,44,79573,5,6,0:0:0:0:
217,254,79753,1,0,0:0:0:0:
132,74,79932,1,8,0:0:0:0:
316,210,80112,6,0,P|331:281|275:354,1,142.5,6|0,0:0|0:0,0:0:0:0:
278,350,80471,1,2,0:0:0:0:
168,173,80651,1,2,0:0:0:0:
316,210,80831,5,2,0:0:0:0:
316,210,80920,1,0,0:0:0:0:
316,210,81010,1,14,0:0:0:0:
143,323,81190,1,2,0:0:0:0:
41,142,81370,5,10,0:0:0:0:
226,244,81549,1,2,0:0:0:0:
297,36,81729,5,10,0:0:0:0:
97,227,81908,1,2,0:0:0:0:
349,315,82088,1,10,0:0:0:0:
159,58,82268,5,14,0:0:0:0:
419,174,82627,5,6,0:0:0:0:
189,342,82986,5,6,0:0:0:0:
189,342,83885,6,0,L|205:198,1,142.5,4|0,0:0|1:0,0:0:0:0:
170,166,84244,2,0,B|152:209|152:209|173:263,1,95,8|0,0:0|0:0,0:0:0:0:
340,177,84603,1,8,0:0:0:0:
215,102,84783,1,8,0:0:0:0:
288,271,84962,1,0,0:0:0:0:
436,152,85142,6,0,P|412:112|357:91,1,95,4|0,0:0|0:0,0:0:0:0:
446,276,85501,2,0,P|470:236|520:217,1,85.4999973907472
340,177,85861,1,0,0:0:0:0:
340,177,86040,1,0,0:0:0:0:
265,324,86220,1,8,0:0:0:0:
243,333,86310,1,8,0:0:0:0:
225,342,86399,2,0,L|170:330,1,42.7499986953736,8|8,0:0|0:0,0:0:0:0:
105,288,86579,1,8,0:0:0:0:
279,172,86759,6,0,L|388:188,1,104.500003189087,12|0,0:0|0:0,0:0:0:0:
440,246,87028,1,0,0:0:0:0:
456,268,87118,1,0,0:0:0:0:
279,172,87298,6,0,B|221:187|176:134|176:134|217:196|185:252|127:257|81:222|85:162|107:128|107:128|106:182|136:202,1,453.150000691452,6|0,0:0|0:0,0:0:0:0:
