osu file format v14

[General]
AudioFilename: audio.mp3
AudioLeadIn: 0
PreviewTime: 54244
Countdown: 0
SampleSet: Soft
StackLeniency: 0.4
Mode: 0
LetterboxInBreaks: 0
WidescreenStoryboard: 0

[Editor]
Bookmarks: 88914
DistanceSpacing: 0.9
BeatDivisor: 4
GridSize: 4
TimelineZoom: 2

[Metadata]
Title:DREAM SOLISTER
TitleUnicode:DREAM SOLISTER
Artist:TRUE
ArtistUnicode:TRUE
Creator:Marcuddles
Version:Shira's Easy
Source:響け!ユーフォニアム
Tags:tv size Sound Hibike! Euphonium Original Soundtrack Omoide Music opening Shiratoi Andrea osuplayer111
BeatmapID:1496253
BeatmapSetID:692587

[Difficulty]
HPDrainRate:3
CircleSize:3
OverallDifficulty:3
ApproachRate:3
SliderMultiplier:1
SliderTickRate:1

[Events]
//Background and Video events
0,0,"Marcuddles.jpg",0,0
//Break Periods
//Storyboard Layer 0 (Background)
//Storyboard Layer 1 (Fail)
//Storyboard Layer 2 (Pass)
//Storyboard Layer 3 (Foreground)
//Storyboard Sound Samples

[TimingPoints]
533,359.281437125748,4,2,23,80,1,0
1790,340.909090909091,4,2,23,80,1,0
2642,405.405405405405,4,2,23,80,1,0
3047,359.281437125748,4,2,23,80,1,0
3406,375,4,2,23,80,1,0
3969,340.909090909091,4,2,23,80,1,0
4309,355.029585798817,4,2,23,80,1,0
4841,359.281437125748,4,2,23,80,1,0
26019,359.281437125748,4,2,23,60,1,0
26400,359.281437125748,4,2,23,60,1,0
55142,-100,4,2,23,80,0,1
65920,-100,4,2,23,80,0,0
66639,-100,4,2,23,80,0,1
82986,-100,4,2,23,80,0,0
83885,-100,4,2,23,80,0,1
87298,-100,4,2,23,80,0,0

[Colours]
Combo1 : 173,91,255
Combo2 : 121,188,255
Combo3 : 255,128,128
Combo4 : 255,165,121

[HitObjects]
477,327,533,6,0,B|437:313|437:313|382:332|382:332|325:313,1,150,6|0,0:0|0:0,0:0:0:0:
272,251,1431,1,0,0:0:0:0:
359,229,1790,2,0,P|311:172|227:175,1,150,4|8,0:0|0:0,0:0:0:0:
177,233,2643,2,0,P|155:178|168:119,1,100,0|8,0:0|0:0,0:0:0:0:
225,77,3406,6,0,L|384:72,1,150,4|0,0:0|0:0,0:0:0:0:
457,35,4309,1,2,0:0:0:0:
448,116,4664,2,0,B|431:167|431:167|453:285,1,151,4|2,0:0|0:0,0:0:0:0:
480,355,5559,2,0,L|377:350,1,100,2|8,0:0|0:0,0:0:0:0:
311,291,6278,6,0,B|190:253|223:341|101:293,2,200,12|6|14,0:0|0:0|0:0,0:0:0:0:
395,260,8074,1,14,0:0:0:0:
324,204,8434,2,0,P|308:151|318:100,1,100,14|2,0:0|0:0,0:0:0:0:
264,33,9153,5,2,0:0:0:0:
221,112,9512,1,8,0:0:0:0:
170,37,9871,2,0,L|8:46,2,150,2|4|8,0:0|0:0|0:0,0:0:0:0:
264,33,11308,2,0,L|385:43,1,100,0|8,0:0|0:0,0:0:0:0:
453,34,12027,6,0,B|423:117|479:91|455:181,1,150,4|0,0:0|0:0,0:0:0:0:
399,250,12925,1,2,0:0:0:0:
318,210,13284,2,0,B|265:201|265:201|197:230|197:230|116:210,1,200,4|6,0:0|0:0,0:0:0:0:
264,33,14901,5,4,0:0:0:0:
192,87,15260,2,0,L|83:80,2,100,8|0|8,0:0|0:0|0:0,0:0:0:0:
275,121,16338,2,0,P|252:207|299:268,2,150,2|0|8,0:0|0:0|0:0,0:0:0:0:
336,186,17775,6,0,B|385:169|385:169|491:194,2,150,0|0|8,0:0|0:0|0:0,0:0:0:0:
280,255,19212,2,0,L|285:360,1,100,0|8,0:0|0:0,0:0:0:0:
194,354,19931,2,0,L|198:254,1,100,8|8,0:0|0:0,0:0:0:0:
165,170,20650,5,8,0:0:0:0:
112,243,21009,2,0,P|64:253|15:237,2,100,0|8|0,0:0|0:0|0:0,0:0:0:0:
66,165,22087,2,0,L|60:4,2,150,8|2|8,0:0|0:0|0:0,0:0:0:0:
112,243,23524,6,0,B|84:289|84:289|118:386,2,150,4|0|0,0:0|0:0|0:0,0:0:0:0:
165,170,24961,2,0,L|269:166,2,100,10|8|8,0:0|0:0|0:0,0:0:0:0:
344,193,26400,6,0,B|329:231|329:231|345:300,1,100,4|8,0:0|0:0,0:0:0:0:
345,378,27118,2,0,P|406:358|494:382,2,150,2|4|8,0:0|0:0|0:0,0:0:0:0:
280,312,28555,2,0,P|239:324|174:308,1,100,0|8,0:0|0:0,0:0:0:0:
127,242,29273,6,0,L|120:138,1,100,4|8,0:0|0:0,0:0:0:0:
209,157,29992,2,0,L|207:-1,2,150,0|4|8,0:0|0:0|0:0,0:0:0:0:
286,212,31430,2,0,L|279:311,1,100,0|8,0:0|0:0,0:0:0:0:
357,355,32148,6,0,P|413:347|468:358,1,100,4|8,0:0|0:0,0:0:0:0:
470,264,32867,2,0,P|452:197|481:122,2,150,2|0|8,0:0|0:0|0:0,0:0:0:0:
379,264,34304,2,0,P|323:272|268:261,1,100,2|8,0:0|0:0,0:0:0:0:
203,218,35022,5,6,0:0:0:0:
246,138,35382,1,8,0:0:0:0:
171,94,35741,2,0,L|4:86,1,150,8|6,0:0|0:0,0:0:0:0:
115,183,36819,2,0,P|110:243|130:283,2,100,6|0|0,0:0|0:0|0:0,0:0:0:0:
203,218,37897,6,0,P|271:228|332:169,2,150,2|2|0,0:0|0:0|0:0,0:0:0:0:
115,183,39334,2,0,L|4:178,1,100,2|0,0:0|0:0,0:0:0:0:
45,93,40052,2,0,L|156:88,1,100,0|8,0:0|0:0,0:0:0:0:
204,155,40771,6,0,L|368:160,2,150,4|0|8,0:0|0:0|0:0,0:0:0:0:
115,183,42208,2,0,P|127:229|110:291,1,100,0|0,0:0|0:0,0:0:0:0:
206,276,42927,2,0,P|194:322|211:384,1,100,0|8,0:0|0:0,0:0:0:0:
281,326,43645,6,0,L|445:331,2,150,4|0|8,0:0|0:0|0:0,0:0:0:0:
206,276,45082,2,0,P|194:230|211:168,1,100,2|8,0:0|0:0,0:0:0:0:
114,175,45801,2,0,P|126:129|109:67,1,100,2|10,0:0|0:0,0:0:0:0:
205,74,46520,6,0,B|263:108|263:108|403:75,1,200,6|2,0:0|0:0,0:0:0:0:
473,39,47597,1,10,0:0:0:0:
465,128,47957,2,0,L|473:231,1,100,2|10,0:0|0:0,0:0:0:0:
383,213,48675,2,0,L|375:316,1,100,10|10,0:0|0:0,0:0:0:0:
293,351,49394,5,6,0:0:0:0:
240,277,49753,1,10,0:0:0:0:
192,353,50112,2,0,P|147:365|80:354,1,100,10|10,0:0|0:0,0:0:0:0:
44,284,50831,2,0,L|40:126,1,150,0|2,0:0|0:0,0:0:0:0:
142,46,51908,1,10,0:0:0:0:
215,98,52268,6,0,B|269:110|269:110|323:91,1,100,6|8,0:0|0:0,0:0:0:0:
395,125,52986,2,0,P|364:185|400:273,1,150,2|10,0:0|0:0,0:0:0:0:
442,331,53885,2,0,L|503:327,1,50,2|0,0:0|0:0,0:0:0:0:
482,147,54783,1,0,0:0:0:0:
395,125,55142,6,0,P|350:135|285:121,1,100,6|8,0:0|0:0,0:0:0:0:
234,62,55861,1,2,0:0:0:0:
228,196,56399,2,0,B|252:240|252:240|226:349,1,150,4|8,0:0|0:0,0:0:0:0:
141,362,57298,2,0,L|35:355,1,100,2|10,0:0|0:0,0:0:0:0:
37,265,58016,6,0,P|58:214|52:152,1,100,10|10,0:0|0:0,0:0:0:0:
36,82,58735,1,10,0:0:0:0:
164,124,59274,2,0,L|322:121,1,150,4|8,0:0|0:0,0:0:0:0:
395,83,60172,2,0,L|400:187,1,100,2|4,0:0|0:0,0:0:0:0:
480,222,60891,6,0,P|448:269|463:366,2,150,2|2|8,0:0|0:0|0:0,0:0:0:0:
399,182,62328,2,0,L|285:189,1,100,2|8,0:0|0:0,0:0:0:0:
252,264,63046,1,10,0:0:0:0:
163,247,63405,1,8,0:0:0:0:
213,172,63765,6,0,P|211:114|204:11,2,150,6|2|10,0:0|0:0|0:0,0:0:0:0:
163,247,65202,2,0,P|167:308|172:364,1,100,0|2,0:0|0:0,0:0:0:0:
260,356,65920,2,0,L|368:350,1,100,8|8,0:0|0:0,0:0:0:0:
447,327,66639,6,0,B|419:289|419:289|431:222,1,100,4|8,0:0|0:0,0:0:0:0:
472,158,67358,1,10,0:0:0:0:
364,76,67897,2,0,L|208:75,1,150,6|8,0:0|0:0,0:0:0:0:
129,43,68795,2,0,L|138:150,1,100,8|8,0:0|0:0,0:0:0:0:
224,166,69513,6,0,B|204:206|204:206|229:325,1,150,6|10,0:0|0:0,0:0:0:0:
298,362,70411,1,10,0:0:0:0:
370,307,70771,2,0,B|391:203|391:203|371:163,1,150,6|8,0:0|0:0,0:0:0:0:
351,75,71669,2,0,P|298:89|241:70,1,100,12|0,0:0|0:0,0:0:0:0:
185,21,72388,5,14,0:0:0:0:
95,27,72747,1,10,0:0:0:0:
146,102,73106,2,0,L|160:263,2,150,10|6|10,0:0|0:0|0:0,0:0:0:0:
56,113,74543,2,0,L|65:225,1,100,10|10,0:0|0:0,0:0:0:0:
80,301,75262,5,14,0:0:0:0:
158,251,75621,1,10,0:0:0:0:
233,300,75980,2,0,L|394:286,2,150,10|6|10,0:0|0:0|0:0,0:0:0:0:
248,211,77417,2,0,L|344:202,1,75,6|6,0:0|0:0,0:0:0:0:
434,215,78136,6,0,P|405:150|428:71,2,150,2|6|2,0:0|0:0|0:0,0:0:0:0:
382,287,79573,2,0,L|233:300,2,150,6|6|2,0:0|0:0|0:0,0:0:0:0:
434,215,81010,6,0,P|470:268|467:323,1,100,14|10,0:0|0:0,0:0:0:0:
416,373,81729,1,10,0:0:0:0:
326,377,82088,2,0,L|266:382,1,50,10|14,0:0|0:0,0:0:0:0:
232,300,82627,2,0,L|235:190,1,100,6|6,0:0|0:0,0:0:0:0:
409,57,83885,6,0,B|369:69|369:69|305:55,1,100,4|8,0:0|0:0,0:0:0:0:
229,20,84603,1,8,0:0:0:0:
107,78,85142,2,0,L|113:193,1,100,4|0,0:0|0:0,0:0:0:0:
201,165,85861,2,0,L|184:326,1,150,0|8,0:0|0:0,0:0:0:0:
249,377,86759,5,12,0:0:0:0:
359,298,87298,1,14,0:0:0:0:
256,192,87388,12,0,88914,0:0:0:0:
