osu file format v14

[General]
AudioFilename: audio.mp3
AudioLeadIn: 0
PreviewTime: 54244
Countdown: 0
SampleSet: Soft
StackLeniency: 0.4
Mode: 0
LetterboxInBreaks: 0
WidescreenStoryboard: 1

[Editor]
DistanceSpacing: 1.4
BeatDivisor: 4
GridSize: 4
TimelineZoom: 1.5

[Metadata]
Title:DREAM SOLISTER
TitleUnicode:DREAM SOLISTER
Artist:TRUE
ArtistUnicode:TRUE
Creator:Marcuddles
Version:Andrea's Normal
Source:響け!ユーフォニアム
Tags:tv size Sound Hibike! Euphonium Original Soundtrack Omoide Music opening Shiratoi Andrea osuplayer111
BeatmapID:1534268
BeatmapSetID:692587

[Difficulty]
HPDrainRate:5
CircleSize:3.5
OverallDifficulty:5
ApproachRate:5
SliderMultiplier:1.2
SliderTickRate:1

[Events]
//Background and Video events
0,0,"Marcuddles.jpg",0,0
//Break Periods
//Storyboard Layer 0 (Background)
//Storyboard Layer 1 (Fail)
//Storyboard Layer 2 (Pass)
//Storyboard Layer 3 (Foreground)
//Storyboard Sound Samples

[TimingPoints]
533,359.281437125748,4,2,23,80,1,0
1790,340.909090909091,4,2,23,80,1,0
2642,405.405405405405,4,2,23,80,1,0
3047,359.281437125748,4,2,23,80,1,0
3406,375,4,2,23,80,1,0
3969,340.909090909091,4,2,23,80,1,0
4309,355.029585798817,4,2,23,80,1,0
4841,359.281437125748,4,2,23,80,1,0
26019,359.281437125748,4,2,23,60,1,0
26400,359.281437125748,4,2,23,60,1,0
37897,-100,4,2,23,70,0,0
55142,-100,4,2,23,80,0,1
65920,-100,4,2,23,80,0,0
66639,-100,4,2,23,80,0,1
82986,-100,4,2,23,80,0,0
83885,-100,4,2,23,80,0,1
87298,-100,4,2,23,80,0,0
88914,-100,4,2,23,20,0,0

[Colours]
Combo1 : 173,91,255
Combo2 : 121,188,255
Combo3 : 255,128,128
Combo4 : 255,165,121

[HitObjects]
96,48,533,6,0,P|188:48|264:104,1,180,6|0,0:0|0:0,0:0:0:0:
316,156,1251,1,2,0:0:0:0:
376,216,1431,2,0,L|460:300,1,120,2|4,0:0|0:0,0:0:0:0:
212,352,2301,5,8,0:0:0:0:
108,248,2643,2,0,P|88:192|112:137,1,120,2|8,0:0|0:0,0:0:0:0:
264,72,3407,6,0,P|360:72|432:132,1,180,4|2,0:0|0:0,0:0:0:0:
384,196,4139,1,0,0:0:0:0:
332,260,4309,2,0,L|256:360,1,120,2|4,0:0|0:0,0:0:0:0:
96,316,5021,1,0,0:0:0:0:
47,246,5201,1,2,0:0:0:0:
132,100,5560,2,0,P|192:100|240:64,1,120,2|8,0:0|0:0,0:0:0:0:
324,64,6099,1,8,0:0:0:0:
324,64,6279,6,0,L|444:64,2,120,12|0|6,0:0|0:0|0:0,0:0:0:0:
216,192,7356,1,0,0:0:0:0:
172,264,7536,1,8,0:0:0:0:
216,336,7716,2,0,B|280:336|280:336|336:304,1,120,14|14,0:0|0:0,0:0:0:0:
468,216,8434,1,14,0:0:0:0:
408,160,8614,1,0,0:0:0:0:
344,108,8794,2,0,P|296:68|236:68,1,120,2|2,0:0|0:0,0:0:0:0:
132,192,9512,5,12,0:0:0:0:
240,317,9871,1,2,0:0:0:0:
240,317,10051,2,0,P|299:314|344:276,1,120,2|4,0:0|0:0,0:0:0:0:
440,136,10770,1,2,0:0:0:0:
440,136,10949,1,8,0:0:0:0:
440,136,11129,2,0,B|440:72|440:72|412:24,1,120,0|2,0:0|0:0,0:0:0:0:
256,92,11847,5,0,0:0:0:0:
256,92,12027,2,0,L|256:212,1,120,4|8,0:0|0:0,0:0:0:0:
256,296,12566,2,0,P|136:296|64:208,1,240,0|4,0:0|0:0,0:0:0:0:
28,44,13644,1,2,0:0:0:0:
28,44,13824,1,8,0:0:0:0:
28,44,14003,1,6,0:0:0:0:
484,44,14901,6,0,P|508:100|484:152,1,120,4|8,0:0|0:0,0:0:0:0:
408,300,15620,1,0,0:0:0:0:
256,228,15979,1,8,0:0:0:0:
104,300,16339,1,2,0:0:0:0:
26,150,16698,2,0,P|3:97|28:44,2,120,8|0|8,0:0|0:0|0:0,0:0:0:0:
172,68,17776,5,0,0:0:0:0:
340,68,18135,1,8,0:0:0:0:
256,212,18494,1,0,0:0:0:0:
172,68,18853,1,8,0:0:0:0:
340,68,19213,2,0,P|460:68|496:168,2,240,0|8|8,0:0|0:0|0:0,0:0:0:0:
256,212,21009,6,0,L|192:320,1,120,0|8,0:0|0:0,0:0:0:0:
44,240,21728,2,0,L|108:132,1,120,0|8,0:0|0:0,0:0:0:0:
256,60,22446,1,0,0:0:0:0:
407,136,22806,2,0,P|472:136|512:172,1,120,0|8,0:0|0:0,0:0:0:0:
408,304,23524,5,4,0:0:0:0:
256,232,23883,1,8,0:0:0:0:
104,304,24243,2,0,L|48:188,1,120,0|0,0:0|0:0,0:0:0:0:
120,40,24961,1,10,0:0:0:0:
256,140,25321,1,8,0:0:0:0:
392,40,25680,1,8,0:0:0:0:
392,200,26019,1,12,0:0:0:0:
256,316,26400,5,4,0:0:0:0:
120,200,26759,2,0,P|120:136|156:96,1,120,8|2,0:0|0:0,0:0:0:0:
308,32,27477,1,8,0:0:0:0:
308,32,27657,2,0,P|368:32|416:68,1,120,4|0,0:0|0:0,0:0:0:0:
464,132,28196,1,8,0:0:0:0:
464,132,28376,1,0,0:0:0:0:
372,272,28735,5,0,0:0:0:0:
372,272,28914,2,0,P|312:272|264:236,1,120,8|4,0:0|0:0,0:0:0:0:
120,148,29633,2,0,L|60:108,2,60,8|0|0,0:0|0:0|0:0,0:0:0:0:
264,64,30352,1,10,0:0:0:0:
264,64,30531,2,0,B|332:64|332:64|380:88,1,120,4|0,0:0|0:0,0:0:0:0:
444,140,31070,1,8,0:0:0:0:
444,140,31250,1,0,0:0:0:0:
296,344,31789,6,0,L|244:312,1,60,8|8,0:0|0:0,0:0:0:0:
172,272,32148,2,0,P|112:272|64:232,1,120,4|8,0:0|0:0,0:0:0:0:
64,152,32687,2,0,L|152:60,1,120,2|0,0:0|0:0,0:0:0:0:
256,192,33405,1,0,0:0:0:0:
365,65,33765,2,0,L|448:152,1,120,0|0,0:0|0:0,0:0:0:0:
445,236,34304,6,0,P|398:272|340:272,1,120,2|8,0:0|0:0,0:0:0:0:
256,288,34843,1,2,0:0:0:0:
256,288,35022,1,6,0:0:0:0:
172,140,35382,2,0,B|112:140|112:140|64:104,2,120,8|8|10,0:0|0:0|0:0,0:0:0:0:
256,140,36280,5,6,0:0:0:0:
424,140,36639,1,2,0:0:0:0:
424,140,36819,1,6,0:0:0:0:
340,284,37178,1,0,0:0:0:0:
172,284,37537,1,0,0:0:0:0:
88,140,37897,6,0,B|172:140|172:92|260:92,2,180,6|2|8,0:0|0:0|0:0,0:0:0:0:
172,284,39334,2,0,B|256:284|256:236|344:236,2,180,2|0|8,0:0|0:0|0:0,0:0:0:0:
32,192,40771,5,4,0:0:0:0:
256,72,41310,1,0,0:0:0:0:
480,192,41849,1,8,0:0:0:0:
340,288,42208,2,0,P|256:316|172:288,2,180,0|0|8,0:0|0:0|0:0,0:0:0:0:
340,120,43645,6,0,P|256:92|172:120,2,180,4|0|8,0:0|0:0|0:0,0:0:0:0:
492,192,45082,1,2,0:0:0:0:
340,264,45441,1,8,0:0:0:0:
172,264,45801,1,2,0:0:0:0:
20,192,46160,1,10,0:0:0:0:
172,120,46519,6,0,B|216:80|256:80|256:80|344:80,1,180,6|0,0:0|0:0,0:0:0:0:
424,80,47238,2,0,P|472:152|424:224,1,180,2|0,0:0|0:0,0:0:0:0:
360,272,47956,2,0,L|256:352,1,120,2|10,0:0|0:0,0:0:0:0:
100,320,48675,2,0,L|204:240,1,120,10|10,0:0|0:0,0:0:0:0:
84,120,49394,6,0,L|36:68,2,60,6|2|10,0:0|0:0|0:0,0:0:0:0:
216,20,50112,1,10,0:0:0:0:
384,20,50471,1,10,0:0:0:0:
384,20,50651,2,0,L|476:120,1,120,6|2,0:0|0:0,0:0:0:0:
408,172,51190,1,10,0:0:0:0:
408,172,51370,2,0,L|500:272,1,120,2|2,0:0|0:0,0:0:0:0:
428,320,51908,1,10,0:0:0:0:
260,320,52268,6,0,P|200:320|152:288,1,120,6|8,0:0|0:0,0:0:0:0:
100,220,52807,2,0,L|64:172,1,60,0|2,0:0|0:0,0:0:0:0:
16,104,53166,2,0,B|68:64|68:64|128:64,1,120,10|10,0:0|0:0,0:0:0:0:
292,60,53885,1,6,0:0:0:0:
292,60,54064,2,0,P|356:60|404:92,1,120,0|0,0:0|0:0,0:0:0:0:
460,152,54603,5,0,0:0:0:0:
460,152,54783,2,0,L|400:272,1,120,4|6,0:0|0:0,0:0:0:0:
256,336,55501,1,8,0:0:0:0:
105,259,55861,1,2,0:0:0:0:
105,259,56040,2,0,L|52:152,1,120,2|4,0:0|0:0,0:0:0:0:
204,224,56759,1,0,0:0:0:0:
204,224,56938,2,0,L|150:116,1,120,8|2,0:0|0:0,0:0:0:0:
308,52,57657,1,10,0:0:0:0:
372,208,58016,6,0,L|400:268,1,60,10|0,0:0|0:0,0:0:0:0:
332,320,58376,2,0,L|280:204,1,120,10|10,0:0|0:0,0:0:0:0:
212,60,59094,1,8,0:0:0:0:
212,60,59274,2,0,P|116:60|48:108,1,180,4|8,0:0|0:0,0:0:0:0:
48,276,60172,1,2,0:0:0:0:
196,352,60531,1,4,0:0:0:0:
256,196,60891,5,2,0:0:0:0:
316,352,61250,1,8,0:0:0:0:
316,352,61429,2,0,P|376:352|424:312,1,120,2|0,0:0|0:0,0:0:0:0:
492,164,62148,2,0,P|492:92|416:24,1,180,0|8,0:0|0:0,0:0:0:0:
256,76,63046,2,0,L|136:76,1,120,10|8,0:0|0:0,0:0:0:0:
40,212,63765,5,6,0:0:0:0:
148,340,64124,2,0,P|256:296|364:340,1,240,10|10,0:0|0:0,0:0:0:0:
448,340,65022,2,0,L|480:224,1,120,6|2,0:0|0:0,0:0:0:0:
500,144,65561,1,2,0:0:0:0:
364,48,65920,1,8,0:0:0:0:
364,48,66100,2,0,P|304:48|256:80,1,120,8|8,0:0|0:0,0:0:0:0:
136,200,66819,5,0,0:0:0:0:
136,200,66998,2,0,P|112:252|136:312,1,120,12|10,0:0|0:0,0:0:0:0:
204,352,67537,1,10,0:0:0:0:
359,288,67897,2,0,P|439:288|491:208,1,180,6|8,0:0|0:0,0:0:0:0:
392,76,68795,1,8,0:0:0:0:
256,176,69154,1,8,0:0:0:0:
120,76,69513,5,6,0:0:0:0:
52,232,69873,1,8,0:0:0:0:
52,232,70052,2,0,P|112:232|160:272,1,120,10|10,0:0|0:0,0:0:0:0:
300,356,70771,2,0,P|388:357|461:307,1,180,6|8,0:0|0:0,0:0:0:0:
462,138,71669,2,0,P|402:138|358:182,1,120,12|0,0:0|0:0,0:0:0:0:
282,27,72388,6,0,L|245:78,1,60,12|0,0:0|0:0,0:0:0:0:
192,140,72747,2,0,P|148:179|90:179,1,120,10|10,0:0|0:0,0:0:0:0:
24,332,73465,1,10,0:0:0:0:
192,332,73825,6,0,P|252:332|300:292,1,120,0|10,0:0|0:0,0:0:0:0:
356,236,74364,1,2,0:0:0:0:
356,236,74543,1,10,0:0:0:0:
488,132,74902,1,10,0:0:0:0:
356,28,75262,6,0,B|292:28|292:28|240:60,1,120,14|10,0:0|0:0,0:0:0:0:
176,108,75801,2,0,B|128:137|128:137|64:137,1,120,2|2,0:0|0:0,0:0:0:0:
64,304,76519,1,6,0:0:0:0:
232,304,76879,1,10,0:0:0:0:
232,304,77058,6,0,P|304:304|344:268,1,120,10|6,0:0|0:0,0:0:0:0:
448,212,77687,2,0,L|396:132,1,90,6|6,0:0|0:0,0:0:0:0:
348,72,78136,1,2,0:0:0:0:
180,72,78495,1,10,0:0:0:0:
180,72,78675,2,0,P|120:72|72:104,1,120,6|0,0:0|0:0,0:0:0:0:
48,184,79214,6,0,L|100:292,1,120,2|6,0:0|0:0,0:0:0:0:
256,348,79932,1,8,0:0:0:0:
256,348,80112,2,0,L|204:240,1,120,6|2,0:0|0:0,0:0:0:0:
164,164,80651,1,2,0:0:0:0:
320,100,81010,6,0,L|388:100,1,60,14|2,0:0|0:0,0:0:0:0:
464,100,81370,2,0,B|464:164|464:164|428:212,1,120,10|10,0:0|0:0,0:0:0:0:
327,344,82088,1,10,0:0:0:0:
327,344,82268,2,0,P|269:345|221:310,1,120,14|6,0:0|0:0,0:0:0:0:
104,192,82986,5,6,0:0:0:0:
221,73,83346,1,0,0:0:0:0:
221,73,83525,2,0,P|269:38|327:39,1,120,0|4,0:0|0:0,0:0:0:0:
448,156,84244,6,0,L|408:208,1,60,8|0,0:0|0:0,0:0:0:0:
360,268,84603,1,8,0:0:0:0:
360,268,84783,2,0,P|296:268|256:304,1,120,8|4,0:0|0:0,0:0:0:0:
96,348,85501,1,0,0:0:0:0:
32,192,85861,1,0,0:0:0:0:
96,36,86220,5,8,0:0:0:0:
96,36,86399,2,0,P|164:36|208:64,1,120,8|12,0:0|0:0,0:0:0:0:
344,160,87118,1,10,0:0:0:0:
344,160,87298,2,0,B|364:316|364:316|256:256|148:316|148:316|168:160,1,540,4|0,0:0|0:0,0:0:0:0:
