osu file format v14

[General]
AudioFilename: audio.mp3
AudioLeadIn: 0
PreviewTime: 54244
Countdown: 0
SampleSet: Soft
StackLeniency: 0.4
Mode: 0
LetterboxInBreaks: 0
WidescreenStoryboard: 1

[Editor]
Bookmarks: 88914
DistanceSpacing: 0.2
BeatDivisor: 4
GridSize: 32
TimelineZoom: 2

[Metadata]
Title:DREAM SOLISTER
TitleUnicode:DREAM SOLISTER
Artist:TRUE
ArtistUnicode:TRUE
Creator:Marcuddles
Version:Insane
Source:響け!ユーフォニアム
Tags:tv size Sound Hibike! Euphonium Original Soundtrack Omoide Music opening Shiratoi Andrea osuplayer111
BeatmapID:1465531
BeatmapSetID:692587

[Difficulty]
HPDrainRate:6
CircleSize:4.2
OverallDifficulty:7.5
ApproachRate:9
SliderMultiplier:1.9
SliderTickRate:1

[Events]
//Background and Video events
0,0,"Marcuddles.jpg",0,0
//Break Periods
//Storyboard Layer 0 (Background)
//Storyboard Layer 1 (Fail)
//Storyboard Layer 2 (Pass)
//Storyboard Layer 3 (Foreground)
//Storyboard Sound Samples

[TimingPoints]
533,359.281437125748,4,2,23,80,1,0
533,-125,4,2,23,80,0,0
1790,340.909090909091,4,2,23,80,1,0
1790,-125,4,2,23,80,0,0
2642,405.405405405405,4,2,23,80,1,0
2643,-125,4,2,23,80,0,0
3047,359.281437125748,4,2,23,80,1,0
3406,375,4,2,23,80,1,0
3407,-125,4,2,23,80,0,0
3969,340.909090909091,4,2,23,80,1,0
3969,-125,4,2,23,80,0,0
4309,355.029585798817,4,2,23,80,1,0
4663,-125,4,2,23,80,0,0
4841,359.281437125748,4,2,23,80,1,0
5201,-125,4,2,23,80,0,0
5919,-111.111111111111,4,2,23,80,0,0
6099,-99.9999999999999,4,2,23,80,0,0
6279,-100,4,2,23,80,0,0
6548,-100,4,2,23,5,0,0
6638,-100,4,2,23,80,0,0
6818,-100,4,2,23,30,0,0
6997,-100,4,2,23,80,0,0
7267,-100,4,2,23,5,0,0
7356,-100,4,2,23,80,0,0
7895,-100,4,2,23,5,0,0
8075,-100,4,2,23,80,0,0
8255,-100,4,2,23,5,0,0
8434,-100,4,2,23,80,0,0
8794,-100,4,2,23,80,0,0
9153,-111.111111111111,4,2,23,70,0,0
9422,-111.111111111111,4,2,23,5,0,0
9512,-111.111111111111,4,2,23,70,0,0
13285,-100,4,2,23,70,0,0
13554,-100,4,2,23,5,0,0
13644,-100,4,2,23,70,0,0
13913,-100,4,2,23,5,0,0
14003,-250,4,2,23,80,0,0
15261,-142.857142857143,4,2,23,65,0,0
26019,359.281437125748,4,2,23,60,1,0
26198,-100,4,2,23,50,0,0
26400,359.281437125748,4,2,23,60,1,0
26400,-142.857142857143,4,2,23,65,0,0
37088,-142.857142857143,4,2,23,5,0,0
37178,-166.666666666667,4,2,23,65,0,0
37447,-166.666666666667,4,2,23,5,0,0
37537,-200,4,2,23,65,0,0
37807,-200,4,2,23,5,0,0
37897,-153.846153846154,4,2,23,55,0,0
38435,-166.666666666667,4,2,23,55,0,0
38615,-166.666666666667,4,2,23,25,0,0
38795,-166.666666666667,4,2,23,55,0,0
38974,-166.666666666667,4,2,23,25,0,0
39154,-166.666666666667,4,2,23,55,0,0
39334,-166.666666666667,4,2,23,25,0,0
39513,-166.666666666667,4,2,23,55,0,0
41489,-166.666666666667,4,2,23,25,0,0
41669,-166.666666666667,4,2,23,55,0,0
41848,-166.666666666667,4,2,23,25,0,0
42029,-166.666666666667,4,2,23,55,0,0
42208,-166.666666666667,4,2,23,25,0,0
42388,-166.666666666667,4,2,23,55,0,0
43645,-142.857142857143,4,2,23,60,0,0
44364,-142.857142857143,4,2,23,25,0,0
44543,-142.857142857143,4,2,23,60,0,0
44723,-142.857142857143,4,2,23,25,0,0
44902,-142.857142857143,4,2,23,35,0,0
45082,-142.857142857143,4,2,23,60,0,0
45352,-142.857142857143,4,2,23,5,0,0
45441,-142.857142857143,4,2,23,60,0,0
45621,-142.857142857143,4,2,23,50,0,0
45801,-142.857142857143,4,2,23,60,0,0
45980,-142.857142857143,4,2,23,50,0,0
46160,-142.857142857143,4,2,23,60,0,0
46429,-142.857142857143,4,2,23,5,0,0
46519,-133.333333333333,4,2,23,60,0,0
51908,-166.666666666667,4,2,23,60,0,0
52178,-181.818181818181,4,2,23,5,0,0
52268,-181.818181818181,4,2,23,70,0,0
52986,-181.818181818181,4,2,23,75,0,0
53525,-105.263157894737,4,2,23,60,0,0
53795,-105.263157894737,4,2,23,5,0,0
53885,-95.2380952380954,4,2,23,60,0,0
53974,-105.263157894737,4,2,23,5,0,0
54064,-166.666666666667,4,2,23,70,0,0
54423,-100,4,2,23,80,0,0
54783,-100,4,2,23,80,0,0
55142,-100,4,2,23,80,0,1
56669,-100,4,2,23,5,0,1
56759,-100,4,2,23,80,0,1
57118,-100,4,2,23,40,0,1
57298,-100,4,2,23,80,0,1
57477,-100,4,2,23,40,0,1
57657,-153.846153846153,4,2,23,80,0,1
57926,-153.846153846153,4,2,23,5,0,1
58016,-100,4,2,23,85,0,1
59992,-100,4,2,23,40,0,1
60172,-100,4,2,23,85,0,1
61609,-100,4,2,23,50,0,1
61789,-100,4,2,23,85,0,1
61968,-100,4,2,23,50,0,1
62148,-100,4,2,23,85,0,1
62328,-100,4,2,23,50,0,1
62507,-100,4,2,23,45,0,1
62687,-100,4,2,23,85,0,1
62867,-100,4,2,23,40,0,1
63046,-100,4,2,23,85,0,1
63226,-100,4,2,23,40,0,1
63405,-142.857142857143,4,2,23,85,0,1
63675,-153.846153846153,4,2,23,5,0,1
63765,-100,4,2,23,85,0,1
63944,-100,4,2,23,40,0,1
64124,-100,4,2,23,85,0,1
66010,-100,4,2,23,50,0,1
66100,-100,4,2,23,85,0,1
66459,-100,4,2,23,85,0,0
66639,-100,4,2,23,85,0,1
66819,-100,4,2,23,40,0,1
67268,-100,4,2,23,5,0,1
67358,-100,4,2,23,85,0,1
68166,-100,4,2,23,5,0,1
68256,-100,4,2,23,85,0,1
68615,-100,4,2,23,40,0,1
68795,-100,4,2,23,85,0,1
68974,-100,4,2,23,40,0,1
69154,-142.857142857143,4,2,23,85,0,1
69423,-100,4,2,23,5,0,1
69513,-100,4,2,23,85,0,1
70232,-100,4,2,23,40,0,1
70411,-100,4,2,23,85,0,1
70591,-100,4,2,23,40,0,1
70771,-100,4,2,23,85,0,1
71040,-100,4,2,23,5,0,1
71130,-100,4,2,23,85,0,1
72028,-100,4,2,23,85,0,0
72388,-100,4,2,23,85,0,1
74364,-100,4,2,23,85,0,1
74543,-100,4,2,23,85,0,1
74723,-100,4,2,23,60,0,1
74902,-142.857142857143,4,2,23,85,0,1
75172,-142.857142857143,4,2,23,5,0,1
75262,-100,4,2,23,85,0,1
77597,-100,4,2,23,5,0,1
77687,-100,4,2,23,85,0,1
77867,-100,4,2,23,5,0,1
77956,-100,4,2,23,85,0,1
83885,-111.111111111111,4,2,23,80,0,0
85322,-111.111111111111,4,2,23,50,0,0
85501,-111.111111111111,4,2,23,65,0,0
85681,-111.111111111111,4,2,23,50,0,0
85861,-111.111111111111,4,2,23,65,0,0
86040,-111.111111111111,4,2,23,50,0,0
86220,-111.111111111111,4,2,23,65,0,0
86759,-90.9090909090909,4,2,23,65,0,0
87298,-188.679245283019,4,2,23,65,0,0
87388,-188.679245283019,4,2,23,30,0,0
88914,-188.679245283019,4,2,23,50,0,0

[Colours]
Combo1 : 173,91,255
Combo2 : 121,188,255
Combo3 : 255,128,128
Combo4 : 255,165,121

[HitObjects]
166,255,533,6,0,B|152:144|152:144|165:166|181:172,1,152,6|0,0:0|0:0,0:0:0:0:
285,144,1071,2,0,P|260:117|222:107,1,76,0|2,0:0|0:0,0:0:0:0:
166,255,1431,5,0,0:0:0:0:
166,255,1610,1,2,0:0:0:0:
332,230,1790,6,0,B|279:224|279:224|244:239|244:239|180:234,1,152,4|0,0:0|0:0,0:0:0:0:
41,176,2301,2,0,L|54:261,1,76,8|0,0:0|0:0,0:0:0:0:
137,109,2643,2,0,L|126:189,1,76,0|0,0:0|0:0,0:0:0:0:
47,91,3047,2,0,P|36:70|36:45,1,47.5,8|0,0:0|0:0,0:0:0:0:
54,22,3226,1,0,0:0:0:0:
288,127,3407,6,0,L|137:108,1,152,4|0,0:0|0:0,0:0:0:0:
63,169,3969,2,0,P|95:193|135:198,1,76
187,34,4309,5,2,0:0:0:0:
137,109,4486,1,2,0:0:0:0:
279,193,4664,6,0,P|320:130|293:63,1,152,4|0,0:0|0:0,0:0:0:0:
156,109,5201,2,0,P|229:117|249:120,1,76,2|0,0:0|0:0,0:0:0:0:
371,49,5560,2,0,P|303:61|293:63,1,76,2|0,0:0|0:0,0:0:0:0:
196,198,5919,1,8,0:0:0:0:
196,198,6009,1,8,0:0:0:0:
196,198,6099,2,0,L|210:264,1,47.5,8|0,0:0|0:0,0:0:0:0:
325,306,6279,6,0,B|338:208|338:208|321:233|308:241,1,142.5,12|0,0:0|1:0,0:0:0:0:
260,350,6638,2,0,P|299:382|355:381,1,95,0|0,0:0|0:0,0:0:0:0:
472,186,6997,2,0,B|392:166|415:220|336:208,1,142.5,6|0,0:0|0:0,0:0:0:0:
317,93,7356,2,0,P|346:127|351:153,1,47.5,0|8,0:0|0:0,0:0:0:0:
247,202,7536,2,0,P|266:161|282:148,1,47.5,8|8,0:0|0:0,0:0:0:0:
391,41,7716,6,0,P|346:57|314:97,1,95,14|0,0:0|0:0,0:0:0:0:
470,187,8075,2,0,P|475:137|444:95,1,95,14|0,0:0|0:0,0:0:0:0:
302,188,8434,2,0,P|336:221|400:230,1,95,14|0,0:0|0:0,0:0:0:0:
392,228,8704,1,0,0:0:0:0:
404,224,8794,2,0,P|400:264|392:288,1,47.5,2|2,0:0|0:0,0:0:0:0:
293,347,8973,2,0,P|285:303|289:271,1,47.5,2|2,0:0|0:0,0:0:0:0:
302,188,9153,6,0,B|233:173|250:222|179:215,1,128.249996086121,2|0,0:0|1:0,0:0:0:0:
160,203,9512,2,0,P|138:167|145:119,1,85.4999973907472,8|0,0:0|0:0,0:0:0:0:
213,14,9871,1,2,0:0:0:0:
213,14,10051,1,2,0:0:0:0:
237,143,10231,1,8,0:0:0:0:
101,100,10410,6,0,P|169:93|204:86,1,85.4999973907472,4|0,0:0|0:0,0:0:0:0:
321,149,10770,2,0,P|259:141|210:146,1,85.4999973907472,2|8,0:0|0:0,0:0:0:0:
148,238,11129,1,0,0:0:0:0:
148,238,11309,1,0,0:0:0:0:
241,294,11488,2,0,P|262:251|249:208,1,85.4999973907472,2|8,0:0|0:0,0:0:0:0:
152,354,11847,6,0,P|184:365|211:364,1,42.7499986953736,0|0,0:0|0:0,0:0:0:0:
329,318,12027,2,0,P|263:301|192:366,1,170.999994781494,4|8,0:0|0:0,0:0:0:0:
386,378,12566,2,0,P|412:340|409:299,1,85.4999973907472,0|2,0:0|0:0,0:0:0:0:
348,232,12925,1,2,0:0:0:0:
329,318,13105,1,8,0:0:0:0:
413,187,13285,6,0,B|365:182|365:182|324:201|324:201|272:195,1,142.5,4|0,0:0|0:0,0:0:0:0:
275,195,13644,1,2,0:0:0:0:
296,69,13824,2,0,P|305:120|305:132,1,47.5,8|0,0:0|1:0,0:0:0:0:
168,239,14003,2,0,B|185:103|185:103|194:138|217:152,1,190,6|4,0:0|0:0,0:0:0:0:
216,153,15261,5,8,0:0:0:0:
216,153,15440,2,0,P|151:146|143:145,1,66.4999979705811,0|0,0:0|0:0,0:0:0:0:
54,67,15800,2,0,P|108:61|134:57,1,66.4999979705811,0|8,0:0|0:0,0:0:0:0:
120,59,16159,1,0,0:0:0:0:
221,8,16339,6,0,P|262:59|237:135,1,132.999995941162,2|8,0:0|0:0,0:0:0:0:
156,203,16877,2,0,P|108:198|76:195,1,66.4999979705811,0|0,0:0|0:0,0:0:0:0:
0,161,17237,5,2,0:0:0:0:
18,257,17416,1,8,0:0:0:0:
89,196,17596,1,2,0:0:0:0:
142,309,17776,6,0,B|216:328|205:274|273:300,1,132.999995941162,0|8,0:0|0:0,0:0:0:0:
354,337,18315,2,0,P|390:326|411:286,1,66.4999979705811,0|0,0:0|0:0,0:0:0:0:
332,194,18674,2,0,P|328:232|350:269,1,66.4999979705811,0|8,0:0|0:0,0:0:0:0:
482,228,19033,2,0,L|416:217,1,66.4999979705811,0|0,0:0|0:0,0:0:0:0:
302,174,19392,6,0,L|295:132,2,33.2499989852906,0|0|8,0:0|0:0|0:0,0:0:0:0:
261,244,19752,1,2,0:0:0:0:
193,194,19931,1,8,0:0:0:0:
261,244,20111,6,0,P|268:276|266:296,1,33.2499989852906,2|2,0:0|0:0,0:0:0:0:
217,358,20291,1,8,0:0:0:0:
308,340,20470,1,2,0:0:0:0:
404,319,20650,6,0,P|423:288|418:253,1,66.4999979705811,8|0,0:0|0:0,0:0:0:0:
349,170,21009,2,0,L|282:178,1,66.4999979705811,0|0,0:0|0:0,0:0:0:0:
170,255,21368,1,8,0:0:0:0:
183,110,21548,2,0,B|205:152|205:152|187:249,1,132.999995941162,0|0,0:0|0:0,0:0:0:0:
64,187,22087,6,0,P|92:163|133:159,1,66.4999979705811,8|0,0:0|0:0,0:0:0:0:
120,157,22446,1,0,0:0:0:0:
243,89,22626,2,0,P|207:109|170:107,1,66.4999979705811,2|0,0:0|0:0,0:0:0:0:
106,18,22985,5,2,0:0:0:0:
190,32,23165,1,8,0:0:0:0:
135,99,23344,1,2,0:0:0:0:
288,112,23524,6,0,B|238:105|238:105|204:120|204:120|144:112,1,132.999995941162,4|8,0:0|0:0,0:0:0:0:
240,253,24063,2,0,P|246:213|250:174,1,66.4999979705811,0|0,0:0|0:0,0:0:0:0:
130,216,24422,2,0,P|166:222|189:233,1,33.2499989852906
302,273,24602,2,0,P|255:255|216:253,1,66.4999979705811,0|8,0:0|0:0,0:0:0:0:
222,261,24871,1,8,0:0:0:0:
208,277,24961,1,10,0:0:0:0:
294,187,25141,6,0,P|302:160|301:137,2,33.2499989852906,8|8|0,0:0|0:0|0:0,0:0:0:0:
347,263,25500,2,0,P|342:291|342:308,1,33.2499989852906,10|8,0:0|0:0,0:0:0:0:
349,320,25680,1,0,0:0:0:0:
485,355,25859,5,2,0:0:0:0:
349,320,26019,2,0,B|313:329|283:315|283:315|299:338|296:360,1,95
349,320,26400,6,0,P|388:265|370:205,1,132.999995941162,4|8,0:0|0:0,0:0:0:0:
238,243,26938,2,0,P|296:249|322:254,1,66.4999979705811,0|2,0:0|0:0,0:0:0:0:
233,165,27298,1,2,0:0:0:0:
233,165,27477,1,8,0:0:0:0:
185,307,27657,6,0,B|137:289|96:306|95:307|95:307|100:282|117:266,1,132.999995941162,4|0,0:0|0:0,0:0:0:0:
176,215,28196,1,8,0:0:0:0:
128,147,28376,2,0,P|92:156|64:197,1,66.4999979705811,0|0,0:0|0:0,0:0:0:0:
176,215,28735,5,0,0:0:0:0:
138,81,28914,2,0,L|125:160,1,66.4999979705811,8|0,0:0|0:0,0:0:0:0:
252,254,29274,6,0,P|262:185|207:143,1,132.999995941162,4|8,0:0|0:0,0:0:0:0:
108,224,29813,2,0,P|165:215|179:215,1,66.4999979705811,0|0,0:0|0:0,0:0:0:0:
252,254,30172,1,2,0:0:0:0:
252,254,30352,1,10,0:0:0:0:
212,112,30531,6,0,B|175:94|175:94|194:186,1,132.999995941162,4|0,0:0|0:0,0:0:0:0:
252,254,31070,1,8,0:0:0:0:
349,201,31250,2,0,P|325:176|290:163,1,66.4999979705811,0|0,0:0|0:0,0:0:0:0:
295,164,31609,1,8,0:0:0:0:
179,251,31789,2,0,L|254:241,1,66.4999979705811,8|8,0:0|0:0,0:0:0:0:
256,241,32058,1,0,0:0:0:0:
267,242,32148,6,0,B|177:220|177:220|208:258,1,132.999995941162,4|8,0:0|0:0,0:0:0:0:
295,164,32687,2,0,P|300:96|300:85,1,66.4999979705811,2|2,0:0|0:0,0:0:0:0:
231,29,33046,1,0,0:0:0:0:
231,29,33226,1,8,0:0:0:0:
157,119,33405,6,0,P|197:104|235:104,1,66.4999979705811,0|0,0:0|0:0,0:0:0:0:
220,102,33765,1,0,0:0:0:0:
364,124,33944,2,0,P|320:121|280:106,1,66.4999979705811,8|0,0:0|0:0,0:0:0:0:
399,44,34304,5,2,0:0:0:0:
364,124,34483,1,2,0:0:0:0:
330,201,34663,2,0,P|339:268|339:291,1,66.4999979705811,8|2,0:0|0:0,0:0:0:0:
449,333,35022,6,0,B|369:312|401:367|320:356,1,132.999995941162,6|8,0:0|0:0,0:0:0:0:
323,356,35561,1,2,0:0:0:0:
312,209,35741,2,0,P|336:240|333:287,1,66.4999979705811,8|2,0:0|0:0,0:0:0:0:
265,264,36100,1,10,0:0:0:0:
363,154,36280,5,6,0:0:0:0:
363,154,36639,1,2,0:0:0:0:
241,103,36819,6,0,P|199:124|183:178,1,99.7499969558717,6|0,0:0|1:0,0:0:0:0:
169,151,37178,2,0,P|185:110|219:87,1,85.4999973907472,0|0,0:0|1:0,0:0:0:0:
201,77,37537,2,0,P|173:94|157:135,1,71.25,0|0,0:0|1:0,0:0:0:0:
157,128,37897,6,0,P|172:9|174:-14,1,123.499994346619,2|0,0:0|0:0,0:0:0:0:
270,169,38435,2,0,P|301:155|321:131,1,56.9999982604981,2|0,0:0|0:0,0:0:0:0:
276,31,38795,2,0,P|257:59|258:96,1,56.9999982604981,0|8,0:0|0:0,0:0:0:0:
390,107,39154,2,0,P|350:96|310:90,1,56.9999982604981,0|2,0:0|0:0,0:0:0:0:
334,93,39513,5,0,0:0:0:0:
413,125,39693,1,0,0:0:0:0:
400,43,39873,1,0,0:0:0:0:
350,189,40052,6,0,P|338:217|346:259,1,56.9999982604981,0|0,0:0|0:0,0:0:0:0:
418,226,40411,1,8,0:0:0:0:
263,146,40771,6,0,B|201:126|219:175|152:164,1,113.999996520996,4|0,0:0|0:0,0:0:0:0:
133,40,41310,2,0,P|161:66|164:99,1,56.9999982604981,0|0,0:0|0:0,0:0:0:0:
61,148,41669,2,0,P|70:118|95:100,1,56.9999982604981,0|8,0:0|0:0,0:0:0:0:
209,165,42028,2,0,P|163:160|140:156,1,56.9999982604981
152,158,42388,5,0,0:0:0:0:
186,238,42567,1,0,0:0:0:0:
105,226,42747,1,0,0:0:0:0:
184,319,42926,6,0,P|203:359|194:396,1,56.9999982604981,0|0,0:0|0:0,0:0:0:0:
123,365,43286,1,8,0:0:0:0:
293,253,43645,6,0,B|366:231|350:288|419:267,1,132.999995941162,4|8,0:0|0:0,0:0:0:0:
384,123,44184,2,0,P|394:185|397:218,1,66.4999979705811,0|0,0:0|0:0,0:0:0:0:
473,55,44543,2,0,P|467:109|468:131,1,66.4999979705811,0|8,0:0|0:0,0:0:0:0:
467,121,44902,1,0,0:0:0:0:
374,33,45082,6,0,P|330:51|306:108,1,99.7499969558717,2|0,0:0|1:0,0:0:0:0:
306,95,45441,2,0,P|273:85|236:85,1,66.4999979705811,8|0,0:0|0:0,0:0:0:0:
112,131,45801,2,0,P|155:123|190:128,1,66.4999979705811,2|0,0:0|0:0,0:0:0:0:
259,173,46160,2,0,P|274:209|230:256,1,99.7499969558717,10|0,0:0|1:0,0:0:0:0:
240,253,46519,6,0,B|326:224|299:292|387:262,1,142.500005435944,6|8,0:0|0:0,0:0:0:0:
451,131,47058,1,0,0:0:0:0:
339,40,47238,2,0,P|352:171|357:210,1,142.500005435944,2|10,0:0|0:0,0:0:0:0:
353,181,47777,1,0,0:0:0:0:
243,111,47956,6,0,P|208:100|165:104,1,71.2500027179719,2|0,0:0|0:0,0:0:0:0:
66,168,48316,2,0,P|74:244|78:269,1,71.2500027179719,10|2,0:0|0:0,0:0:0:0:
189,334,48675,2,0,B|183:287|211:245|211:245|188:265|158:265,1,142.500005435944
167,264,49394,5,6,0:0:0:0:
167,264,49573,1,2,0:0:0:0:
290,301,49753,2,0,P|328:292|351:263,1,71.2500027179719,10|2,0:0|0:0,0:0:0:0:
321,112,50112,1,10,0:0:0:0:
281,208,50292,1,2,0:0:0:0:
390,195,50471,1,10,0:0:0:0:
238,137,50651,6,0,P|205:160|193:204,1,71.2500027179719,6|0,0:0|0:0,0:0:0:0:
193,187,51010,1,2,0:0:0:0:
281,208,51190,1,10,0:0:0:0:
228,66,51370,2,0,L|238:140,1,71.2500027179719,2|0,0:0|0:0,0:0:0:0:
237,136,51729,1,2,0:0:0:0:
337,6,51908,6,0,L|326:111,1,85.4999973907472,10|0,0:0|0:0,0:0:0:0:
325,108,52268,5,6,0:0:0:0:
482,145,52447,1,2,0:0:0:0:
303,191,52627,5,8,0:0:0:0:
475,249,52807,1,0,0:0:0:0:
272,312,52986,5,2,0:0:0:0:
392,153,53166,1,10,0:0:0:0:
370,373,53346,1,2,0:0:0:0:
283,179,53525,6,0,B|207:164|232:221|155:210,1,135.374996385098,10|0,0:0|1:0,0:0:0:0:
157,210,53885,2,0,P|141:175|146:148,1,49.8749984779358,2|0,0:0|1:0,0:0:0:0:
335,83,54064,2,0,P|386:143|281:177,1,227.999993041992
445,228,55142,6,0,B|331:200|376:276|264:260,1,190,6|8,0:0|0:0,0:0:0:0:
266,261,55861,1,2,0:0:0:0:
186,125,56040,1,2,0:0:0:0:
325,162,56220,1,8,0:0:0:0:
183,249,56399,6,0,P|237:181|295:177,1,142.5,4|0,0:0|0:0,0:0:0:0:
287,175,56759,1,0,0:0:0:0:
314,336,56938,2,0,P|277:304|266:254,1,95,8|0,0:0|0:0,0:0:0:0:
330,96,57298,2,0,P|313:153|276:181,1,95,2|0,0:0|0:0,0:0:0:0:
125,231,57657,2,0,P|168:198|212:200,1,92.6249957599642,10|0,0:0|0:0,0:0:0:0:
204,197,58016,5,10,0:0:0:0:
83,153,58196,1,0,0:0:0:0:
189,283,58376,5,10,0:0:0:0:
228,117,58555,1,2,0:0:0:0:
125,231,58735,5,10,0:0:0:0:
279,187,58914,1,2,0:0:0:0:
119,72,59094,1,8,0:0:0:0:
293,201,59274,6,0,B|340:210|383:180|383:180|382:230|423:263,1,190,4|2,0:0|0:0,0:0:0:0:
438,113,59813,2,0,P|399:138|383:191,1,95,8|0,0:0|0:0,0:0:0:0:
426,335,60172,1,2,0:0:0:0:
437,352,60531,1,4,0:0:0:0:
445,367,60891,6,0,B|382:354|382:354|323:378|323:378|262:361,1,190,2|8,0:0|0:0,0:0:0:0:
189,290,61429,2,0,B|233:266|233:266|302:276,1,95,2|0,0:0|0:0,0:0:0:0:
372,162,61789,2,0,B|328:186|328:186|259:176,1,95,0|8,0:0|0:0,0:0:0:0:
166,68,62148,2,0,L|179:162,1,95,0|2,0:0|0:0,0:0:0:0:
179,162,62507,1,0,0:0:0:0:
255,32,62687,6,0,P|301:12|359:26,1,95,8|0,0:0|0:0,0:0:0:0:
166,68,63046,2,0,P|118:48|91:2,1,95,10|0,0:0|0:0,0:0:0:0:
246,119,63405,2,0,P|281:161|278:219,1,99.7499969558717,8|0,0:0|0:0,0:0:0:0:
283,204,63765,6,0,L|179:213,1,95,6|0,0:0|0:0,0:0:0:0:
8,160,64124,5,10,0:0:0:0:
50,335,64304,1,2,0:0:0:0:
133,145,64483,5,10,0:0:0:0:
5,259,64663,1,2,0:0:0:0:
204,300,64843,1,10,0:0:0:0:
58,109,65022,6,0,B|29:168|29:168|59:299,1,190,6|2,0:0|0:0,0:0:0:0:
224,195,65561,2,0,L|124:176,1,95,2|10,0:0|0:0,0:0:0:0:
302,147,65920,6,0,P|292:104|291:91,1,47.5,8|8,0:0|0:0,0:0:0:0:
399,200,66100,1,8,0:0:0:0:
406,186,66190,1,8,0:0:0:0:
415,172,66280,2,0,P|424:129|422:108,1,47.5,8|8,0:0|0:0,0:0:0:0:
295,231,66459,1,8,0:0:0:0:
298,255,66549,1,8,0:0:0:0:
303,274,66639,6,0,L|399:288,1,95,4|0,0:0|0:0,0:0:0:0:
215,353,66998,2,0,B|190:302|190:302|211:206,1,142.5,8|0,0:0|1:0,0:0:0:0:
208,218,67358,1,10,0:0:0:0:
130,359,67537,1,10,0:0:0:0:
297,289,67717,1,8,0:0:0:0:
196,134,67897,6,0,P|132:182|144:275,1,142.5,6|0,0:0|0:0,0:0:0:0:
126,239,68256,1,0,0:0:0:0:
297,289,68435,2,0,P|340:263|390:266,1,95,8|0,0:0|0:0,0:0:0:0:
466,184,68795,2,0,P|427:152|414:93,1,95,8|8,0:0|0:0,0:0:0:0:
286,75,69154,2,0,P|274:127|227:169,1,99.7499969558717,8|0,0:0|0:0,0:0:0:0:
243,160,69513,6,0,B|291:140|336:166|336:166|354:119|411:112,1,190,6|8,0:0|0:0,0:0:0:0:
501,177,70052,2,0,P|461:208|415:205,1,95,10|0,0:0|0:0,0:0:0:0:
243,160,70411,2,0,P|288:189|301:249,1,95,10|0,0:0|0:0,0:0:0:0:
332,380,70771,6,0,P|347:324|419:280,1,142.5,6|0,0:0|0:0,0:0:0:0:
415,280,71130,1,0,0:0:0:0:
332,380,71310,2,0,L|234:366,1,95,8|0,0:0|0:0,0:0:0:0:
92,234,71669,6,0,B|76:97|76:97|98:131|123:133,1,190,12|0,0:0|0:0,0:0:0:0:
113,131,72388,6,0,P|157:114|216:122,1,95,14|2,0:0|0:0,0:0:0:0:
320,206,72747,1,10,0:0:0:0:
343,56,72926,1,2,0:0:0:0:
232,234,73106,2,0,P|258:277|304:296,1,95,10|2,0:0|0:0,0:0:0:0:
411,227,73465,1,10,0:0:0:0:
276,106,73645,6,0,L|297:294,1,190,6|0,0:0|0:0,0:0:0:0:
392,116,74184,2,0,P|439:99|507:121,1,95,10|2,0:0|0:0,0:0:0:0:
276,106,74543,2,0,P|229:83|200:36,1,95,10|2,0:0|0:0,0:0:0:0:
332,197,74902,2,0,P|363:244|349:303,1,99.7499969558717,10|0,0:0|0:0,0:0:0:0:
359,285,75262,6,0,L|263:273,1,95,14|2,0:0|0:0,0:0:0:0:
264,273,75621,1,10,0:0:0:0:
139,213,75801,2,0,P|112:171|116:120,1,95,2|10,0:0|0:0,0:0:0:0:
141,18,76160,1,2,0:0:0:0:
141,18,76340,1,10,0:0:0:0:
293,105,76519,6,0,B|186:68|218:154|113:128,1,190,6|10,0:0|0:0,0:0:0:0:
0,60,77058,2,0,L|18:156,1,95,10|0,0:0|0:0,0:0:0:0:
54,320,77417,6,0,B|95:298|95:298|148:303,1,95,6|0,0:0|1:0,0:0:0:0:
254,251,77687,2,0,B|213:273|213:273|160:268,1,95,6|0,0:0|1:0,0:0:0:0:
164,268,77956,1,6,0:0:0:0:
297,349,78136,5,2,0:0:0:0:
439,283,78316,1,0,0:0:0:0:
312,183,78495,1,10,0:0:0:0:
390,360,78675,2,0,P|457:373|526:274,1,190,6|0,0:0|0:0,0:0:0:0:
424,189,79214,2,0,L|439:283,1,95,2|0,0:0|0:0,0:0:0:0:
491,76,79573,5,6,0:0:0:0:
312,183,79753,1,0,0:0:0:0:
503,203,79932,1,8,0:0:0:0:
396,20,80112,2,0,B|392:56|384:87|384:87|410:141|410:141|403:174|398:212,1,190,6|2,0:0|0:0,0:0:0:0:
291,273,80651,1,2,0:0:0:0:
240,137,80831,1,2,0:0:0:0:
369,306,81010,6,0,P|341:350|295:366,1,95,14|2,0:0|0:0,0:0:0:0:
146,230,81370,5,10,0:0:0:0:
291,273,81549,1,2,0:0:0:0:
235,144,81729,5,10,0:0:0:0:
177,347,81908,1,2,0:0:0:0:
34,211,82088,1,10,0:0:0:0:
291,273,82268,5,14,0:0:0:0:
358,8,82627,1,6,0:0:0:0:
117,74,82986,1,6,0:0:0:0:
383,301,83885,6,0,P|371:210|290:177,1,170.999994781494,4|8,0:0|0:0,0:0:0:0:
306,176,84423,1,0,0:0:0:0:
207,290,84603,2,0,L|294:272,1,85.4999973907472,8|8,0:0|0:0,0:0:0:0:
290,272,84962,1,0,0:0:0:0:
366,121,85142,6,0,P|323:146|302:196,1,85.4999973907472,4|0,0:0|0:0,0:0:0:0:
463,237,85501,2,0,P|466:192|438:156,1,85.4999973907472,0|8,0:0|0:0,0:0:0:0:
316,262,85861,2,0,P|352:289|396:291,1,85.4999973907472,0|0,0:0|0:0,0:0:0:0:
366,121,86220,5,8,0:0:0:0:
354,138,86310,1,8,0:0:0:0:
345,153,86399,2,0,L|357:203,1,42.7499986953736,8|8,0:0|0:0,0:0:0:0:
391,291,86579,1,8,0:0:0:0:
226,242,86759,6,0,B|177:225|177:225|126:242,1,104.500003189087,12|10,0:0|0:0,0:0:0:0:
105,256,87028,1,10,0:0:0:0:
88,268,87118,1,10,0:0:0:0:
268,168,87298,6,0,B|301:109|266:47|266:47|313:98|362:115|410:95|441:33|408:-8|408:-8|367:6|370:61,1,453.150000691452,6|0,0:0|0:0,0:0:0:0:
