osu file format v14

[General]
AudioFilename: audio.mp3
AudioLeadIn: 0
PreviewTime: 54244
Countdown: 0
SampleSet: Soft
StackLeniency: 0.4
Mode: 0
LetterboxInBreaks: 0
WidescreenStoryboard: 1

[Editor]
Bookmarks: 88914
DistanceSpacing: 2
BeatDivisor: 4
GridSize: 32
TimelineZoom: 2

[Metadata]
Title:DREAM SOLISTER
TitleUnicode:DREAM SOLISTER
Artist:TRUE
ArtistUnicode:TRUE
Creator:Marcuddles
Version:Hard
Source:響け!ユーフォニアム
Tags:tv size Sound Hibike! Euphonium Original Soundtrack Omoide Music opening Shiratoi Andrea osuplayer111
BeatmapID:1466124
BeatmapSetID:692587

[Difficulty]
HPDrainRate:5
CircleSize:4
OverallDifficulty:6.2
ApproachRate:8
SliderMultiplier:1.4
SliderTickRate:1

[Events]
//Background and Video events
0,0,"Marcuddles.jpg",0,0
//Break Periods
//Storyboard Layer 0 (Background)
//Storyboard Layer 1 (Fail)
//Storyboard Layer 2 (Pass)
//Storyboard Layer 3 (Foreground)
//Storyboard Sound Samples

[TimingPoints]
533,359.281437125748,4,2,23,80,1,0
533,-142.857142857143,4,2,23,80,0,0
1431,-125,4,2,23,80,0,0
1790,340.909090909091,4,2,23,80,1,0
1790,-142.857142857143,4,2,23,80,0,0
2642,405.405405405405,4,2,23,80,1,0
2643,-125,4,2,23,80,0,0
3047,359.281437125748,4,2,23,80,1,0
3406,375,4,2,23,80,1,0
3407,-142.857142857143,4,2,23,80,0,0
3969,340.909090909091,4,2,23,80,1,0
4304,-125,4,2,23,80,0,0
4309,355.029585798817,4,2,23,80,1,0
4663,-142.857142857143,4,2,23,80,0,0
4841,359.281437125748,4,2,23,80,1,0
5201,-125,4,2,23,80,0,0
6279,-142.857142857143,4,2,23,80,0,0
9153,-125,4,2,23,80,0,0
26019,359.281437125748,4,2,23,60,1,0
26400,359.281437125748,4,2,23,60,1,0
26400,-125,4,2,23,70,0,0
37897,-133.333333333333,4,2,23,60,0,0
46519,-133.333333333333,4,2,23,70,0,0
49304,-133.333333333333,4,2,23,5,0,0
49394,-133.333333333333,4,2,23,70,0,0
52268,-133.333333333333,4,2,23,75,0,0
54423,-117.647058823529,4,2,23,80,0,0
55142,-100,4,2,23,85,0,1
65920,-100,4,2,23,85,0,0
66639,-100,4,2,23,85,0,1
71669,-100,4,2,23,85,0,0
72388,-100,4,2,23,85,0,1
77417,-83.3333333333333,4,2,23,85,0,1
78136,-100,4,2,23,85,0,1
83885,-111.111111111111,4,2,23,80,0,0
87298,-227.272727272727,4,2,23,80,0,0

[Colours]
Combo1 : 173,91,255
Combo2 : 121,188,255
Combo3 : 255,128,128
Combo4 : 255,165,121

[HitObjects]
288,200,533,6,0,B|172:168|212:252|104:228,1,195.999994018555,6|2,0:0|0:0,0:0:0:0:
23,176,1431,2,0,P|45:151|72:140,1,56,0|2,0:0|0:0,0:0:0:0:
146,120,1790,6,0,B|92:101|71:64|71:64|82:100|65:123,1,146.999995513916,4|8,0:0|0:0,0:0:0:0:
70,114,2643,2,0,L|144:104,1,56,0|0,0:0|0:0,0:0:0:0:
197,65,3047,2,0,L|243:58,2,35,8|0|0,0:0|0:0|0:0,0:0:0:0:
193,148,3407,6,0,B|185:214|185:214|219:271|219:271|211:344,1,191.8,4|0,0:0|0:0,0:0:0:0:
283,384,4309,1,2,0:0:0:0:
283,384,4486,1,2,0:0:0:0:
336,319,4664,6,0,B|388:311|387:336|435:329,1,97.9999970092774,4|0,0:0|0:0,0:0:0:0:
504,270,5201,2,0,P|481:251|441:241,1,56,2|0,0:0|0:0,0:0:0:0:
366,210,5560,2,0,P|396:200|419:174,1,56,2|0,0:0|0:0,0:0:0:0:
484,119,5919,2,0,P|492:145|501:158,2,28,8|8|8,0:0|0:0|0:0,0:0:0:0:
490,35,6279,6,0,B|438:46|396:17|396:17|408:69|365:106,1,195.999994018555,12|6,0:0|0:0,0:0:0:0:
366,104,7356,2,0,L|326:97,2,24.4999992523194,0|8|8,0:0|0:0|0:0,0:0:0:0:
427,145,7716,6,0,P|455:191|444:239,2,97.9999970092774,14|14|14,0:0|0:0|0:0,0:0:0:0:
299,124,8794,1,2,0:0:0:0:
322,259,9153,6,0,P|270:284|215:270,1,112,2|8,0:0|0:0,0:0:0:0:
163,208,9692,2,0,L|170:153,1,56,0|2,0:0|0:0,0:0:0:0:
215,81,10051,1,2,0:0:0:0:
215,81,10410,6,0,P|184:69|154:71,1,56,4|0,0:0|0:0,0:0:0:0:
98,125,10770,2,0,P|70:138|37:135,1,56,2|8,0:0|0:0,0:0:0:0:
61,54,11129,2,0,L|74:170,1,112,0|2,0:0|0:0,0:0:0:0:
73,165,11847,1,0,0:0:0:0:
132,224,12027,6,0,P|180:233|235:197,1,112,4|8,0:0|0:0,0:0:0:0:
265,124,12566,2,0,L|252:68,2,56,0|2|2,0:0|0:0|0:0,0:0:0:0:
325,183,13105,1,8,0:0:0:0:
380,120,13285,6,0,B|408:108|436:120|436:120|464:132|492:120,1,112,4|2,0:0|0:0,0:0:0:0:
461,41,13824,1,8,0:0:0:0:
387,80,14003,5,6,0:0:0:0:
256,192,14093,12,4,14901,0:0:0:0:
117,250,15261,5,8,0:0:0:0:
117,250,15440,2,0,L|193:240,1,56,0|0,0:0|0:0,0:0:0:0:
247,204,15800,2,0,P|261:177|251:138,1,56,0|8,0:0|0:0,0:0:0:0:
208,85,16159,1,0,0:0:0:0:
276,36,16339,6,0,P|386:46|412:49,1,112,2|8,0:0|0:0,0:0:0:0:
461,84,16877,2,0,P|483:126|459:200,1,112,0|2,0:0|0:0,0:0:0:0:
397,229,17416,1,8,0:0:0:0:
397,229,17596,1,2,0:0:0:0:
333,174,17776,6,0,B|271:151|288:198|224:184,1,112,0|8,0:0|0:0,0:0:0:0:
159,132,18315,2,0,P|144:161|143:210,1,56,0|0,0:0|0:0,0:0:0:0:
188,252,18674,2,0,P|199:282|189:326,1,56,0|8,0:0|0:0,0:0:0:0:
134,361,19033,1,0,0:0:0:0:
134,361,19392,6,0,L|89:356,2,28,0|0|8,0:0|0:0|0:0,0:0:0:0:
197,305,19752,2,0,L|262:297,1,56,2|8,0:0|0:0,0:0:0:0:
317,244,20111,2,0,P|331:217|327:182,1,56,2|8,0:0|0:0,0:0:0:0:
279,125,20470,1,2,0:0:0:0:
244,201,20650,5,8,0:0:0:0:
244,201,21009,2,0,L|251:135,1,56,0|0,0:0|0:0,0:0:0:0:
316,93,21368,1,8,0:0:0:0:
316,93,21548,2,0,P|269:60|217:68,1,112,0|0,0:0|0:0,0:0:0:0:
164,132,22087,6,0,B|106:149|116:108|55:126,1,112,8|0,0:0|0:0,0:0:0:0:
10,197,22626,2,0,L|17:256,1,56,2|0,0:0|0:0,0:0:0:0:
83,303,22985,1,2,0:0:0:0:
147,248,23165,2,0,P|177:234|219:238,1,56,8|2,0:0|0:0,0:0:0:0:
272,275,23524,6,0,P|388:265|408:262,1,112,4|8,0:0|0:0,0:0:0:0:
452,217,24063,2,0,P|468:188|461:155,1,56,0|0,0:0|0:0,0:0:0:0:
398,115,24422,2,0,P|383:145|385:172,1,56,0|0,0:0|0:0,0:0:0:0:
466,166,24782,1,8,0:0:0:0:
466,166,25141,5,8,0:0:0:0:
398,115,25321,1,8,0:0:0:0:
320,146,25500,1,10,0:0:0:0:
261,85,25680,2,0,P|230:74|196:79,1,56,8|2,0:0|0:0,0:0:0:0:
219,168,26019,1,12,0:0:0:0:
219,168,26400,6,0,L|208:287,1,112,4|8,0:0|0:0,0:0:0:0:
141,329,26938,2,0,P|129:301|128:261,1,56,0|2,0:0|0:0,0:0:0:0:
208,279,27298,1,2,0:0:0:0:
208,279,27477,1,8,0:0:0:0:
258,346,27657,6,0,P|293:361|367:341,1,112,4|0,0:0|0:0,0:0:0:0:
417,280,28196,1,8,0:0:0:0:
373,208,28376,2,0,L|361:95,1,112,0|0,0:0|0:0,0:0:0:0:
296,43,28914,2,0,P|268:45|233:66,1,56,8|0,0:0|0:0,0:0:0:0:
201,130,29274,6,0,P|163:160|99:151,1,112,4|8,0:0|0:0,0:0:0:0:
53,85,29813,1,0,0:0:0:0:
107,21,29992,2,0,L|168:27,1,56,0|2,0:0|0:0,0:0:0:0:
246,37,30352,1,10,0:0:0:0:
281,112,30531,6,0,B|288:142|275:166|275:166|259:195|270:235,1,112,4|0,0:0|0:0,0:0:0:0:
312,291,31070,1,8,0:0:0:0:
389,259,31250,2,0,L|395:197,2,56,0|0|8,0:0|0:0|0:0,0:0:0:0:
312,291,31789,2,0,L|308:346,1,56,8|8,0:0|0:0,0:0:0:0:
234,305,32148,6,0,B|192:300|192:300|170:307|170:307|121:301,1,112,4|8,0:0|0:0,0:0:0:0:
54,254,32687,2,0,L|63:197,1,56,2|2,0:0|0:0,0:0:0:0:
121,138,33046,1,0,0:0:0:0:
121,138,33226,1,8,0:0:0:0:
178,199,33405,6,0,L|297:183,1,112,0|0,0:0|0:0,0:0:0:0:
347,124,33944,2,0,P|353:90|337:55,1,56,8|0,0:0|0:0,0:0:0:0:
279,18,34304,1,2,0:0:0:0:
279,18,34483,1,2,0:0:0:0:
212,69,34663,2,0,L|148:58,1,56,8|2,0:0|0:0,0:0:0:0:
82,98,35022,6,0,B|68:133|68:133|86:220,1,112,6|8,0:0|0:0,0:0:0:0:
110,285,35561,1,2,0:0:0:0:
179,238,35741,1,8,0:0:0:0:
179,238,35920,1,2,0:0:0:0:
200,319,36100,1,10,0:0:0:0:
263,263,36280,5,6,0:0:0:0:
263,263,36639,1,2,0:0:0:0:
332,215,36819,2,0,P|372:211|436:251,2,112,6|0|0,0:0|0:0|0:0,0:0:0:0:
332,215,37897,6,0,B|341:191|332:166|332:166|322:137|333:108,1,105.000004005432,2|0,0:0|0:0,0:0:0:0:
380,50,38435,2,0,P|416:84|411:139,1,105.000004005432,2|0,0:0|0:0,0:0:0:0:
412,136,39154,1,0,0:0:0:0:
340,169,39334,6,0,L|233:157,1,105.000004005432,2|0,0:0|0:0,0:0:0:0:
170,113,39873,2,0,L|277:126,1,105.000004005432,0|0,0:0|0:0,0:0:0:0:
336,77,40411,1,8,0:0:0:0:
336,77,40771,6,0,P|363:123|348:183,1,105.000004005432,4|0,0:0|0:0,0:0:0:0:
307,234,41310,2,0,P|259:228|235:226,1,52.5000020027161,0|0,0:0|0:0,0:0:0:0:
181,198,41669,2,0,P|208:246|201:299,1,105.000004005432,0|0,0:0|0:0,0:0:0:0:
203,294,42208,6,0,P|150:286|86:279,1,105.000004005432,0|0,0:0|0:0,0:0:0:0:
31,239,42747,2,0,P|3:189|21:131,1,105.000004005432,0|0,0:0|0:0,0:0:0:0:
67,88,43286,1,8,0:0:0:0:
67,88,43645,6,0,B|105:75|105:75|181:89,1,105.000004005432,4|8,0:0|0:0,0:0:0:0:
221,145,44184,2,0,L|202:35,2,105.000004005432,0|0|0,0:0|0:0|0:0,0:0:0:0:
271,205,45082,5,2,0:0:0:0:
271,205,45441,2,0,P|301:195|332:200,1,52.5000020027161,8|0,0:0|0:0,0:0:0:0:
390,235,45801,2,0,P|417:242|448:236,1,52.5000020027161,2|0,0:0|0:0,0:0:0:0:
417,163,46160,1,10,0:0:0:0:
417,163,46519,6,0,B|404:124|404:124|418:52,1,105.000004005432,6|8,0:0|0:0,0:0:0:0:
416,61,47058,1,0,0:0:0:0:
359,6,47238,2,0,B|372:45|372:45|358:117,1,105.000004005432,2|10,0:0|0:0,0:0:0:0:
306,165,47777,1,0,0:0:0:0:
237,126,47956,6,0,L|126:138,2,105.000004005432,2|10|10,0:0|0:0|0:0,0:0:0:0:
237,126,48855,1,0,0:0:0:0:
306,165,49034,2,0,P|322:200|311:246,1,78.7500030040742,10|0,0:0|0:0,0:0:0:0:
315,238,49394,6,0,L|250:243,1,52.5000020027161,6|2,0:0|0:0,0:0:0:0:
192,207,49753,2,0,L|130:210,1,52.5000020027161,10|2,0:0|0:0,0:0:0:0:
83,265,50112,2,0,P|79:295|90:331,2,52.5000020027161,10|2|10,0:0|0:0|0:0,0:0:0:0:
139,209,50651,6,0,P|155:156|126:105,1,105.000004005432,6|2,0:0|0:0,0:0:0:0:
65,76,51190,1,10,0:0:0:0:
117,17,51370,2,0,L|226:30,1,105.000004005432,2|2,0:0|0:0,0:0:0:0:
221,29,51908,1,10,0:0:0:0:
333,140,52268,5,6,0:0:0:0:
333,140,52447,1,2,0:0:0:0:
309,59,52627,1,8,0:0:0:0:
389,83,52807,1,0,0:0:0:0:
333,140,52986,6,0,L|344:206,1,52.5000020027161,2|10,0:0|0:0,0:0:0:0:
365,277,53346,1,2,0:0:0:0:
284,249,53525,5,10,0:0:0:0:
284,249,53885,1,2,0:0:0:0:
417,212,54064,1,0,0:0:0:0:
417,212,54423,6,0,L|426:148,1,59.5000011348725,0|0,0:0|0:0,0:0:0:0:
425,153,54693,1,0,0:0:0:0:
425,153,54783,1,0,0:0:0:0:
425,153,55142,6,0,B|389:141|356:156|356:156|318:172|273:151,2,140,6|8|2,0:0|0:0|0:0,0:0:0:0:
486,220,56040,2,0,P|499:253|485:307,1,70,2|8,0:0|0:0,0:0:0:0:
429,349,56399,6,0,L|284:332,1,140,4|0,0:0|0:0,0:0:0:0:
205,299,56938,2,0,P|190:266|197:229,1,70,8|0,0:0|0:0,0:0:0:0:
266,175,57298,2,0,P|281:136|272:103,1,70,2|0,0:0|0:0,0:0:0:0:
222,35,57657,1,10,0:0:0:0:
222,35,58016,6,0,L|141:43,1,70,10|0,0:0|0:0,0:0:0:0:
82,101,58376,1,10,0:0:0:0:
82,101,58555,1,2,0:0:0:0:
154,155,58735,1,10,0:0:0:0:
154,155,58914,2,0,P|170:189|163:235,1,70,2|8,0:0|0:0,0:0:0:0:
106,287,59274,6,0,P|173:250|245:266,1,140,4|2,0:0|0:0,0:0:0:0:
298,322,59813,2,0,L|378:313,1,70,8|0,0:0|0:0,0:0:0:0:
435,253,60172,2,0,B|464:185|411:194|436:117,1,140,2|4,0:0|0:0,0:0:0:0:
436,118,60891,6,0,P|385:90|302:102,1,140,2|8,0:0|0:0,0:0:0:0:
246,167,61429,2,0,P|211:176|170:166,1,70,2|0,0:0|0:0,0:0:0:0:
108,110,61789,2,0,P|72:100|28:112,1,70,0|8,0:0|0:0,0:0:0:0:
0,191,62148,1,0,0:0:0:0:
73,245,62328,6,0,P|88:277|81:330,1,70,2|0,0:0|0:0,0:0:0:0:
12,363,62687,2,0,B|55:338|55:338|149:353,1,140,8|10,0:0|0:0,0:0:0:0:
210,289,63226,1,0,0:0:0:0:
175,205,63405,1,8,0:0:0:0:
175,205,63765,6,0,P|207:191|247:198,1,70,6|0,0:0|0:0,0:0:0:0:
316,246,64124,2,0,P|359:255|407:233,1,70,10|2,0:0|0:0,0:0:0:0:
446,182,64483,2,0,L|435:109,1,70,10|2,0:0|0:0,0:0:0:0:
385,35,64843,1,10,0:0:0:0:
332,108,65022,6,0,B|292:129|292:129|190:113,1,140,6|2,0:0|0:0,0:0:0:0:
116,73,65561,1,2,0:0:0:0:
133,162,65741,1,10,0:0:0:0:
76,232,65920,6,0,P|61:271|70:315,1,70,8|8,0:0|0:0,0:0:0:0:
63,298,66190,1,8,0:0:0:0:
63,298,66280,2,0,L|119:308,3,35,8|8|8|8,0:0|0:0|0:0|0:0,0:0:0:0:
142,295,66639,6,0,B|188:282|188:282|283:302,2,140,4|8|10,0:0|0:0|0:0,0:0:0:0:
60,336,67537,1,10,0:0:0:0:
21,253,67717,1,8,0:0:0:0:
61,171,67897,6,0,B|94:160|131:171|131:171|165:184|202:169,1,140,6|0,0:0|0:0,0:0:0:0:
236,88,68435,2,0,P|188:90|152:93,1,70,8|0,0:0|0:0,0:0:0:0:
83,51,68795,1,8,0:0:0:0:
83,51,68974,1,8,0:0:0:0:
96,141,69154,1,8,0:0:0:0:
96,141,69513,6,0,L|85:283,1,140,6|8,0:0|0:0,0:0:0:0:
157,335,70052,2,0,P|193:344|233:335,1,70,10|0,0:0|0:0,0:0:0:0:
297,283,70411,2,0,P|332:271|375:278,1,70,10|0,0:0|0:0,0:0:0:0:
443,320,70771,5,6,0:0:0:0:
443,320,71130,1,0,0:0:0:0:
501,250,71310,2,0,L|492:178,1,70,8|0,0:0|0:0,0:0:0:0:
434,109,71669,6,0,B|400:120|365:106|365:106|369:146|339:176,1,140,12|0,0:0|0:0,0:0:0:0:
344,170,72388,6,0,P|305:180|267:169,1,70,14|2,0:0|0:0,0:0:0:0:
201,99,72747,2,0,P|164:92|123:104,1,70,10|2,0:0|0:0,0:0:0:0:
76,187,73106,2,0,L|86:260,1,70,10|2,0:0|0:0,0:0:0:0:
162,327,73465,1,10,0:0:0:0:
244,262,73645,6,0,B|293:256|293:256|334:269|334:269|392:262,1,140,6|0,0:0|0:0,0:0:0:0:
462,196,74184,2,0,B|429:182|429:182|387:186,1,70,10|2,0:0|0:0,0:0:0:0:
335,98,74543,2,0,B|368:112|368:112|410:108,1,70,10|2,0:0|0:0,0:0:0:0:
487,47,74902,1,10,0:0:0:0:
487,47,75262,6,0,L|472:135,1,70,14|2,0:0|0:0,0:0:0:0:
395,185,75621,1,10,0:0:0:0:
395,185,75801,2,0,P|381:148|390:106,1,70,2|10,0:0|0:0,0:0:0:0:
293,170,76160,2,0,P|311:218|305:255,1,70,2|10,0:0|0:0,0:0:0:0:
239,313,76519,6,0,L|99:297,1,140,6|10,0:0|0:0,0:0:0:0:
23,225,77058,1,10,0:0:0:0:
23,225,77417,6,0,B|3:166|3:166|22:100,2,125.999996154785,6|6|6,0:0|0:0|0:0,0:0:0:0:
97,278,78136,6,0,L|174:269,1,70,2|0,0:0|0:0,0:0:0:0:
230,204,78495,1,10,0:0:0:0:
173,132,78675,2,0,P|135:182|145:260,1,140,6|0,0:0|0:0,0:0:0:0:
224,295,79214,2,0,L|230:223,1,70,2|0,0:0|0:0,0:0:0:0:
297,164,79573,5,6,0:0:0:0:
297,164,79753,2,0,P|318:201|315:251,1,70,0|8,0:0|0:0,0:0:0:0:
343,315,80112,2,0,L|356:175,1,140,6|2,0:0|0:0,0:0:0:0:
364,84,80651,1,2,0:0:0:0:
364,84,80831,1,2,0:0:0:0:
270,130,81010,6,0,P|230:143|190:136,1,70,14|2,0:0|0:0,0:0:0:0:
109,90,81370,2,0,P|72:83|27:100,1,70,10|2,0:0|0:0,0:0:0:0:
8,190,81729,1,10,0:0:0:0:
110,169,81908,1,2,0:0:0:0:
71,266,82088,1,10,0:0:0:0:
174,247,82268,5,14,0:0:0:0:
109,90,82627,1,6,0:0:0:0:
276,103,82986,1,6,0:0:0:0:
276,103,83885,6,0,B|308:93|337:103|337:103|370:118|402:107,1,125.999996154785,4|8,0:0|0:0,0:0:0:0:
457,51,84423,1,0,0:0:0:0:
486,127,84603,2,0,P|499:157|490:197,1,62.9999980773926,8|8,0:0|0:0,0:0:0:0:
495,186,84962,1,0,0:0:0:0:
429,235,85142,6,0,L|300:218,1,125.999996154785,4|0,0:0|0:0,0:0:0:0:
304,218,85681,1,8,0:0:0:0:
237,170,85861,2,0,P|214:130|237:57,1,125.999996154785,0|8,0:0|0:0,0:0:0:0:
236,57,86310,1,8,0:0:0:0:
236,57,86399,1,8,0:0:0:0:
320,32,86579,1,8,0:0:0:0:
384,96,86759,6,0,L|372:169,1,62.9999980773926,12|10,0:0|0:0,0:0:0:0:
373,158,87028,1,10,0:0:0:0:
373,158,87118,1,10,0:0:0:0:
426,246,87298,6,0,B|386:263|352:248|352:248|328:264|312:296|312:296|300:264|272:248|272:248|237:270|196:256,1,277.200008459473,14|0,0:0|0:0,0:0:0:0:
