osu file format v14

[General]
AudioFilename: BUTTERFLY EFFECTOR.mp3
AudioLeadIn: 0
PreviewTime: 52730
Countdown: 0
SampleSet: Soft
StackLeniency: 0.7
Mode: 0
LetterboxInBreaks: 0
WidescreenStoryboard: 1

[Editor]
DistanceSpacing: 1
BeatDivisor: 4
GridSize: 4
TimelineZoom: 1.4

[Metadata]
Title:BUTTERFLY EFFECTOR (TV Size)
TitleUnicode:BUTTERFLY EFFECTOR(TVサイズ)
Artist:TRUE
ArtistUnicode:TRUE
Creator:kunka
Version:Normal
Source:ひなろじ ~from Luck & Logic~
Tags:opening hinaroji hinalogic from Luck & Logic kunkakunkakunkakunka
BeatmapID:1439924
BeatmapSetID:675314

[Difficulty]
HPDrainRate:2
CircleSize:3
OverallDifficulty:3
ApproachRate:3
SliderMultiplier:1.2
SliderTickRate:1

[Events]
//Background and Video events
Video,0,"BUTTERFLY EFFECTOR.avi"
0,0,"BG4.jpg",0,0
//Break Periods
//Storyboard Layer 0 (Background)
//Storyboard Layer 1 (Fail)
//Storyboard Layer 2 (Pass)
//Storyboard Layer 3 (Foreground)
//Storyboard Sound Samples

[TimingPoints]
390,425.531914893617,4,2,1,60,1,0
5496,-100,4,2,1,55,0,0
5815,-100,4,2,1,65,0,0
6134,-100,4,2,1,60,0,0
6347,-100,4,2,1,65,0,0
7198,-100,4,2,1,55,0,0
7517,-100,4,2,1,65,0,0
7836,-100,4,2,1,60,0,0
8049,-100,4,2,1,65,0,0
8475,-100,4,2,1,20,0,0
8900,-100,4,2,1,60,0,0
19113,-100,4,2,1,55,0,0
19432,-100,4,2,1,65,0,0
19964,-100,4,2,1,55,0,0
20283,-100,4,2,1,65,0,0
20815,-100,4,2,1,60,0,0
21134,-100,4,2,1,70,0,0
21666,-100,4,2,1,60,0,0
21985,-100,4,2,1,70,0,0
22517,-100,4,2,1,60,0,0
32730,-100,4,2,1,55,0,0
33049,-100,4,2,1,65,0,0
33581,-100,4,2,1,55,0,0
33900,-100,4,2,1,65,0,0
34432,-100,4,2,1,60,0,0
34751,-100,4,2,1,70,0,0
35283,-100,4,2,1,60,0,0
35602,-100,4,2,1,70,0,0
36134,-100,4,2,1,55,0,0
44964,-100,4,2,1,5,0,0
45070,-100,4,2,1,55,0,0
46347,-100,4,2,1,60,0,0
49751,-100,4,2,1,55,0,0
50070,-100,4,2,1,65,0,0
50390,-100,4,2,1,60,0,0
50602,-100,4,2,1,65,0,0
51453,-100,4,2,1,60,0,0
51772,-100,4,2,1,70,0,0
52092,-100,4,2,1,65,0,0
52304,-100,4,2,1,70,0,0
53155,-100,4,2,1,70,0,1
65070,-100,4,2,1,60,0,0
66772,-100,4,2,1,70,0,1
80390,-100,4,2,1,60,0,1
80709,-100,4,2,1,75,0,1
81241,-100,4,2,1,60,0,1
81560,-100,4,2,1,75,0,1
82092,-100,4,2,1,70,0,1
86985,-100,4,2,1,70,0,0
89219,-100,4,2,1,5,0,0

[Colours]
Combo1 : 255,128,255
Combo2 : 128,255,128
Combo3 : 0,255,255
Combo4 : 255,128,128
Combo5 : 255,255,128

[HitObjects]
128,175,390,6,0,L|247:163,1,120,4|0,0:0|0:0,0:0:0:0:
338,241,1241,2,0,L|457:229,1,120,0|8,0:0|0:0,0:0:0:0:
493,277,1879,1,2,0:0:0:0:
467,331,2092,2,0,L|348:343,1,120,6|0,0:0|0:0,0:0:0:0:
232,310,2943,2,0,P|210:251|218:195,1,120,4|2,0:0|0:0,0:0:0:0:
262,84,3794,6,0,B|322:78|322:78|377:101|377:101|438:96,2,180,6|8|8,0:0|0:0|0:0,0:0:0:0:
145,53,5496,2,0,P|101:43|56:58,2,90,6|6|2,0:0|0:0|0:0,0:0:0:0:
159,111,6347,2,0,L|169:232,1,120,4|8,0:0|0:0,0:0:0:0:
279,278,7198,6,0,P|323:268|368:283,2,90,6|6|2,0:0|0:0|0:0,0:0:0:0:
246,328,8049,1,8,0:0:0:0:
53,184,8900,6,0,L|48:125,1,60,6|8,0:0|0:0,0:0:0:0:
144,52,9538,2,0,P|230:20|309:52,1,180,8|2,0:0|0:0,0:0:0:0:
353,90,10389,1,8,0:0:0:0:
376,145,10602,2,0,B|364:205|364:205|388:261|388:261|376:317,2,180,2|8|2,0:0|0:0|0:0,0:0:0:0:
308,52,12304,6,0,L|248:64,1,60,2|8,0:0|0:0,0:0:0:0:
136,107,12943,2,0,P|104:193|136:272,1,180,8|2,0:0|0:0,0:0:0:0:
169,320,13794,1,8,0:0:0:0:
221,348,14007,2,0,B|281:360|281:360|337:336|337:336|393:348,2,180,2|8|2,0:0|0:0|0:0,0:0:0:0:
275,241,15709,6,0,L|215:229,1,60,2|8,0:0|0:0,0:0:0:0:
127,310,16347,2,0,P|95:227|127:145,1,180,8|2,0:0|0:0,0:0:0:0:
232,86,17411,1,2,0:0:0:0:
350,104,17836,2,0,P|409:106|461:78,2,120,2|0|2,0:0|0:0|0:0,0:0:0:0:
289,104,18900,1,12,0:0:0:0:
232,86,19113,6,0,P|191:67|146:71,1,90,6|6,0:0|0:0,0:0:0:0:
121,218,19964,2,0,P|161:237|205:234,1,90,6|6,0:0|0:0,0:0:0:0:
346,183,20815,2,0,P|387:164|432:168,1,90,6|6,0:0|0:0,0:0:0:0:
457,315,21666,2,0,P|417:334|373:331,1,90,6|6,0:0|0:0,0:0:0:0:
346,183,22517,6,0,L|339:123,1,60,6|8,0:0|0:0,0:0:0:0:
247,45,23155,2,0,P|162:20|83:59,1,180,8|2,0:0|0:0,0:0:0:0:
44,105,24007,1,8,0:0:0:0:
57,163,24219,2,0,B|69:223|69:223|45:279|45:279|57:335,2,180,2|8|2,0:0|0:0|0:0,0:0:0:0:
174,137,25921,6,0,L|186:195,1,60,2|8,0:0|0:0,0:0:0:0:
233,306,26560,2,0,P|318:331|397:292,1,180,8|2,0:0|0:0,0:0:0:0:
436,246,27412,1,8,0:0:0:0:
423,188,27624,2,0,B|411:128|411:128|435:72|435:72|423:16,2,180,2|8|2,0:0|0:0|0:0,0:0:0:0:
305,213,29326,6,0,L|246:224,1,60,2|8,0:0|0:0,0:0:0:0:
183,326,29964,2,0,P|97:358|18:326,1,180,8|2,0:0|0:0,0:0:0:0:
101,239,31028,1,2,0:0:0:0:
200,171,31453,2,0,L|185:52,2,120,2|0|2,0:0|0:0|0:0,0:0:0:0:
226,225,32517,1,12,0:0:0:0:
267,270,32730,6,0,P|308:289|353:285,1,90,6|6,0:0|0:0,0:0:0:0:
378,138,33581,2,0,P|338:119|294:122,1,90,6|6,0:0|0:0,0:0:0:0:
185,223,34432,2,0,P|144:242|99:238,1,90,6|6,0:0|0:0,0:0:0:0:
74,91,35283,2,0,P|114:72|158:75,1,90,6|6,0:0|0:0,0:0:0:0:
293,122,36134,6,0,L|281:243,1,120,6|0,0:0|0:0,0:0:0:0:
381,307,36985,1,8,0:0:0:0:
480,239,37411,2,0,L|486:178,1,60,2|0,0:0|0:0,0:0:0:0:
489,119,37836,2,0,P|437:89|377:88,1,120,2|0,0:0|0:0,0:0:0:0:
274,147,38687,2,0,L|262:268,1,120,8|0,0:0|0:0,0:0:0:0:
205,288,39326,1,8,0:0:0:0:
150,263,39538,6,0,L|161:143,1,120,2|0,0:0|0:0,0:0:0:0:
170,23,40390,1,8,0:0:0:0:
407,53,41241,2,0,B|448:166|448:166|407:280,1,240,2|8,0:0|0:0,0:0:0:0:
310,348,42517,2,0,P|278:344|251:349,1,60,8|8,0:0|0:0,0:0:0:0:
193,369,42943,5,6,0:0:0:0:
251,136,43794,2,0,B|139:95|139:95|25:136,1,240,8|2,0:0|0:0,0:0:0:0:
60,250,45070,2,0,P|60:310|30:361,2,120,12|2|2,1:2|0:0|0:0,0:0:0:0:
25,135,46347,6,0,P|82:131|139:159,1,120,6|2,0:0|0:0,0:0:0:0:
185,193,46985,1,8,0:0:0:0:
244,182,47198,2,0,L|363:161,1,120,2|2,0:0|0:0,0:0:0:0:
380,279,48049,2,0,L|261:300,1,120,2|2,0:0|0:0,0:0:0:0:
202,294,48687,1,8,0:0:0:0:
147,269,48900,2,0,P|117:214|117:157,1,120,0|8,0:0|0:0,0:0:0:0:
161,46,49751,6,0,B|116:34|116:34|71:46,2,90,6|6|2,0:0|0:0|0:0,0:0:0:0:
211,79,50602,2,0,P|265:104|325:98,1,120,6|8,0:0|0:0,0:0:0:0:
443,112,51453,2,0,B|442:65|442:65|419:25,2,90,6|6|2,0:0|0:0|0:0,0:0:0:0:
432,171,52304,1,8,0:0:0:0:
211,79,53155,6,0,P|181:74|153:64,1,60,6|8,0:0|0:0,0:0:0:0:
93,56,53581,1,2,0:0:0:0:
46,93,53794,2,0,P|14:174|46:259,1,180,8|2,0:0|0:0,0:0:0:0:
93,292,54645,1,8,0:0:0:0:
153,290,54858,2,0,P|182:279|211:274,1,60,2|8,0:0|0:0,0:0:0:0:
297,357,55496,2,0,P|330:275|297:191,1,180,8|2,0:0|0:0,0:0:0:0:
264,143,56347,1,8,0:0:0:0:
231,92,56560,6,0,L|171:103,2,60,2|8|2,0:0|0:0|0:0,0:0:0:0:
264,42,57198,2,0,P|346:11|427:46,1,180,8|2,0:0|0:0,0:0:0:0:
428,105,58049,1,8,0:0:0:0:
419,164,58262,2,0,P|409:192|404:221,1,60,6|8,0:0|0:0,0:0:0:0:
464,325,58900,2,0,P|376:336|304:286,1,180,8|2,0:0|0:0,0:0:0:0:
282,230,59751,1,8,0:0:0:0:
297,173,59964,5,6,0:0:0:0:
140,88,60602,1,8,0:0:0:0:
96,129,60815,2,0,P|80:187|96:243,1,120,0|2,0:0|0:0,0:0:0:0:
127,295,61453,1,8,0:0:0:0:
186,307,61666,2,0,L|308:287,2,120,2|2|0,0:0|0:0|0:0,0:0:0:0:
180,186,62943,1,2,0:0:0:0:
283,122,63368,6,0,P|311:132|340:136,1,60,6|8,0:0|0:0,0:0:0:0:
428,54,64007,2,0,P|460:135|428:220,1,180,8|8,0:0|0:0,0:0:0:0:
397,269,64858,1,8,0:3:0:0:
352,308,65070,2,0,B|320:302|294:317|294:317|276:294|242:289,1,120,2|2,0:0|0:0,0:0:0:0:
183,299,65709,1,0,0:0:0:0:
126,278,65921,2,0,P|110:218|89:161,1,120,2|8,0:0|0:0,0:0:0:0:
135,51,66772,6,0,P|164:41|194:36,1,60,6|8,0:0|0:0,0:0:0:0:
252,29,67198,1,2,0:0:0:0:
309,45,67411,2,0,P|361:117|350:204,1,180,8|2,0:0|0:0,0:0:0:0:
326,258,68262,1,8,0:0:0:0:
333,317,68475,2,0,P|338:346|347:374,1,60,2|8,0:0|0:0,0:0:0:0:
467,371,69113,2,0,P|499:289|468:206,1,180,8|2,0:0|0:0,0:0:0:0:
409,193,69964,1,8,0:0:0:0:
350,203,70177,6,0,L|335:262,2,60,2|8|2,0:0|0:0|0:0,0:0:0:0:
329,146,70815,2,0,P|247:116|165:148,1,180,8|2,0:0|0:0,0:0:0:0:
139,203,71666,1,8,0:0:0:0:
154,261,71879,1,2,0:0:0:0:
34,259,72304,2,0,L|4:141,1,120,6|0,0:0|0:0,0:0:0:0:
64,38,73155,2,0,P|93:28|123:23,1,60,12|2,0:0|0:0,0:0:0:0:
177,46,73581,6,0,P|259:79|343:46,1,180,6|8,0:0|0:0,0:0:0:0:
446,104,74645,2,0,P|455:132|460:161,1,60,8|2,0:0|0:0,0:0:0:0:
441,219,75070,1,8,0:0:0:0:
398,261,75283,2,0,P|378:334|462:369,2,180,2|8|2,0:0|0:0|0:0,0:0:0:0:
392,201,76772,6,0,P|387:171|377:142,1,60,8|6,0:0|0:0,0:0:0:0:
353,87,77198,2,0,B|301:57|301:57|247:87|184:87,1,180,8|0,0:0|0:0,0:0:0:0:
71,52,78262,1,2,0:0:0:0:
37,101,78475,2,0,P|17:157|7:216,1,120,8|8,0:0|0:0,0:0:0:0:
93,299,79326,2,0,P|149:279|208:269,1,120,8|8,0:0|0:0,0:0:0:0:
322,308,80177,1,8,0:0:0:0:
350,254,80390,6,0,B|362:209|362:209|350:164,1,90,6|6,0:0|0:0,0:0:0:0:
200,174,81241,2,0,B|188:129|188:129|200:84,1,90,6|6,0:0|0:0,0:0:0:0:
328,10,82092,2,0,B|373:22|373:22|418:10,2,90,6|8|8,0:0|0:0|0:0,0:0:0:0:
267,10,82943,1,8,0:0:0:0:
295,126,83368,1,8,0:0:0:0:
224,223,83794,6,0,P|214:251|209:281,1,60,6|8,0:0|0:0,0:0:0:0:
239,332,84219,1,2,0:0:0:0:
291,361,84432,2,0,P|378:372|449:321,1,180,8|2,0:0|0:0,0:0:0:0:
349,254,85496,2,0,P|344:224|334:195,1,60,6|8,0:0|0:0,0:0:0:0:
311,140,85921,1,2,0:0:0:0:
266,100,86134,2,0,P|178:88|107:139,1,180,8|2,0:0|0:0,0:0:0:0:
83,193,86985,1,6,0:0:0:0:
256,192,87198,12,0,89219,0:0:0:0:
