osu file format v14

[General]
AudioFilename: BUTTERFLY EFFECTOR.mp3
AudioLeadIn: 0
PreviewTime: 52730
Countdown: 0
SampleSet: Soft
StackLeniency: 0.7
Mode: 0
LetterboxInBreaks: 0
WidescreenStoryboard: 1

[Editor]
DistanceSpacing: 1.5
BeatDivisor: 4
GridSize: 4
TimelineZoom: 1.5

[Metadata]
Title:BUTTERFLY EFFECTOR (TV Size)
TitleUnicode:BUTTERFLY EFFECTOR(TVサイズ)
Artist:TRUE
ArtistUnicode:TRUE
Creator:kunka
Version:Hard
Source:ひなろじ ~from Luck & Logic~
Tags:opening hinaroji hinalogic from Luck & Logic kunkakunkakunkakunka
BeatmapID:1433461
BeatmapSetID:675314

[Difficulty]
HPDrainRate:5
CircleSize:4
OverallDifficulty:6
ApproachRate:7.5
SliderMultiplier:1.7
SliderTickRate:1

[Events]
//Background and Video events
Video,0,"BUTTERFLY EFFECTOR.avi"
0,0,"BG2.jpg",0,0
//Break Periods
//Storyboard Layer 0 (Background)
//Storyboard Layer 1 (Fail)
//Storyboard Layer 2 (Pass)
//Storyboard Layer 3 (Foreground)
//Storyboard Sound Samples

[TimingPoints]
390,425.531914893617,4,2,1,60,1,0
5496,-111.111111111111,4,2,1,55,0,0
5815,-95.2380952380952,4,2,1,65,0,0
6134,-100,4,2,1,60,0,0
6347,-95.2380952380952,4,2,1,65,0,0
7198,-111.111111111111,4,2,1,55,0,0
7517,-95.2380952380952,4,2,1,65,0,0
7836,-100,4,2,1,60,0,0
8049,-95.2380952380952,4,2,1,65,0,0
8900,-100,4,2,1,60,0,0
19113,-111.111111111111,4,2,1,55,0,0
19432,-95.2380952380952,4,2,1,65,0,0
19964,-111.111111111111,4,2,1,55,0,0
20283,-95.2380952380952,4,2,1,65,0,0
20815,-105.263157894737,4,2,1,60,0,0
21134,-90.9090909090909,4,2,1,70,0,0
21666,-105.263157894737,4,2,1,60,0,0
21985,-90.9090909090909,4,2,1,70,0,0
22517,-100,4,2,1,60,0,0
32730,-111.111111111111,4,2,1,55,0,0
33049,-95.2380952380952,4,2,1,65,0,0
33581,-111.111111111111,4,2,1,55,0,0
33900,-95.2380952380952,4,2,1,65,0,0
34432,-105.263157894737,4,2,1,60,0,0
34751,-90.9090909090909,4,2,1,70,0,0
35283,-105.263157894737,4,2,1,60,0,0
35602,-90.9090909090909,4,2,1,70,0,0
36134,-111.111111111111,4,2,1,55,0,0
44964,-111.111111111111,4,2,1,5,0,0
45070,-111.111111111111,4,2,1,55,0,0
46347,-100,4,2,1,60,0,0
49751,-111.111111111111,4,2,1,55,0,0
50070,-95.2380952380952,4,2,1,65,0,0
50390,-100,4,2,1,60,0,0
50602,-95.2380952380952,4,2,1,65,0,0
51453,-105.263157894737,4,2,1,60,0,0
51772,-90.9090909090909,4,2,1,70,0,0
52092,-95.2380952380952,4,2,1,65,0,0
52304,-95.2380952380952,4,2,1,70,0,0
53155,-95.2380952380952,4,2,1,70,0,1
65070,-100,4,2,1,60,0,0
66772,-95.2380952380952,4,2,1,70,0,1
80390,-105.263157894737,4,2,1,60,0,1
80709,-90.9090909090909,4,2,1,75,0,1
81241,-105.263157894737,4,2,1,60,0,1
81560,-90.9090909090909,4,2,1,75,0,1
82092,-95.2380952380952,4,2,1,70,0,1
86985,-95.2380952380952,4,2,1,70,0,0
89219,-95.2380952380952,4,2,1,5,0,0

[Colours]
Combo1 : 255,128,255
Combo2 : 128,255,128
Combo3 : 0,255,255
Combo4 : 255,128,128
Combo5 : 255,255,128

[HitObjects]
374,8,390,6,0,P|415:-3|455:8,1,85,4|0,0:0|0:0,0:0:0:0:
455,135,815,2,0,P|414:146|374:135,1,85
263,70,1241,2,0,P|222:59|182:70,1,85
61,111,1666,2,0,P|73:131|79:151,1,42.5,8|8,0:0|0:0,0:0:0:0:
79,191,1879,2,0,P|68:208|61:230,1,42.5,2|2,0:0|0:0,0:0:0:0:
85,265,2092,6,0,P|125:276|165:265,1,85,6|0,0:0|0:0,0:0:0:0:
287,303,2517,2,0,P|298:342|287:382,1,85
247,232,2943,2,0,P|286:220|326:232,1,85,4|0,0:0|0:0,0:0:0:0:
368,242,3262,1,8,0:3:0:0:
368,242,3368,2,0,P|391:246|412:243,1,42.5,2|2,0:0|0:0,0:0:0:0:
447,222,3581,2,0,P|452:200|452:177,1,42.5,2|2,0:0|0:0,0:0:0:0:
447,137,3794,6,0,L|368:97,1,85,6|8,0:0|0:0,0:0:0:0:
251,53,4219,1,2,0:0:0:0:
223,178,4432,1,8,0:0:0:0:
223,178,4538,2,0,P|204:237|222:298,1,127.5,4|8,0:0|0:0,0:0:0:0:
160,367,5070,2,0,P|138:360|116:360,1,42.5,8|2,0:0|0:0,0:0:0:0:
82,336,5283,2,0,P|75:314|75:292,1,42.5,2|2,0:0|0:0,0:0:0:0:
85,257,5496,6,0,P|85:220|69:184,1,76.4999976654053,6|0,0:0|0:0,0:0:0:0:
2,131,5815,2,0,P|56:98|122:114,1,133.874995914459,6|2,0:0|0:0,0:0:0:0:
279,164,6347,2,0,L|365:145,1,89.2499972763062,4|8,0:0|0:0,0:0:0:0:
409,159,6666,1,8,0:0:0:0:
409,159,6772,2,0,P|421:180|428:202,1,44.6249986381531,8|8,0:0|0:0,0:0:0:0:
440,242,6985,2,0,P|426:263|419:284,1,44.6249986381531,2|2,0:0|0:0,0:0:0:0:
406,317,7198,6,0,L|330:300,1,76.4999976654053,6|8,0:0|0:0,0:0:0:0:
249,332,7517,2,0,P|194:364|128:348,1,133.874995914459,6|2,0:0|0:0,0:0:0:0:
95,191,8049,1,8,0:0:0:0:
95,191,8900,6,0,L|179:208,1,85,6|8,0:0|0:0,0:0:0:0:
286,277,9326,1,2,0:0:0:0:
406,236,9538,1,8,0:0:0:0:
428,199,9645,2,0,P|446:133|428:77,1,127.5,2|8,0:0|0:0,0:0:0:0:
310,31,10177,2,0,L|224:48,1,85,2|8,0:0|0:0,0:0:0:0:
112,106,10602,5,2,0:0:0:0:
134,231,10815,1,8,0:0:0:0:
14,186,11028,1,2,0:0:0:0:
23,58,11241,1,8,0:0:0:0:
54,29,11347,2,0,P|112:4|169:28,1,127.5,2|8,0:0|0:0,0:0:0:0:
236,136,11879,1,2,0:0:0:0:
112,106,12092,1,8,0:0:0:0:
14,186,12304,6,0,P|14:229|25:270,1,85,2|8,0:0|0:0,0:0:0:0:
106,368,12730,1,2,0:0:0:0:
226,327,12943,1,8,0:0:0:0:
266,313,13049,2,0,P|327:296|391:294,1,127.5,2|8,0:0|0:0,0:0:0:0:
492,217,13581,2,0,P|491:174|480:133,1,85,2|8,0:0|0:0,0:0:0:0:
389,43,14007,5,2,0:0:0:0:
267,79,14219,1,8,0:0:0:0:
140,63,14432,1,2,0:0:0:0:
58,162,14645,1,8,0:0:0:0:
74,200,14751,2,0,L|92:327,1,127.5,2|8,0:0|0:0,0:0:0:0:
219,323,15283,1,2,0:0:0:0:
202,197,15496,1,8,0:0:0:0:
144,82,15709,6,0,P|183:70|227:71,1,85,2|8,0:0|0:0,0:0:0:0:
348,33,16134,1,2,0:0:0:0:
455,101,16347,1,8,0:0:0:0:
469,140,16453,2,0,L|449:266,1,127.5,2|8,0:0|0:0,0:0:0:0:
340,332,16985,2,0,P|300:320|255:321,1,85,2|8,0:0|0:0,0:0:0:0:
127,355,17411,5,2,0:0:0:0:
119,227,17624,1,8,0:0:0:0:
23,143,17836,1,2,0:0:0:0:
2,268,18049,1,8,0:0:0:0:
18,306,18155,2,0,P|65:349|127:354,1,127.5,2|8,0:0|0:0,0:0:0:0:
247,313,18687,1,2,0:0:0:0:
371,341,18900,1,12,0:0:0:0:
392,202,19113,6,0,P|390:162|400:127,1,76.4999976654053,6|8,0:0|0:0,0:0:0:0:
472,76,19432,2,0,P|415:42|350:55,1,133.874995914459,6|8,0:0|0:0,0:0:0:0:
239,132,19964,2,0,P|198:134|164:124,1,76.4999976654053,6|8,0:0|0:0,0:0:0:0:
109,52,20283,2,0,P|76:108|88:173,1,133.874995914459,6|8,0:0|0:0,0:0:0:0:
234,246,20815,6,0,P|277:242|314:254,1,80.7499978437424,6|8,0:0|0:0,0:0:0:0:
372,329,21134,2,0,P|406:269|393:201,1,140.25000428009,6|8,0:0|0:0,0:0:0:0:
239,132,21666,2,0,P|197:128|161:140,1,80.7499978437424,6|2,0:0|0:0,0:0:0:0:
103,214,21985,2,0,P|68:155|81:87,1,140.25000428009,6|8,0:0|0:0,0:0:0:0:
138,23,22411,1,8,0:0:0:0:
179,15,22517,6,0,P|218:25|261:22,1,85,6|8,0:0|0:0,0:0:0:0:
380,70,22943,1,2,0:0:0:0:
348,193,23155,1,8,0:0:0:0:
338,234,23262,2,0,P|332:298|348:359,1,127.5,2|8,0:0|0:0,0:0:0:0:
471,323,23794,2,0,P|475:281|465:240,1,85,2|8,0:0|0:0,0:0:0:0:
496,116,24219,5,2,0:0:0:0:
373,83,24432,1,8,0:0:0:0:
341,206,24645,1,2,0:0:0:0:
218,173,24858,1,8,0:0:0:0:
185,200,24964,2,0,P|128:225|65:214,1,127.5,2|8,0:0|0:0,0:0:0:0:
114,96,25496,1,2,0:0:0:0:
218,173,25709,1,8,0:0:0:0:
206,299,25921,6,0,P|202:341|212:382,1,85,2|8,0:0|0:0,0:0:0:0:
330,332,26347,1,2,0:0:0:0:
343,204,26560,1,8,0:0:0:0:
320,167,26666,2,0,P|314:103|330:42,1,127.5,2|8,0:0|0:0,0:0:0:0:
453,78,27198,2,0,P|457:120|447:161,1,85,2|8,0:0|0:0,0:0:0:0:
450,289,27624,5,2,0:0:0:0:
330,332,27836,1,8,0:0:0:0:
209,289,28049,1,2,0:0:0:0:
89,332,28262,1,8,0:0:0:0:
55,306,28368,2,0,P|27:248|21:185,1,127.5,2|8,0:0|0:0,0:0:0:0:
74,69,28900,2,0,P|109:45|153:45,1,85,2|8,0:0|0:0,0:0:0:0:
263,104,29326,5,2,0:0:0:0:
375,165,29538,1,8,0:0:0:0:
371,38,29751,1,2,0:0:0:0:
263,104,29964,1,8,0:0:0:0:
254,145,30070,2,0,P|254:207|290:259,1,127.5,2|8,0:0|0:0,0:0:0:0:
375,165,30602,1,2,0:0:0:0:
263,104,30815,1,8,0:0:0:0:
137,127,31028,6,0,P|99:145|57:139,1,85,2|8,0:0|0:0,0:0:0:0:
3,254,31453,1,2,0:0:0:0:
83,353,31666,1,8,0:0:0:0:
115,325,31772,2,0,P|170:296|232:305,1,127.5,2|8,0:0|0:0,0:0:0:0:
340,374,32304,1,2,0:0:0:0:
402,262,32517,1,12,0:0:0:0:
288,180,32730,6,0,P|248:178|213:188,1,76.4999976654053,6|8,0:0|0:0,0:0:0:0:
161,259,33049,2,0,P|127:202|140:137,1,133.874995914459,6|8,0:0|0:0,0:0:0:0:
276,80,33581,2,0,P|316:82|351:72,1,76.4999976654053,6|8,0:0|0:0,0:0:0:0:
403,1,33900,2,0,P|437:58|424:123,1,133.874995914459,6|8,0:0|0:0,0:0:0:0:
288,180,34432,6,0,P|284:223|296:260,1,80.7499978437424,6|8,0:0|0:0,0:0:0:0:
371,318,34751,2,0,P|311:352|243:339,1,140.25000428009,6|8,0:0|0:0,0:0:0:0:
173,202,35283,2,0,P|130:198|93:210,1,80.7499978437424,6|8,0:0|0:0,0:0:0:0:
35,285,35602,2,0,P|1:225|14:157,1,140.25000428009,6|2,0:0|0:0,0:0:0:0:
48,77,36028,1,2,0:0:0:0:
82,59,36134,6,0,P|119:56|156:67,1,76.4999976654053,6|8,0:0|0:0,0:0:0:0:
192,79,36453,2,0,P|229:83|266:72,1,76.4999976654053,2|8,0:0|0:0,0:0:0:0:
298,51,36772,1,2,0:0:0:0:
396,7,36985,1,8,0:0:0:0:
386,113,37198,2,0,P|410:141|422:177,2,76.4999976654053,2|2|0,0:0|0:0|0:0,0:0:0:0:
317,197,37836,6,0,P|280:200|243:189,1,76.4999976654053,2|0,0:0|0:0,0:0:0:0:
207,177,38155,2,0,P|170:173|133:184,1,76.4999976654053,2|8,0:0|0:0,0:0:0:0:
101,205,38474,1,2,0:0:0:0:
179,278,38687,2,0,P|190:314|186:352,2,76.4999976654053,8|2|0,0:0|0:0|0:0,0:0:0:0:
101,206,39326,1,8,0:0:0:0:
101,206,39432,1,8,0:0:0:0:
101,206,39538,6,0,L|106:129,1,76.4999976654053,2|8,0:0|0:0,0:0:0:0:
125,96,39858,2,0,P|161:84|199:88,1,76.4999976654053,2|8,0:0|0:0,0:0:0:0:
235,101,40177,1,2,0:0:0:0:
301,184,40390,2,0,L|296:261,1,76.4999976654053,8|2,0:0|0:0,0:0:0:0:
314,294,40709,2,0,P|367:311|424:305,1,114.749996498108,8|0,0:3|0:0,0:0:0:0:
498,226,41241,6,0,L|503:149,1,76.4999976654053,2|0,0:0|0:0,0:0:0:0:
495,111,41560,2,0,P|459:99|421:103,1,76.4999976654053,2|8,0:0|0:0,0:0:0:0:
387,120,41879,1,2,0:0:0:0:
301,184,42092,2,0,P|265:196|227:192,1,76.4999976654053,8|2,0:0|0:0,0:0:0:0:
123,165,42517,2,0,P|103:168|83:175,3,38.2499988327027,8|8|8|8,0:0|0:0|0:0|0:0,0:0:0:0:
57,199,42943,6,0,L|52:276,1,76.4999976654053,6|8,0:0|0:0,0:0:0:0:
76,305,43262,2,0,P|113:301|149:313,1,76.4999976654053,2|8,0:0|0:0,0:0:0:0:
182,332,43581,1,2,0:0:0:0:
276,281,43794,2,0,P|312:268|349:272,1,76.4999976654053,8|2,0:0|0:0,0:0:0:0:
386,283,44113,2,0,L|378:169,1,114.749996498108,0|2,0:0|0:0,0:0:0:0:
435,77,44645,5,2,0:0:0:0:
185,33,45070,2,0,P|146:27|110:40,1,76.4999976654053,12|0,1:2|0:0,0:0:0:0:
28,119,45496,1,2,0:0:0:0:
106,203,45709,1,8,0:0:0:0:
106,203,45815,1,8,0:0:0:0:
106,203,45921,2,0,P|110:221|114:242,3,38.2499988327027,2|2|2|2,0:0|0:0|0:0|0:0,0:0:0:0:
143,271,46347,6,0,P|184:275|223:261,1,85,6|8,0:0|0:0,0:0:0:0:
343,211,46772,1,2,0:0:0:0:
462,257,46985,1,8,0:0:0:0:
462,257,47092,1,2,0:0:0:0:
462,257,47198,2,0,P|471:214|463:173,1,85,2|8,0:0|0:0,0:0:0:0:
384,73,47624,1,2,0:0:0:0:
509,55,47836,1,8,0:0:0:0:
463,174,48049,6,0,P|426:195|384:200,1,85,2|8,0:0|0:0,0:0:0:0:
304,299,48475,1,2,0:0:0:0:
225,198,48687,1,8,0:0:0:0:
179,317,48900,1,0,0:0:0:0:
100,216,49113,2,0,P|78:218|58:224,5,42.5,8|8|8|8|8|8,0:0|0:3|0:0|0:0|0:0|0:0,0:0:0:0:
25,206,49751,6,0,P|13:165|16:128,1,76.4999976654053,6|8,0:0|0:0,0:0:0:0:
84,82,50070,2,0,P|149:93|203:58,1,133.874995914459,6|2,0:0|0:0,0:0:0:0:
321,120,50602,2,0,P|326:141|330:164,3,44.6249986381531,6|0|8|8,0:0|0:0|0:0|0:0,0:0:0:0:
305,203,51028,2,0,P|299:224|295:247,3,44.6249986381531,8|2|2|8,0:0|0:3|0:0|0:0,0:0:0:0:
271,278,51453,6,0,P|230:266|192:269,1,80.7499978437424,6|8,0:0|0:0,0:0:0:0:
223,360,51772,2,0,P|291:372|348:335,1,140.25000428009,6|2,0:0|0:0,0:0:0:0:
484,249,52304,1,8,0:0:0:0:
358,12,52730,1,0,0:0:0:0:
358,12,52943,1,0,0:0:0:0:
358,12,53155,6,0,P|309:11|268:24,1,89.2499972763062,6|8,0:0|0:0,0:0:0:0:
173,115,53581,1,2,0:0:0:0:
248,225,53794,1,8,0:0:0:0:
262,266,53900,2,0,P|263:326|219:382,1,133.874995914459,2|8,0:0|0:0,0:0:0:0:
94,335,54432,2,0,P|68:336|46:340,2,44.6249986381531,2|2|8,0:0|0:0|0:0,0:0:0:0:
159,217,54858,6,0,P|165:172|159:129,1,89.2499972763062,2|8,0:0|0:0,0:0:0:0:
102,7,55283,1,2,0:0:0:0:
4,98,55496,1,8,0:0:0:0:
35,129,55602,2,0,P|96:151|159:129,1,133.874995914459,2|8,0:0|0:0,0:0:0:0:
283,79,56134,2,0,P|309:80|331:84,2,44.6249986381531,2|2|8,0:0|0:0|0:0,0:0:0:0:
295,213,56560,6,0,P|289:258|295:301,1,89.2499972763062,2|8,0:0|0:0,0:0:0:0:
405,377,56985,1,2,0:0:0:0:
473,261,57198,1,8,0:0:0:0:
487,218,57304,2,0,P|495:150|487:86,1,133.874995914459,2|8,0:0|0:0,0:0:0:0:
373,13,57836,2,0,P|347:14|325:18,2,44.6249986381531,2|2|8,0:0|0:0|0:0,0:0:0:0:
261,129,58262,6,0,P|219:113|175:109,1,89.2499972763062,6|8,0:0|0:0,0:0:0:0:
78,16,58687,1,0,0:0:0:0:
27,139,58900,1,8,0:0:0:0:
25,183,59007,2,0,P|31:248|75:302,1,133.874995914459,2|12,0:0|0:0,0:0:0:0:
204,322,59538,1,2,0:0:0:0:
158,196,59751,1,8,0:0:0:0:
158,196,59858,1,8,0:0:0:0:
158,196,59964,6,0,P|161:152|175:110,1,89.2499972763062,6|8,0:0|0:0,0:0:0:0:
288,38,60389,1,2,0:0:0:0:
421,53,60602,1,8,0:0:0:0:
443,91,60709,2,0,P|467:151|453:219,1,133.874995914459,2|8,0:0|0:0,0:0:0:0:
379,327,61241,2,0,P|380:353|384:375,2,44.6249986381531,2|2|8,0:0|0:0|0:0,0:0:0:0:
316,208,61666,6,0,P|274:192|230:188,1,89.2499972763062,2|8,0:0|0:0,0:0:0:0:
98,217,62092,1,2,0:0:0:0:
165,332,62304,1,8,0:0:0:0:
205,312,62411,2,0,P|235:253|230:188,1,133.874995914459,2|8,0:0|0:0,0:0:0:0:
194,58,62943,2,0,P|195:32|199:10,2,44.6249986381531,2|2|8,0:0|0:0|0:0,0:0:0:0:
354,48,63368,6,0,P|398:52|439:67,1,89.2499972763062,6|8,0:0|0:0,0:0:0:0:
506,184,63794,1,2,0:0:0:0:
354,238,64007,1,8,0:0:0:0:
311,251,64113,2,0,P|269:235|225:231,1,89.2499972763062,6|0,0:0|0:0,0:0:0:0:
180,234,64432,1,8,0:0:0:0:
180,234,64538,1,8,0:0:0:0:
180,234,64645,2,0,P|157:236|137:243,3,44.6249986381531,8|8|8|0,0:0|0:3|0:3|0:0,0:0:0:0:
71,273,65070,5,2,0:0:0:0:
305,373,65496,1,2,0:0:0:0:
227,130,65921,1,2,0:0:0:0:
100,144,66134,1,8,0:0:0:0:
100,144,66241,1,8,0:0:0:0:
100,144,66347,2,0,P|98:122|90:101,3,42.5,8|8|8|8,0:0|0:0|0:0|0:0,0:0:0:0:
97,58,66772,6,0,P|135:35|178:23,1,89.2499972763062,6|8,0:0|0:0,0:0:0:0:
312,17,67198,1,2,0:0:0:0:
281,147,67411,1,8,0:0:0:0:
266,188,67517,2,0,P|265:252|299:309,1,133.874995914459,2|8,0:0|0:0,0:0:0:0:
397,215,68049,2,0,P|419:211|441:210,2,44.6249986381531,2|2|8,0:0|0:0|0:0,0:0:0:0:
281,147,68475,6,0,P|239:131|195:127,1,89.2499972763062,2|8,0:0|0:0,0:0:0:0:
68,169,68900,1,2,0:0:0:0:
92,300,69113,1,8,0:0:0:0:
124,331,69219,2,0,P|185:353|246:330,1,133.874995914459,2|8,0:0|0:0,0:0:0:0:
359,257,69751,2,0,P|381:257|403:261,2,44.6249986381531,2|2|8,0:0|0:0|0:0,0:0:0:0:
281,147,70177,6,0,P|285:102|301:61,1,89.2499972763062,2|8,0:0|0:0,0:0:0:0:
424,10,70602,1,2,0:0:0:0:
477,132,70815,1,8,0:0:0:0:
486,175,70921,2,0,P|479:242|455:305,1,133.874995914459,2|8,0:0|0:0,0:0:0:0:
324,331,71453,2,0,P|301:327|279:326,2,44.6249986381531,2|2|8,0:0|0:0|0:0,0:0:0:0:
455,303,71879,5,2,0:0:0:0:
372,197,72092,1,8,0:0:0:0:
279,326,72304,1,6,0:0:0:0:
172,244,72517,1,8,0:0:0:0:
130,262,72624,2,0,P|65:281|-1:261,1,133.874995914459,2|8,0:0|0:0,0:0:0:0:
69,148,73155,2,0,P|73:125|74:103,3,44.6249986381531,12|8|2|2,0:0|0:0|0:0|0:0,0:0:0:0:
90,61,73581,6,0,P|131:44|175:41,1,89.2499972763062,6|8,0:0|0:0,0:0:0:0:
287,116,74007,1,2,0:0:0:0:
382,22,74219,1,8,0:0:0:0:
413,54,74325,2,0,P|435:115|412:176,1,133.874995914459,2|8,0:0|0:0,0:0:0:0:
298,250,74858,2,0,P|294:273|293:295,2,44.6249986381531,2|2|8,0:0|0:0|0:0,0:0:0:0:
287,116,75283,6,0,P|245:99|201:96,1,89.2499972763062,2|8,0:0|0:0,0:0:0:0:
83,30,75709,1,2,0:0:0:0:
0,135,75921,1,8,0:0:0:0:
24,172,76028,2,0,P|36:241|43:307,1,133.874995914459,2|8,0:0|0:0,0:0:0:0:
171,340,76560,2,0,P|167:363|166:385,2,44.6249986381531,2|2|8,0:0|0:0|0:0,0:0:0:0:
213,184,76985,6,0,P|210:139|200:94,1,89.2499972763062,6|8,0:0|0:0,0:0:0:0:
83,30,77411,1,2,0:0:0:0:
0,137,77624,1,8,0:0:0:0:
24,174,77730,2,0,P|83:204|152:196,1,133.874995914459,2|8,0:0|0:0,0:0:0:0:
271,126,78262,2,0,P|272:103|276:81,2,44.6249986381531,2|2|8,0:0|0:0|0:0,0:0:0:0:
398,224,78687,6,0,P|408:267|398:312,1,89.2499972763062,6|8,0:0|0:0,0:0:0:0:
272,262,79113,1,2,0:0:0:0:
271,126,79326,1,8,0:0:0:0:
305,98,79432,2,0,P|363:66|432:73,1,133.874995914459,2|8,0:0|0:0,0:0:0:0:
398,224,79964,2,0,P|396:246|392:268,2,44.6249986381531,2|2|8,0:0|0:0|0:0,0:0:0:0:
250,168,80390,6,0,P|207:163|170:175,1,80.7499978437424,6|8,0:0|0:0,0:0:0:0:
112,251,80709,2,0,P|78:191|91:123,1,140.25000428009,6|8,0:0|0:0,0:0:0:0:
122,90,81134,1,8,0:0:0:0:
160,76,81241,2,0,P|199:80|238:68,1,80.7499978437424,6|8,0:0|0:0,0:0:0:0:
327,31,81560,2,0,P|394:18|454:52,1,140.25000428009,6|8,0:0|0:3,0:0:0:0:
472,212,82092,6,0,P|455:253|452:297,1,89.2499972763062,6|8,0:0|0:0,0:0:0:0:
319,313,82517,2,0,P|299:302|278:294,3,44.6249986381531,8|8|8|8,0:0|0:0|0:0|0:0,0:0:0:0:
235,306,82943,2,0,P|212:302|190:302,3,44.6249986381531,8|8|8|8,0:0|0:0|0:0|0:0,0:0:0:0:
154,328,83368,2,0,P|132:332|111:339,3,44.6249986381531,8|8|8|8,0:0|0:0|0:0|0:0,0:0:0:0:
74,365,83794,6,0,P|57:323|54:279,1,89.2499972763062,6|8,0:0|0:0,0:0:0:0:
31,147,84219,1,2,0:0:0:0:
164,160,84432,1,8,0:0:0:0:
196,191,84538,2,0,P|257:213|318:190,1,133.874995914459,2|8,0:0|0:0,0:0:0:0:
451,167,85070,2,0,P|472:163|495:161,2,44.6249986381531,2|2|8,0:0|0:0|0:0,0:0:0:0:
368,28,85496,6,0,P|326:11|282:8,1,89.2499972763062,6|8,0:0|0:0,0:0:0:0:
148,15,85921,1,2,0:0:0:0:
48,105,86134,1,8,0:0:0:0:
74,140,86241,2,0,L|87:230,1,89.2499972763062,6|2,0:0|0:0,0:0:0:0:
112,263,86560,2,0,P|106:282|105:308,2,44.6249986381531,8|8|2,0:0|0:0|0:0,0:0:0:0:
256,192,86985,1,6,0:0:0:0:
256,192,87092,12,0,89219,0:0:0:0:
