osu file format v14

[General]
AudioFilename: BUTTERFLY EFFECTOR.mp3
AudioLeadIn: 0
PreviewTime: 52730
Countdown: 0
SampleSet: Soft
StackLeniency: 0.7
Mode: 0
LetterboxInBreaks: 0
WidescreenStoryboard: 1

[Editor]
DistanceSpacing: 1.3
BeatDivisor: 4
GridSize: 4
TimelineZoom: 1.5

[Metadata]
Title:BUTTERFLY EFFECTOR (TV Size)
TitleUnicode:BUTTERFLY EFFECTOR(TVサイズ)
Artist:TRUE
ArtistUnicode:TRUE
Creator:kunka
Version:Advanced
Source:ひなろじ ~from Luck & Logic~
Tags:opening hinaroji hinalogic from Luck & Logic kunkakunkakunkakunka
BeatmapID:1438078
BeatmapSetID:675314

[Difficulty]
HPDrainRate:3.5
CircleSize:3.5
OverallDifficulty:4.5
ApproachRate:5
SliderMultiplier:1.4
SliderTickRate:1

[Events]
//Background and Video events
Video,0,"BUTTERFLY EFFECTOR.avi"
0,0,"BG3.jpg",0,0
//Break Periods
//Storyboard Layer 0 (Background)
//Storyboard Layer 1 (Fail)
//Storyboard Layer 2 (Pass)
//Storyboard Layer 3 (Foreground)
//Storyboard Sound Samples

[TimingPoints]
390,425.531914893617,4,2,1,60,1,0
5496,-100,4,2,1,55,0,0
5815,-100,4,2,1,65,0,0
6134,-100,4,2,1,60,0,0
6347,-100,4,2,1,65,0,0
7198,-100,4,2,1,55,0,0
7517,-100,4,2,1,65,0,0
7836,-100,4,2,1,60,0,0
8049,-100,4,2,1,65,0,0
8475,-100,4,2,1,20,0,0
8900,-100,4,2,1,60,0,0
19113,-100,4,2,1,55,0,0
19432,-100,4,2,1,65,0,0
19964,-100,4,2,1,55,0,0
20283,-100,4,2,1,65,0,0
20815,-100,4,2,1,60,0,0
21134,-100,4,2,1,70,0,0
21666,-100,4,2,1,60,0,0
21985,-100,4,2,1,70,0,0
22517,-100,4,2,1,60,0,0
32730,-100,4,2,1,55,0,0
33049,-100,4,2,1,65,0,0
33581,-100,4,2,1,55,0,0
33900,-100,4,2,1,65,0,0
34432,-100,4,2,1,60,0,0
34751,-100,4,2,1,70,0,0
35283,-100,4,2,1,60,0,0
35602,-100,4,2,1,70,0,0
36134,-111.111111111111,4,2,1,55,0,0
44964,-111.111111111111,4,2,1,5,0,0
45070,-111.111111111111,4,2,1,55,0,0
46347,-100,4,2,1,60,0,0
49751,-100,4,2,1,55,0,0
50070,-100,4,2,1,65,0,0
50390,-100,4,2,1,60,0,0
50602,-100,4,2,1,65,0,0
51453,-100,4,2,1,60,0,0
51772,-100,4,2,1,70,0,0
52092,-100,4,2,1,65,0,0
52304,-100,4,2,1,70,0,0
53155,-95.2380952380952,4,2,1,70,0,1
65070,-100,4,2,1,60,0,0
66772,-95.2380952380952,4,2,1,70,0,1
80390,-95.2380952380952,4,2,1,60,0,1
80709,-95.2380952380952,4,2,1,75,0,1
81241,-95.2380952380952,4,2,1,60,0,1
81560,-95.2380952380952,4,2,1,75,0,1
82092,-95.2380952380952,4,2,1,70,0,1
86985,-95.2380952380952,4,2,1,70,0,0
89219,-95.2380952380952,4,2,1,5,0,0

[Colours]
Combo1 : 255,128,255
Combo2 : 128,255,128
Combo3 : 0,255,255
Combo4 : 255,128,128
Combo5 : 255,255,128

[HitObjects]
487,78,390,6,0,P|514:144|487:208,1,140,4|0,0:0|0:0,0:0:0:0:
324,280,1241,2,0,P|258:253|194:280,1,140,0|8,0:0|0:0,0:0:0:0:
106,277,1879,1,2,0:0:0:0:
46,208,2092,6,0,P|19:142|46:78,1,140,6|0,0:0|0:0,0:0:0:0:
221,52,2943,2,0,P|287:79|351:52,1,140,4|2,0:0|0:0,0:0:0:0:
435,80,3581,1,2,0:0:0:0:
435,80,3794,6,0,P|448:111|449:147,1,70,6|8,0:0|0:0,0:0:0:0:
409,228,4219,1,2,0:0:0:0:
319,213,4432,2,0,B|284:207|284:207|183:239,1,140,8|8,0:0|0:0,0:0:0:0:
99,270,5070,1,8,0:0:0:0:
168,328,5283,1,2,0:0:0:0:
184,238,5496,6,0,P|152:196|101:181,2,105,6|6|2,0:0|0:0|0:0,0:0:0:0:
253,296,6347,2,0,P|318:315|379:284,1,140,4|8,0:0|0:0,0:0:0:0:
429,208,6985,1,2,0:0:0:0:
389,126,7198,6,0,P|440:116|488:139,2,105,6|6|2,0:0|0:0|0:0,0:0:0:0:
311,173,8049,1,8,0:0:0:0:
311,173,8900,6,0,L|240:163,1,70,6|8,0:0|0:0,0:0:0:0:
166,110,9326,1,2,0:0:0:0:
224,40,9538,2,0,P|158:20|95:53,1,140,8|8,0:0|0:0,0:0:0:0:
50,129,10177,2,0,L|60:200,1,70,2|8,0:0|0:0,0:0:0:0:
117,268,10602,6,0,L|107:339,1,70,2|8,0:0|0:0,0:0:0:0:
31,285,11028,1,2,0:0:0:0:
59,198,11241,2,0,P|125:178|188:211,1,140,8|8,0:0|0:0,0:0:0:0:
238,282,11879,2,0,L|309:292,1,70,2|8,0:0|0:0,0:0:0:0:
364,220,12304,6,0,L|433:210,1,70,2|8,0:0|0:0,0:0:0:0:
497,145,12730,1,2,0:0:0:0:
455,64,12943,2,0,P|393:33|328:53,1,140,8|8,0:0|0:0,0:0:0:0:
269,123,13581,2,0,L|279:194,1,70,2|8,0:0|0:0,0:0:0:0:
336,262,14006,6,0,L|326:333,1,70,2|8,0:0|0:0,0:0:0:0:
236,313,14432,1,2,0:0:0:0:
155,356,14645,2,0,P|89:376|28:345,1,140,8|8,0:0|0:0,0:0:0:0:
27,254,15283,2,0,L|37:183,1,70,2|8,0:0|0:0,0:0:0:0:
94,115,15708,6,0,L|84:44,1,70,2|8,0:0|0:0,0:0:0:0:
9,98,16134,1,2,0:0:0:0:
36,184,16347,2,0,P|101:204|162:173,1,140,8|8,0:0|0:0,0:0:0:0:
234,117,16985,2,0,L|303:107,1,70,2|8,0:0|0:0,0:0:0:0:
316,197,17411,6,0,L|246:206,1,70,2|8,0:0|0:0,0:0:0:0:
162,173,17836,1,2,0:0:0:0:
133,259,18049,2,0,P|136:327|185:374,1,140,8|8,0:0|0:0,0:0:0:0:
275,356,18687,2,0,P|309:348|344:346,1,70,2|12,0:0|0:0,0:0:0:0:
425,305,19113,6,0,L|441:201,2,105,6|6|8,0:0|0:0|0:0,0:0:0:0:
348,255,19964,2,0,L|364:151,2,105,6|6|8,0:0|0:0|0:0,0:0:0:0:
306,336,20815,6,0,L|202:352,2,105,6|6|8,0:0|0:0|0:0,0:0:0:0:
256,259,21666,2,0,L|152:275,2,105,6|6|8,0:0|0:0|0:0,0:0:0:0:
348,255,22517,6,0,P|383:265|418:261,1,70,6|8,0:0|0:0,0:0:0:0:
472,189,22943,1,2,0:0:0:0:
423,112,23155,2,0,P|361:81|296:101,1,140,8|8,0:0|0:0,0:0:0:0:
212,137,23794,2,0,L|142:127,1,70,2|8,0:0|0:0,0:0:0:0:
154,36,24219,6,0,L|223:45,1,70,2|8,0:0|0:0,0:0:0:0:
296,101,24645,1,2,0:0:0:0:
357,33,24858,2,0,P|387:94|367:159,1,140,8|8,0:0|0:0,0:0:0:0:
331,243,25496,2,0,L|340:312,1,70,2|8,0:0|0:0,0:0:0:0:
431,302,25921,6,0,L|421:232,1,70,2|8,0:0|0:0,0:0:0:0:
367,159,26347,1,2,0:0:0:0:
277,170,26560,2,0,P|215:200|150:180,1,140,8|8,0:0|0:0,0:0:0:0:
100,104,27198,2,0,L|90:34,1,70,2|8,0:0|0:0,0:0:0:0:
0,45,27623,6,0,L|9:114,1,70,2|8,0:0|0:0,0:0:0:0:
64,187,28049,1,2,0:0:0:0:
74,277,28262,2,0,P|135:307|200:287,1,140,8|8,0:0|0:0,0:0:0:0:
281,246,28900,2,0,P|315:242|349:252,1,70,2|8,0:0|0:0,0:0:0:0:
344,344,29326,6,0,P|309:347|275:337,1,70,2|8,0:0|0:0,0:0:0:0:
200,287,29751,1,2,0:0:0:0:
281,246,29964,2,0,P|311:184|291:119,1,140,8|8,0:0|0:0,0:0:0:0:
205,88,30602,2,0,L|135:97,1,70,2|8,0:0|0:0,0:0:0:0:
151,188,31028,6,0,L|220:178,1,70,2|8,0:0|0:0,0:0:0:0:
291,119,31453,1,2,0:0:0:0:
362,61,31666,2,0,P|427:40|488:71,1,140,8|8,0:0|0:0,0:0:0:0:
479,161,32304,2,0,L|469:230,1,70,2|12,0:0|0:0,0:0:0:0:
389,275,32730,6,0,L|285:291,2,105,6|6|8,0:0|0:0|0:0,0:0:0:0:
346,194,33581,2,0,L|242:210,2,105,6|6|8,0:0|0:0|0:0,0:0:0:0:
398,118,34432,6,0,L|414:14,2,105,6|6|8,0:0|0:0|0:0,0:0:0:0:
479,161,35283,2,0,L|495:57,2,105,6|6|2,0:0|0:0|0:0,0:0:0:0:
423,221,36134,6,0,P|465:243|511:237,2,94.499997116089,6|2|2,0:0|0:0|0:0,0:0:0:0:
346,194,36985,2,0,P|312:184|280:184,1,62.9999980773926,8|2,0:0|0:0,0:0:0:0:
214,227,37411,2,0,P|182:228|152:237,1,62.9999980773926,2|0,0:0|0:0,0:0:0:0:
95,296,37836,6,0,P|72:253|78:207,2,94.499997116089,2|2|2,0:0|0:0|0:0,0:0:0:0:
167,335,38687,2,0,P|196:325|228:324,1,62.9999980773926,8|2,0:0|0:0,0:0:0:0:
297,279,39113,2,0,P|306:249|307:217,1,62.9999980773926,0|8,0:0|0:0,0:0:0:0:
343,143,39538,6,0,P|385:120|431:126,2,94.499997116089,2|2|2,0:0|0:0|0:0,0:0:0:0:
260,150,40390,2,0,P|230:140|198:139,1,62.9999980773926,8|2,0:0|0:0,0:0:0:0:
116,140,40815,1,2,0:0:0:0:
142,301,41241,6,0,P|184:323|230:317,2,94.499997116089,2|2|2,0:0|0:0|0:0,0:0:0:0:
199,242,42092,2,0,P|197:210|188:180,1,62.9999980773926,8|2,0:0|0:0,0:0:0:0:
116,141,42517,1,8,0:0:0:0:
116,141,42730,1,8,0:0:0:0:
146,64,42943,6,0,P|100:58|59:81,2,94.499997116089,6|2|2,0:0|0:0|0:0,0:0:0:0:
225,83,43794,1,8,0:0:0:0:
225,83,44007,2,0,P|285:101|347:104,1,125.999996154785,2|2,0:0|0:0,0:0:0:0:
426,79,44645,5,2,0:0:0:0:
468,237,45070,2,0,P|476:267|478:298,2,62.9999980773926,12|0|2,1:2|0:0|0:0,0:0:0:0:
418,171,45709,1,8,0:0:0:0:
385,246,45921,2,0,P|371:274|352:300,1,62.9999980773926,2|2,0:0|0:0,0:0:0:0:
263,319,46347,6,0,P|195:299|124:294,1,140,6|2,0:0|0:0,0:0:0:0:
57,235,46985,2,0,P|46:200|44:165,2,70,8|2|8,0:0|0:0|0:0,0:0:0:0:
143,205,47624,2,0,P|145:170|155:136,1,70,2|8,0:0|0:0,0:0:0:0:
240,103,48049,6,0,P|302:133|367:113,1,140,2|2,0:0|0:0,0:0:0:0:
449,152,48687,2,0,P|458:185|461:220,1,70,8|0,0:0|0:0,0:0:0:0:
424,304,49113,1,8,0:0:0:0:
424,304,49326,2,0,P|389:306|355:316,1,70,8|8,0:0|0:0,0:0:0:0:
275,358,49751,6,0,P|225:375|174:360,2,105,6|6|2,0:0|0:0|0:0,0:0:0:0:
222,283,50602,2,0,P|203:218|234:157,1,140,6|8,0:0|0:0,0:0:0:0:
304,97,51241,1,2,0:0:0:0:
384,139,51453,6,0,P|433:156|484:141,2,105,6|6|2,0:0|0:0|0:0,0:0:0:0:
304,97,52304,1,8,0:0:0:0:
304,97,53155,6,0,P|266:99|230:109,1,73.4999977569581,6|8,0:0|0:0,0:0:0:0:
141,141,53581,1,2,0:0:0:0:
72,74,53794,2,0,P|46:139|72:208,1,146.999995513916,8|8,0:0|0:0,0:0:0:0:
140,275,54432,2,0,P|177:277|213:287,1,73.4999977569581,2|8,0:0|0:0,0:0:0:0:
288,344,54858,6,0,P|323:333|359:331,1,73.4999977569581,2|8,0:0|0:0,0:0:0:0:
454,349,55283,1,2,0:0:0:0:
478,256,55496,2,0,P|504:191|478:122,1,146.999995513916,8|8,0:0|0:0,0:0:0:0:
391,82,56134,2,0,P|354:83|319:94,1,73.4999977569581,2|8,0:0|0:0,0:0:0:0:
270,176,56560,6,0,L|282:247,1,73.4999977569581,2|8,0:0|0:0,0:0:0:0:
288,344,56985,1,2,0:0:0:0:
192,349,57198,2,0,B|156:337|156:337|92:365|52:337,1,146.999995513916,8|8,0:0|0:0,0:0:0:0:
14,248,57836,2,0,L|26:176,1,73.4999977569581,2|8,0:0|0:0,0:0:0:0:
6,81,58262,6,0,P|37:77|77:93,1,73.4999977569581,6|8,0:0|0:0,0:0:0:0:
169,109,58687,1,0,0:0:0:0:
245,51,58900,2,0,P|311:24|378:51,1,146.999995513916,8|12,0:0|0:0,0:0:0:0:
440,123,59538,2,0,L|427:194,1,73.4999977569581,2|8,0:0|0:0,0:0:0:0:
379,278,59964,6,0,P|312:304|245:277,1,146.999995513916,6|2,0:0|0:0,0:0:0:0:
170,218,60602,1,8,0:0:0:0:
81,185,60815,2,0,P|43:187|7:197,2,73.4999977569581,0|8|2,0:0|0:0|0:0,0:0:0:0:
170,218,61453,1,8,0:0:0:0:
124,301,61666,6,0,P|126:338|136:374,2,73.4999977569581,2|8|2,0:0|0:0|0:0,0:0:0:0:
170,218,62304,2,0,P|205:207|241:205,1,73.4999977569581,8|0,0:0|0:0,0:0:0:0:
327,249,62730,2,0,P|393:275|460:248,1,146.999995513916,8|8,0:0|0:0,0:0:0:0:
494,159,63368,6,0,L|481:87,1,73.4999977569581,6|8,0:0|0:0,0:0:0:0:
404,29,63794,1,2,0:0:0:0:
314,63,64007,2,0,P|242:83|169:87,1,146.999995513916,8|8,0:0|0:0,0:0:0:0:
100,152,64645,2,0,P|89:187|87:223,1,73.4999977569581,8|8,0:0|0:3,0:0:0:0:
132,303,65070,5,2,0:0:0:0:
302,367,65496,1,2,0:0:0:0:
273,187,65921,1,2,0:0:0:0:
132,303,66347,2,0,P|100:315|58:310,1,70,8|8,0:0|0:0,0:0:0:0:
14,230,66772,6,0,L|1:158,1,73.4999977569581,6|8,0:0|0:0,0:0:0:0:
25,64,67198,1,2,0:0:0:0:
119,46,67411,2,0,P|190:66|263:70,1,146.999995513916,8|8,0:0|0:0,0:0:0:0:
356,49,68049,2,0,P|391:38|427:36,1,73.4999977569581,2|8,0:0|0:0,0:0:0:0:
490,109,68475,6,0,P|479:144|477:180,1,73.4999977569581,2|8,0:0|0:0,0:0:0:0:
480,276,68900,1,2,0:0:0:0:
404,334,69113,2,0,P|337:360|270:334,1,146.999995513916,8|8,0:0|0:0,0:0:0:0:
181,299,69751,2,0,P|144:300|109:311,1,73.4999977569581,2|8,0:0|0:0,0:0:0:0:
97,215,70177,6,0,P|132:204|168:202,1,73.4999977569581,2|8,0:0|0:0,0:0:0:0:
257,240,70602,1,2,0:0:0:0:
333,182,70815,2,0,P|340:110|297:52,1,146.999995513916,8|8,0:0|0:0,0:0:0:0:
207,22,71453,2,0,P|169:15|133:22,1,73.4999977569581,2|8,0:0|0:0,0:0:0:0:
74,96,71879,6,0,L|61:167,1,73.4999977569581,2|8,0:0|0:0,0:0:0:0:
156,182,72304,2,0,L|168:110,1,73.4999977569581,6|8,0:0|0:0,0:0:0:0:
263,100,72730,2,0,L|249:172,1,73.4999977569581,0|8,0:0|0:0,0:0:0:0:
239,266,73154,1,12,0:0:0:0:
239,266,73368,1,2,0:0:0:0:
303,338,73581,6,0,P|338:327|374:325,1,73.4999977569581,6|8,0:0|0:0,0:0:0:0:
470,323,74007,1,2,0:0:0:0:
510,236,74219,2,0,P|505:162|485:92,1,146.999995513916,8|8,0:0|0:0,0:0:0:0:
404,40,74858,2,0,P|367:41|332:52,1,73.4999977569581,2|8,0:0|0:0,0:0:0:0:
272,126,75283,6,0,P|236:115|200:113,1,73.4999977569581,2|8,0:0|0:0,0:0:0:0:
113,71,75709,1,2,0:0:0:0:
52,144,75921,2,0,P|25:210|51:277,1,146.999995513916,8|8,0:0|0:0,0:0:0:0:
129,332,76560,2,0,P|164:321|200:319,1,73.4999977569581,2|8,0:0|0:0,0:0:0:0:
289,353,76985,6,0,L|289:279,1,73.4999977569581,6|8,0:0|0:0,0:0:0:0:
338,196,77411,1,2,0:0:0:0:
272,126,77624,2,0,P|338:99|405:126,1,146.999995513916,8|8,0:0|0:0,0:0:0:0:
434,217,78262,2,0,L|420:289,1,73.4999977569581,2|8,0:0|0:0,0:0:0:0:
360,365,78687,6,0,P|325:354|288:352,1,73.4999977569581,6|8,0:0|0:0,0:0:0:0:
203,307,79113,1,2,0:0:0:0:
134,373,79326,2,0,P|107:306|134:239,1,146.999995513916,8|8,0:0|0:0,0:0:0:0:
220,198,79964,2,0,P|254:208|291:210,1,73.4999977569581,2|8,0:0|0:0,0:0:0:0:
368,153,80390,6,0,B|378:82|378:82|365:45,2,110.249996635437,6|6|8,0:0|0:0|0:0,0:0:0:0:
379,248,81241,2,0,B|368:318|368:318|382:356,2,110.249996635437,6|6|8,0:0|0:0|0:3,0:0:0:0:
291,210,82092,6,0,P|240:188|185:200,2,110.249996635437,6|8|8,0:0|0:0|0:0,0:0:0:0:
379,248,82943,2,0,L|452:237,1,73.4999977569581,8|8,0:0|0:0,0:0:0:0:
508,160,83368,2,0,L|497:87,1,73.4999977569581,8|8,0:0|0:0,0:0:0:0:
431,17,83794,6,0,P|396:6|359:4,1,73.4999977569581,6|8,0:0|0:0,0:0:0:0:
273,45,84219,1,2,0:0:0:0:
191,94,84432,2,0,B|155:106|155:106|91:78|51:106,1,146.999995513916,8|8,0:0|0:0,0:0:0:0:
22,197,85070,2,0,P|23:233|34:268,1,73.4999977569581,2|8,0:0|0:0,0:0:0:0:
111,326,85496,6,0,P|145:315|182:313,1,73.4999977569581,6|8,0:0|0:0,0:0:0:0:
276,330,85921,1,2,0:0:0:0:
364,366,86134,2,0,B|376:330|376:330|348:266|376:226,1,146.999995513916,8|8,0:0|0:0,0:0:0:0:
435,150,86772,1,2,0:0:0:0:
394,63,86985,1,6,0:0:0:0:
256,192,87198,12,0,89219,0:0:0:0:
