osu file format v14

[General]
AudioFilename: audio.mp3
AudioLeadIn: 0
PreviewTime: 57951
Countdown: 0
SampleSet: Soft
StackLeniency: 0.7
Mode: 0
LetterboxInBreaks: 0
WidescreenStoryboard: 1

[Editor]
Bookmarks: 16058,22981,23336,24756,28661,28839,29016,29194,29371,30792,31147,33099,33366,33632,33987,47389
DistanceSpacing: 0.9
BeatDivisor: 2
GridSize: 8
TimelineZoom: 1.9

[Metadata]
Title:Another colony (TV Size)
TitleUnicode:Another colony (TV Size)
Artist:TRUE
ArtistUnicode:TRUE
Creator:lililing
Version:Normal
Source:転生したらスライムだった件
Tags:Ending tensura tensei shitara slime datta ken that time i got reincarnated as a slime pappl e 104 _lai
BeatmapID:1844020
BeatmapSetID:881066

[Difficulty]
HPDrainRate:4
CircleSize:3
OverallDifficulty:3
ApproachRate:5
SliderMultiplier:1.1
SliderTickRate:1

[Events]
//Background and Video events
0,0,"bg.jpg",0,0
Video,0,"mv.mp4"
//Break Periods
//Storyboard Layer 0 (Background)
//Storyboard Layer 1 (Fail)
//Storyboard Layer 2 (Pass)
//Storyboard Layer 3 (Foreground)
//Storyboard Sound Samples

[TimingPoints]
-273,355.029585798817,4,2,8,85,1,0
792,-83.3333333333333,4,2,8,75,0,0
1147,-100,4,2,8,60,0,0
6827,-100,4,2,8,80,0,0
12508,-100,4,2,8,50,0,0
23869,-100,4,2,8,75,0,0
35229,-100,4,2,8,55,0,0
52271,-100,4,2,8,60,0,0
53691,-100,4,2,8,65,0,0
55111,-100,4,2,8,70,0,0
56531,-100,4,2,8,80,0,0
57951,-100,4,2,8,90,0,0
59371,-100,4,2,8,90,0,1
69312,-100,4,2,8,80,0,0
70732,-100,4,2,8,90,0,1
82093,-100,4,2,8,70,0,0
85289,-100,4,2,8,80,0,0
87774,-100,4,2,8,80,0,0
88484,-100,4,2,8,40,0,0

[Colours]
Combo1 : 255,128,128
Combo2 : 89,201,255
Combo3 : 128,255,128
Combo4 : 128,128,192

[HitObjects]
221,218,792,5,12,0:0:0:0:
246,120,1147,2,0,P|294:95|368:102,1,110,6|8,0:0|0:0,0:0:0:0:
316,188,1857,1,2,0:0:0:0:
221,218,2212,2,0,P|174:189|146:133,1,110,8|2,0:0|0:0,0:0:0:0:
246,120,2922,1,8,0:0:0:0:
316,188,3277,1,2,0:0:0:0:
297,285,3632,1,8,0:0:0:0:
210,332,3987,6,0,L|90:330,1,110,6|8,0:0|0:0,0:0:0:0:
14,280,4697,1,2,0:0:0:0:
91,218,5052,2,0,P|143:227|201:220,1,110,8|2,0:0|0:0,0:0:0:0:
241,195,5584,1,8,0:0:0:0:
279,164,5762,2,0,P|339:160|407:182,1,110,2|2,0:0|0:0,0:0:0:0:
438,256,6472,1,2,3:2:0:0:
487,170,6827,6,0,P|455:95|362:75,1,165,6|2,0:0|0:0,0:0:0:0:
330,76,7537,1,8,0:0:0:0:
279,164,7892,2,0,B|254:294,1,110,2|2,0:0|0:0,0:0:0:0:
246,320,8425,1,8,0:0:0:0:
161,268,8780,2,0,B|183:160|183:160|139:67,1,165,2|2,3:0|3:0,0:0:0:0:
104,28,9667,6,0,P|68:72|61:128,1,110,6|0,0:0|0:0,0:0:0:0:
77,170,10200,2,0,P|37:217|35:268,1,110,2|0,0:0|0:0,0:0:0:0:
26,311,10732,2,0,P|87:308|153:337,1,110,2|0,0:0|0:0,0:0:0:0:
167,359,11265,2,0,L|236:345,1,55,8|0,0:0|0:0,0:0:0:0:
268,261,11798,2,0,L|344:269,1,55,12|12,0:0|0:0,0:0:0:0:
406,320,12330,1,0,0:0:0:0:
406,320,12508,6,0,P|420:267|403:211,1,110,6|2,0:0|0:0,0:0:0:0:
315,174,13218,1,2,0:0:0:0:
231,227,13573,1,2,0:0:0:0:
237,327,13928,2,0,P|281:315|325:261,1,110,2|2,0:0|0:0,0:0:0:0:
315,174,14638,1,2,0:0:0:0:
227,127,14993,1,2,0:0:0:0:
143,179,15348,6,0,L|116:298,1,110,2|2,0:0|0:0,0:0:0:0:
50,358,16058,1,2,0:0:0:0:
24,262,16413,2,0,B|50:150,1,110,2|2,0:0|0:0,0:0:0:0:
120,86,17123,1,2,0:0:0:0:
216,107,17478,1,2,0:0:0:0:
288,174,17833,1,2,0:0:0:0:
288,174,18011,1,0,0:0:0:0:
288,174,18188,6,0,P|298:236|282:292,1,110,6|2,0:0|0:0,0:0:0:0:
200,336,18898,1,2,0:0:0:0:
134,261,19253,1,2,0:0:0:0:
63,330,19608,2,0,P|41:280|48:216,1,110,2|2,0:0|0:0,0:0:0:0:
67,181,20141,1,0,0:0:0:0:
104,148,20318,2,0,L|205:72,1,110,2|2,0:0|0:0,0:0:0:0:
268,18,21028,6,0,P|289:76|275:131,1,110,2|2,0:0|0:0,0:0:0:0:
200,182,21738,2,0,P|242:216|295:223,1,110,2|2,0:0|0:0,0:0:0:0:
367,155,22448,1,2,0:0:0:0:
436,85,22803,2,0,P|453:107|464:136,1,55,2|8,0:0|3:0,0:0:0:0:
467,181,23158,2,0,P|453:209|449:250,1,55,2|8,0:0|3:0,0:0:0:0:
468,277,23513,1,2,0:0:0:0:
468,277,23691,1,0,3:0:0:0:
468,277,23869,6,0,B|416:263|353:290,1,110,6|2,0:0|0:0,0:0:0:0:
270,329,24579,2,0,L|201:314,1,55,2|8,0:0|3:0,0:0:0:0:
167,308,24934,1,2,0:0:0:0:
131,215,25289,2,0,P|154:165|210:132,1,110,2|2,0:0|0:0,0:0:0:0:
230,228,25999,1,2,0:0:0:0:
167,308,26354,1,2,0:0:0:0:
68,295,26709,6,0,P|36:253|32:192,1,110,2|2,0:0|0:0,0:0:0:0:
74,108,27419,1,2,0:0:0:0:
159,57,27774,2,0,L|279:58,1,110,2|2,0:0|0:0,0:0:0:0:
364,31,28484,1,2,0:0:0:0:
364,31,28661,2,0,P|362:92|331:136,1,110,8|0,3:0|0:0,0:0:0:0:
301,167,29194,1,2,0:0:0:0:
260,195,29371,6,0,P|232:238|233:299,1,110,12|2,0:0|0:0,0:0:0:0:
262,333,29904,1,2,0:0:0:0:
351,375,30259,1,2,0:0:0:0:
428,313,30614,2,0,P|436:289|436:248,1,55,2|8,0:0|0:0,0:0:0:0:
426,211,30969,2,0,P|427:186|446:142,1,55,2|12,0:0|0:0,0:0:0:0:
468,120,31324,2,0,B|402:121|361:98,1,110,2|2,0:0|0:0,0:0:0:0:
279,44,32034,2,0,P|224:25|164:40,1,110,2|2,0:0|0:0,0:0:0:0:
123,119,32744,5,2,0:0:0:0:
219,141,33099,2,0,P|275:153|312:200,1,110,8|2,0:0|0:0,0:0:0:0:
320,239,33632,1,8,0:0:0:0:
310,287,33809,2,0,L|287:350,2,55,2|8|2,0:0|0:0|0:0,0:0:0:0:
211,283,34519,2,0,L|232:221,2,55,0|0|8,3:0|3:0|3:0,0:0:0:0:
175,375,35229,1,6,0:0:0:0:
103,306,35584,6,0,P|110:255|88:198,1,110,0|8,0:0|0:0,0:0:0:0:
6,146,36295,2,0,P|14:84|49:31,1,110,2|2,0:0|0:0,0:0:0:0:
82,24,36827,1,2,0:0:0:0:
130,34,37005,2,0,P|186:39|247:28,2,110,2|8|0,0:0|0:0|0:0,0:0:0:0:
175,125,38070,6,0,P|232:151|265:197,2,110,6|0|8,0:0|0:0|0:0,0:0:0:0:
78,177,39135,1,2,0:0:0:0:
132,276,39490,2,0,L|86:330,2,55,2|12|2,0:0|0:0|0:0,0:0:0:0:
242,287,40200,2,0,P|299:298|348:333,1,110,8|2,0:0|3:0,0:0:0:0:
427,375,40910,6,0,B|450:331|450:331|460:266,1,110,6|0,0:0|0:0,0:0:0:0:
416,181,41620,2,0,B|425:121|425:121|448:77,1,110,8|2,0:0|0:0,0:0:0:0:
471,33,42152,1,8,0:0:0:0:
421,34,42330,2,0,L|311:36,1,110,2|2,0:0|0:0,0:0:0:0:
212,44,43040,2,0,L|179:103,1,55,0|2,3:0|0:0,0:0:0:0:
194,140,43395,2,0,L|161:199,1,55,0|0,3:0|0:0,0:0:0:0:
165,237,43750,6,0,P|141:288|95:333,1,110,6|2,0:0|0:0,0:0:0:0:
18,375,44460,1,8,0:0:0:0:
24,276,44815,1,2,0:0:0:0:
24,276,44993,1,12,0:0:0:0:
24,276,45170,2,0,P|48:225|94:179,1,110,2|2,0:0|0:0,0:0:0:0:
165,237,45880,2,0,P|189:288|235:333,1,110,2|2,0:0|0:0,0:0:0:0:
322,348,46590,5,6,0:0:0:0:
334,249,46945,2,0,P|310:198|264:153,1,110,8|2,0:0|0:0,0:0:0:0:
176,140,47655,2,0,L|58:111,1,110,2|2,0:0|0:0,0:0:0:0:
89,16,48366,2,0,L|195:42,1,110,8|2,0:0|0:0,0:0:0:0:
291,66,49076,1,2,0:0:0:0:
380,23,49431,5,6,0:0:0:0:
478,24,49786,2,0,P|478:82|457:143,1,110,8|2,0:0|0:0,0:0:0:0:
370,166,50496,2,0,P|354:218|354:273,1,110,8|2,0:0|0:0,0:0:0:0:
359,322,51028,1,8,0:0:0:0:
365,371,51206,2,0,B|319:362|291:377|255:373,1,110,2|2,0:0|0:0,0:0:0:0:
173,318,51916,1,8,3:0:0:0:
83,360,52271,5,6,0:0:0:0:
29,276,52626,2,0,B|25:161,1,110,2|2,0:0|0:0,0:0:0:0:
21,71,53336,1,2,0:0:0:0:
112,109,53691,1,2,0:0:0:0:
174,32,54046,2,0,B|288:50,1,110,2|2,0:0|0:0,0:0:0:0:
380,64,54756,1,2,0:0:0:0:
391,162,55111,5,6,0:0:0:0:
489,177,55466,2,0,P|459:233|417:257,1,110,2|2,0:0|0:0,0:0:0:0:
323,235,56176,1,2,0:0:0:0:
256,192,56531,12,2,57951,0:0:0:0:
148,332,58661,6,0,L|129:269,1,55,12|8,0:0|3:0,0:0:0:0:
98,242,59016,2,0,L|79:179,1,55,8|0,0:0|0:0,0:0:0:0:
54,148,59371,6,0,P|45:88|77:34,1,110,6|8,0:0|0:0,0:0:0:0:
161,17,60082,1,2,0:0:0:0:
254,50,60437,1,8,0:0:0:0:
349,22,60792,1,2,0:0:0:0:
440,72,61147,2,0,P|447:136|414:178,1,110,8|2,0:0|0:0,0:0:0:0:
343,230,61857,1,8,0:0:0:0:
257,180,62212,5,2,0:0:0:0:
195,257,62567,2,0,P|160:202|161:155,1,110,8|2,0:0|0:0,0:0:0:0:
217,78,63277,1,8,0:0:0:0:
118,91,63632,1,2,0:0:0:0:
19,101,63987,2,0,P|28:47|64:6,2,110,8|2|8,0:0|0:0|0:0,0:0:0:0:
66,195,65052,5,6,0:0:0:0:
24,284,65407,2,0,P|30:338|70:385,1,110,8|2,0:0|0:0,0:0:0:0:
144,322,66117,1,8,0:0:0:0:
231,367,66472,1,2,0:0:0:0:
317,319,66827,2,0,P|367:350|436:334,1,110,8|2,0:0|0:0,0:0:0:0:
473,265,67537,1,8,0:0:0:0:
436,172,67892,5,6,0:0:0:0:
507,103,68247,2,0,P|456:73|390:84,1,110,8|2,0:0|3:0,0:0:0:0:
311,100,68957,1,12,0:0:0:0:
232,39,69312,1,6,0:0:0:0:
150,95,69667,1,2,0:0:0:0:
66,41,70022,2,0,L|57:104,1,55,2|0,0:0|3:0,0:0:0:0:
39,141,70377,2,0,L|30:204,1,55,8|8,0:0|3:0,0:0:0:0:
11,241,70732,6,0,P|73:238|133:266,1,110,6|8,0:0|0:0,0:0:0:0:
55,332,71442,2,0,P|106:349|161:345,1,110,2|8,0:0|0:0,0:0:0:0:
245,294,72153,1,2,0:0:0:0:
329,346,72508,2,0,B|352:312|352:312|381:302|381:302|409:261,1,110,8|2,0:0|0:0,0:0:0:0:
475,203,73219,1,8,0:0:0:0:
414,124,73573,5,6,0:0:0:0:
459,36,73928,2,0,P|402:26|351:48,2,110,8|6|8,0:0|0:0|0:0,0:0:0:0:
414,124,74993,1,6,0:0:0:0:
317,145,75348,1,8,0:0:0:0:
232,93,75703,1,2,0:0:0:0:
135,112,76058,6,0,B|148:169|148:169|138:223,1,110,8|6,0:0|0:0,0:0:0:0:
53,269,76768,2,0,B|40:212|40:212|50:158,1,110,8|2,0:0|0:0,0:0:0:0:
65,63,77478,1,8,0:0:0:0:
148,24,77833,2,0,L|224:12,2,55,2|0|8,0:0|0:0|0:0,0:0:0:0:
144,122,78543,1,2,0:0:0:0:
140,220,78898,6,0,P|196:231|248:270,1,110,8|6,0:0|0:0,0:0:0:0:
327,215,79608,2,0,P|308:161|316:96,1,110,8|2,0:0|0:0,0:0:0:0:
227,56,80318,2,0,P|189:98|129:124,1,110,2|2,0:0|0:0,0:0:0:0:
47,147,81028,2,0,B|33:181|33:181|51:225|40:271,1,110,2|2,0:0|0:0,0:0:0:0:
37,351,81738,6,0,B|73:336|73:336|108:356|162:363,1,110,8|6,0:0|0:0,0:0:0:0:
227,313,82448,1,8,0:0:0:0:
312,362,82803,1,8,3:0:0:0:
394,306,83158,1,8,0:0:0:0:
478,357,83513,6,0,P|491:298|464:237,1,110,0|8,0:0|3:0,0:0:0:0:
396,192,84224,1,2,0:0:0:0:
475,131,84579,2,0,P|491:79|478:27,1,110,2|0,0:0|3:0,0:0:0:0:
393,78,85289,6,0,L|328:24,2,55,8|2|8,0:0|0:0|0:0,0:0:0:0:
303,120,85999,2,0,L|224:117,2,55,8|2|12,0:0|0:0|0:0,0:0:0:0:
250,207,86709,2,0,L|196:241,2,55,8|2|8,0:0|0:0|0:0,0:0:0:0:
264,304,87419,2,0,L|233:374,1,55,8|2,0:0|0:0,0:0:0:0:
