osu file format v14

[General]
AudioFilename: audio.mp3
AudioLeadIn: 0
PreviewTime: 57951
Countdown: 0
SampleSet: Soft
StackLeniency: 0.7
Mode: 0
LetterboxInBreaks: 0
WidescreenStoryboard: 1

[Editor]
Bookmarks: 22981,23336,24756,28661,28839,29016,29194,29371,30792,31147,33099,33366,33632,33987,47389
DistanceSpacing: 1.4
BeatDivisor: 4
GridSize: 8
TimelineZoom: 2.3

[Metadata]
Title:Another colony (TV Size)
TitleUnicode:Another colony (TV Size)
Artist:TRUE
ArtistUnicode:TRUE
Creator:lililing
Version:Hard
Source:転生したらスライムだった件
Tags:Ending tensura tensei shitara slime datta ken that time i got reincarnated as a slime pappl e 104 _lai
BeatmapID:1851513
BeatmapSetID:881066

[Difficulty]
HPDrainRate:5.5
CircleSize:3.5
OverallDifficulty:6
ApproachRate:8
SliderMultiplier:1.4
SliderTickRate:1

[Events]
//Background and Video events
0,0,"bg.jpg",0,0
Video,0,"mv.mp4"
//Break Periods
//Storyboard Layer 0 (Background)
//Storyboard Layer 1 (Fail)
//Storyboard Layer 2 (Pass)
//Storyboard Layer 3 (Foreground)
//Storyboard Sound Samples

[TimingPoints]
-273,355.029585798817,4,2,8,85,1,0
792,-100,4,2,8,75,0,0
1147,-100,4,2,8,60,0,0
6827,-100,4,2,8,80,0,0
12508,-100,4,2,8,50,0,0
23869,-100,4,2,8,75,0,0
35229,-100,4,2,8,55,0,0
52271,-100,4,2,8,60,0,0
53691,-100,4,2,8,65,0,0
55111,-100,4,2,8,70,0,0
56531,-100,4,2,8,80,0,0
57951,-100,4,2,8,90,0,0
59371,-100,4,2,8,90,0,1
69312,-100,4,2,8,80,0,0
70732,-100,4,2,8,90,0,1
82093,-100,4,2,8,70,0,0
85289,-100,4,2,8,80,0,0
87774,-100,4,2,8,80,0,0
88484,-100,4,2,8,40,0,0

[Colours]
Combo1 : 255,128,128
Combo2 : 89,201,255
Combo3 : 128,255,128
Combo4 : 128,128,192

[HitObjects]
150,102,792,6,0,L|275:82,1,70,12|0,0:0|0:0,0:0:0:0:
306,45,1147,2,0,P|315:82|313:117,1,70,6|0,0:0|0:0,0:0:0:0:
248,186,1502,2,0,P|278:205|326:212,1,70,8|0,0:0|0:0,0:0:0:0:
409,218,1857,1,2,0:0:0:0:
413,120,2034,2,0,B|416:86|416:86|431:39,2,70,0|8|0,0:0|0:0|0:0,0:0:0:0:
411,218,2567,6,0,P|400:253|377:287,1,70,2|0,0:0|0:0,0:0:0:0:
304,340,2922,2,0,L|216:335,1,70,8|0,0:0|0:0,0:0:0:0:
168,262,3277,2,0,L|84:257,1,70,2|0,0:0|0:0,0:0:0:0:
11,303,3632,1,8,0:0:0:0:
105,131,3987,6,0,B|183:135,1,70,6|0,0:0|0:0,0:0:0:0:
266,98,4342,2,0,B|295:111|295:111|332:111,1,70,8|0,0:0|0:0,0:0:0:0:
418,61,4697,1,2,0:0:0:0:
460,280,5052,6,0,L|478:371,2,70,8|0|2,0:0|3:0|0:0,0:0:0:0:
440,184,5584,1,8,0:0:0:0:
346,212,5762,1,2,0:0:0:0:
130,274,6117,2,0,L|269:344,1,140,2|2,0:0|3:2,0:0:0:0:
40,225,6827,6,0,P|65:195|108:176,1,70,6|0,0:0|3:0,0:0:0:0:
187,121,7182,2,0,P|200:153|199:190,1,70,0|2,0:0|0:0,0:0:0:0:
130,274,7537,1,8,0:0:0:0:
328,169,7892,6,0,B|320:185|320:185|322:257,1,70,2|0,0:0|3:0,0:0:0:0:
420,184,8247,2,0,B|426:172|426:172|426:100,1,70,2|8,0:0|0:0,0:0:0:0:
327,62,8602,1,0,0:0:0:0:
415,319,8957,6,0,L|345:314,1,70,8|2,3:0|3:0,0:0:0:0:
251,343,9312,2,0,L|181:338,1,70,2|0,3:0|0:0,0:0:0:0:
89,302,9667,6,0,L|84:371,2,70,6|2|0,0:0|0:0|0:0,0:0:0:0:
52,210,10200,2,0,L|56:140,2,70,2|8|0,0:0|0:0|0:0,0:0:0:0:
144,178,10732,2,0,B|164:145|164:145|160:98|160:98|215:79,1,140,2|0,0:0|0:0,0:0:0:0:
302,116,11265,2,0,B|298:117|353:98|353:98|349:51|349:51|369:18,1,140,8|8,0:0|3:0,0:0:0:0:
438,88,11798,1,12,0:0:0:0:
494,167,11975,5,12,0:0:0:0:
477,377,12330,1,0,0:0:0:0:
482,278,12508,6,0,P|415:301|380:365,1,140,6|2,0:0|0:0,0:0:0:0:
301,293,13040,1,0,0:0:0:0:
208,327,13218,2,0,P|174:339|135:324,1,70,2|0,0:0|0:0,0:0:0:0:
106,238,13573,1,2,0:0:0:0:
73,146,13750,1,0,0:0:0:0:
43,52,13928,6,0,L|144:56,1,70,2|0,0:0|0:0,0:0:0:0:
203,92,14283,2,0,L|288:98,1,70,2|0,0:0|0:0,0:0:0:0:
352,40,14638,2,0,B|398:51|398:51|440:30|440:30|496:45,1,140,2|2,0:0|0:0,0:0:0:0:
447,132,15170,1,0,0:0:0:0:
403,219,15348,6,0,L|367:291,1,70,2|0,0:0|0:0,0:0:0:0:
320,364,15703,1,2,0:0:0:0:
320,364,15880,2,0,L|281:306,1,70,0|2,0:0|0:0,0:0:0:0:
233,219,16235,2,0,L|302:214,1,70,0|2,0:0|0:0,0:0:0:0:
403,219,16590,6,0,L|368:291,2,70,0|2|0,0:0|0:0|0:0,0:0:0:0:
442,128,17123,2,0,B|455:98|455:98|336:96,1,140,2|2,0:0|0:0,0:0:0:0:
151,99,17833,1,2,0:0:0:0:
241,136,18011,1,0,0:0:0:0:
165,197,18188,6,0,P|96:182|54:120,1,140,6|2,0:0|0:0,0:0:0:0:
151,99,18721,1,0,0:0:0:0:
241,136,18898,2,0,P|257:169|261:204,1,70,2|0,0:0|0:0,0:0:0:0:
210,285,19253,1,2,0:0:0:0:
156,367,19431,1,0,0:0:0:0:
156,367,19608,2,0,P|225:380|285:345,1,140,2|2,0:0|0:0,0:0:0:0:
337,264,20141,2,0,P|353:232|357:197,1,70,0|2,0:0|0:0,0:0:0:0:
165,197,20673,1,2,0:0:0:0:
84,253,20851,1,0,0:0:0:0:
17,182,21028,6,0,B|45:142|31:81|65:34,1,140,2|2,0:0|0:0,0:0:0:0:
151,25,21561,2,0,L|231:44,1,70,0|2,0:0|0:0,0:0:0:0:
291,107,21916,1,0,0:0:0:0:
385,82,22093,2,0,L|404:2,1,70,2|0,0:0|0:0,0:0:0:0:
498,28,22448,1,2,0:0:0:0:
366,173,22803,1,2,0:0:0:0:
460,147,22981,2,0,L|441:227,1,70,8|2,3:0|0:0,0:0:0:0:
473,308,23336,2,0,L|454:388,1,70,8|2,3:0|0:0,0:0:0:0:
266,328,23869,6,0,B|206:314|206:314|181:326|181:326|120:312,1,140,6|2,0:0|0:0,0:0:0:0:
35,332,24401,2,0,L|57:257,1,70,0|2,0:0|0:0,0:0:0:0:
36,168,24756,2,0,L|58:93,1,70,8|2,3:0|0:0,0:0:0:0:
28,6,25111,1,0,0:0:0:0:
28,6,25289,2,0,B|80:7|80:7|120:35|120:35|170:35,1,140,2|2,0:0|0:0,0:0:0:0:
256,37,25821,1,0,0:0:0:0:
352,35,25999,2,0,B|392:35|392:35|432:7|432:7|484:6,1,140,2|2,0:0|0:0,0:0:0:0:
466,102,26531,2,0,L|446:194,1,70,0|2,0:0|0:0,0:0:0:0:
469,366,27064,6,0,L|489:274,1,70,2|0,0:0|0:0,0:0:0:0:
403,240,27419,1,2,0:0:0:0:
307,259,27596,2,0,L|227:236,2,70,0|2|0,0:0|0:0|0:0,0:0:0:0:
299,356,28129,2,0,B|247:359|208:333|208:333|164:339,1,140,2|2,0:0|0:0,0:0:0:0:
67,355,28661,2,0,P|36:288|53:196,1,140,8|0,3:0|0:0,0:0:0:0:
76,121,29194,1,2,0:0:0:0:
116,20,29371,6,0,L|189:29,1,70,12|2,0:0|0:0,0:0:0:0:
254,99,29727,1,0,0:0:0:0:
335,45,29904,2,0,P|350:111|318:172,1,140,2|2,0:0|0:0,0:0:0:0:
127,217,30614,1,2,0:0:0:0:
223,196,30792,1,8,0:0:0:0:
318,172,30969,6,0,L|394:146,2,70,2|12|2,0:0|0:0|0:0,0:0:0:0:
457,34,31679,2,0,L|479:100,1,70,2|0,0:0|0:0,0:0:0:0:
457,195,32034,2,0,L|479:261,1,70,2|0,0:0|0:0,0:0:0:0:
502,356,32389,2,0,B|447:340|447:340|403:359|344:341,1,140,2|2,0:0|0:0,0:0:0:0:
267,353,32922,1,0,0:0:0:0:
193,287,33099,2,0,L|115:262,1,70,8|0,0:0|0:0,0:0:0:0:
51,328,33454,6,0,L|125:351,2,70,2|8|2,0:0|0:0|0:0,0:0:0:0:
37,230,33987,1,8,0:0:0:0:
30,132,34164,2,0,L|55:51,1,70,2|0,0:0|3:0,0:0:0:0:
146,41,34519,1,0,3:0:0:0:
217,108,34697,1,0,3:0:0:0:
311,81,34874,2,0,L|336:0,1,70,8|0,3:0|0:0,0:0:0:0:
429,21,35229,6,0,L|449:87,1,70,6|8,0:0|0:0,0:0:0:0:
376,153,35584,2,0,B|408:201|360:249|392:297,1,140,0|8,0:0|0:0,0:0:0:0:
193,287,36295,2,0,L|271:262,1,70,2|8,0:0|0:0,0:0:0:0:
232,171,36650,1,2,0:0:0:0:
288,358,37005,2,0,L|221:379,1,70,2|0,0:0|0:0,0:0:0:0:
124,363,37360,2,0,B|119:326|119:326|99:297,1,70,8|0,0:0|0:0,0:0:0:0:
54,212,37715,2,0,B|35:185|35:185|30:148,1,70,0|0,0:0|0:0,0:0:0:0:
33,49,38070,6,0,B|75:29|105:54|134:76|189:40,1,140,6|0,0:0|0:0,0:0:0:0:
264,29,38602,2,0,L|331:11,2,70,2|8|0,0:0|0:0|0:0,0:0:0:0:
235,123,39135,1,2,0:0:0:0:
200,214,39312,2,0,L|132:231,2,70,8|2|12,0:0|0:0|0:0,0:0:0:0:
280,270,39845,2,0,L|375:248,1,70,2|0,0:0|0:0,0:0:0:0:
420,187,40200,1,8,0:0:0:0:
351,117,40377,1,0,0:0:0:0:
416,44,40555,2,0,L|511:22,1,70,2|0,3:0|3:0,0:0:0:0:
493,126,40910,6,0,P|515:198|479:262,1,140,6|0,0:0|0:0,0:0:0:0:
484,355,41442,2,0,L|416:340,1,70,2|8,0:0|0:0,0:0:0:0:
219,332,41975,2,0,L|151:349,1,70,2|8,0:0|0:0,0:0:0:0:
54,366,42330,1,2,0:0:0:0:
78,270,42508,2,0,L|72:183,1,70,8|2,3:0|0:0,0:0:0:0:
40,107,42863,2,0,L|34:20,2,70,0|0|2,0:0|3:0|0:0,0:0:0:0:
135,129,43395,1,0,3:0:0:0:
204,59,43573,1,0,0:0:0:0:
296,89,43750,6,0,L|300:158,1,70,6|0,0:0|0:0,0:0:0:0:
394,129,44105,2,0,L|406:53,1,70,2|0,0:0|0:0,0:0:0:0:
474,0,44460,1,8,0:0:0:0:
448,194,44815,2,0,L|439:264,1,70,2|12,0:0|0:0,0:0:0:0:
420,359,45170,2,0,B|371:344|371:344|321:348|321:348|263:333,1,140,2|2,0:0|0:0,0:0:0:0:
88,358,45880,2,0,L|96:281,1,70,2|0,0:0|3:0,0:0:0:0:
65,194,46235,2,0,L|53:106,1,70,2|0,0:0|0:0,0:0:0:0:
87,31,46590,5,6,0:0:0:0:
282,28,46945,2,0,L|286:98,1,70,8|0,0:0|0:0,0:0:0:0:
211,162,47300,1,2,0:0:0:0:
391,84,47655,2,0,L|387:13,1,70,2|0,0:0|0:0,0:0:0:0:
481,43,48011,2,0,B|464:98|480:144|480:144|464:185,1,140,2|8,0:0|0:0,0:0:0:0:
276,227,48721,2,0,L|393:213,1,70,2|0,0:0|0:0,0:0:0:0:
394,303,49076,2,0,L|325:311,1,70,2|0,0:0|0:0,0:0:0:0:
226,311,49431,5,6,0:0:0:0:
33,348,49786,2,0,L|46:231,1,70,8|0,0:0|0:0,0:0:0:0:
136,257,50141,2,0,B|109:219|109:219|110:167|110:167|77:129,1,140,2|8,0:0|0:0,0:0:0:0:
245,26,50851,6,0,L|314:102,1,70,2|8,0:0|0:0,0:0:0:0:
390,77,51206,1,2,0:0:0:0:
419,168,51383,1,8,3:0:0:0:
341,225,51561,1,2,0:0:0:0:
264,169,51738,1,2,0:0:0:0:
292,77,51916,2,0,P|218:84|174:138,1,140,8|6,3:0|0:0,0:0:0:0:
107,314,52626,6,0,L|5:255,1,70,2|0,0:0|3:0,0:0:0:0:
130,228,52981,2,0,L|229:171,1,70,2|0,0:0|3:0,0:0:0:0:
191,290,53336,2,0,L|191:407,1,70,2|0,0:0|3:0,0:0:0:0:
107,314,53691,5,2,0:0:0:0:
103,103,54046,2,0,P|80:75|43:66,1,70,2|0,0:0|3:0,0:0:0:0:
149,36,54401,2,0,P|184:30|211:2,1,70,2|0,0:0|3:0,0:0:0:0:
185,109,54756,2,0,P|172:142|182:179,1,70,2|0,0:0|3:0,0:0:0:0:
103,103,55111,5,6,0:0:0:0:
287,35,55466,2,0,L|304:106,1,70,2|0,0:0|3:0,0:0:0:0:
401,104,55821,2,0,L|380:175,1,70,2|0,0:0|3:0,0:0:0:0:
470,212,56176,2,0,L|416:263,1,70,2|0,0:0|3:0,0:0:0:0:
312,272,56531,5,2,0:0:0:0:
159,157,56886,1,2,0:0:0:0:
351,161,57241,1,2,0:0:0:0:
194,270,57596,1,2,0:0:0:0:
256,92,57951,5,12,0:0:0:0:
258,193,58129,1,12,0:0:0:0:
69,247,58484,1,0,0:0:0:0:
69,247,58661,2,0,P|35:246|-1:231,1,70,12|8,0:0|3:0,0:0:0:0:
1,134,59016,2,0,P|33:121|68:119,1,70,8|0,0:0|0:0,0:0:0:0:
141,54,59371,6,0,L|214:46,1,70,6|0,0:0|0:0,0:0:0:0:
297,94,59727,2,0,L|371:87,1,70,8|0,0:0|0:0,0:0:0:0:
460,45,60082,2,0,B|456:71|456:71|464:93|464:93|463:126,1,70,2|0,0:0|0:0,0:0:0:0:
455,211,60437,2,0,B|426:219|418:267|418:267|409:316|372:332,1,140,8|2,0:0|0:0,0:0:0:0:
203,249,61147,6,0,L|264:283,1,70,8|0,0:0|0:0,0:0:0:0:
184,340,61502,2,0,L|123:375,1,70,2|0,0:0|0:0,0:0:0:0:
113,278,61857,2,0,L|113:128,1,140,8|2,0:0|0:0,0:0:0:0:
293,5,62567,2,0,P|270:33|253:73,1,70,8|0,0:0|0:0,0:0:0:0:
336,140,62922,2,0,P|321:174|300:204,1,70,2|0,0:0|0:0,0:0:0:0:
234,289,63277,2,0,P|304:309|366:289,2,140,8|2|8,0:0|0:0|0:0,0:0:0:0:
139,228,64164,5,0,0:0:0:0:
28,245,64342,1,2,0:0:0:0:
100,330,64519,1,0,0:0:0:0:
139,228,64697,1,8,0:0:0:0:
32,264,64874,1,0,0:0:0:0:
118,335,65052,2,0,P|153:337|199:317,1,70,6|0,0:0|0:0,0:0:0:0:
255,237,65407,6,0,P|260:202|281:159,1,70,8|0,0:0|0:0,0:0:0:0:
366,233,65762,2,0,B|442:276,1,70,2|0,0:0|0:0,0:0:0:0:
481,169,66117,2,0,B|438:159|438:159|353:112,1,140,8|2,0:0|0:0,0:0:0:0:
373,363,66827,6,0,L|298:321,1,70,8|0,0:0|0:0,0:0:0:0:
274,222,67182,2,0,L|199:180,1,70,2|0,0:0|0:0,0:0:0:0:
106,224,67537,2,0,B|41:187|41:187|21:120,1,140,8|6,0:0|0:0,0:0:0:0:
228,66,68247,6,0,L|316:34,1,70,8|8,0:0|3:0,0:0:0:0:
381,5,68602,2,0,L|452:65,1,70,2|0,3:0|0:0,0:0:0:0:
508,114,68957,2,0,L|491:206,1,70,12|0,0:0|0:0,0:0:0:0:
476,279,69312,5,6,0:0:0:0:
318,162,69667,5,2,0:0:0:0:
339,272,69845,1,0,3:0:0:0:
234,233,70022,1,2,0:0:0:0:
333,180,70200,1,0,3:0:0:0:
325,292,70377,2,0,P|301:319|266:338,1,70,8|8,0:0|3:0,0:0:0:0:
161,314,70732,6,0,P|137:285|126:249,1,70,6|0,0:0|0:0,0:0:0:0:
171,151,71087,2,0,L|249:135,1,70,8|0,0:0|0:0,0:0:0:0:
128,76,71442,2,0,B|59:59,1,70,2|0,0:0|0:0,0:0:0:0:
173,5,71797,2,0,B|243:21|243:21|316:15,1,140,8|2,0:0|0:0,0:0:0:0:
503,20,72508,6,0,L|476:105,1,70,8|0,0:0|0:0,0:0:0:0:
408,152,72863,2,0,L|381:237,1,70,2|0,0:0|0:0,0:0:0:0:
424,309,73218,2,0,B|385:361|337:328|284:377,1,140,8|6,0:0|0:0,0:0:0:0:
103,356,73928,6,0,L|56:283,1,70,8|0,0:0|3:0,0:0:0:0:
10,215,74283,2,0,B|6:181|6:181|23:127,1,70,6|0,0:0|0:0,0:0:0:0:
42,51,74638,2,0,P|77:66|112:68,1,70,8|0,0:0|3:0,0:0:0:0:
206,57,74993,2,0,P|264:19|367:15,2,140,6|8|2,0:0|0:0|0:0,0:0:0:0:
180,251,76058,1,8,0:0:0:0:
143,160,76235,1,0,0:0:0:0:
241,167,76413,6,0,P|272:149|320:150,1,70,6|0,0:0|0:0,0:0:0:0:
403,145,76768,1,8,0:0:0:0:
482,199,76945,1,0,0:0:0:0:
482,199,77123,2,0,B|477:276,1,70,2|0,0:0|0:0,0:0:0:0:
466,366,77478,1,8,0:0:0:0:
380,318,77655,6,0,P|338:318|299:338,1,70,0|2,0:0|0:0,0:0:0:0:
217,364,78011,1,0,0:0:0:0:
123,335,78188,2,0,P|65:306|53:222,1,140,8|2,0:0|0:0,0:0:0:0:
70,42,78898,1,8,0:0:0:0:
139,111,79076,1,0,3:0:0:0:
211,45,79253,6,0,P|247:35|288:35,1,70,6|0,0:0|0:0,0:0:0:0:
377,34,79608,1,8,0:0:0:0:
435,112,79786,1,0,0:0:0:0:
493,190,79963,2,0,L|472:264,1,70,2|0,0:0|0:0,0:0:0:0:
445,351,80318,1,2,0:0:0:0:
353,313,80496,1,12,0:0:0:0:
269,359,80673,6,0,P|233:346|197:348,1,70,2|0,0:0|0:0,0:0:0:0:
104,362,81028,1,2,0:0:0:0:
104,362,81206,1,8,3:0:0:0:
67,271,81383,2,0,L|82:186,1,70,2|8,0:0|3:0,0:0:0:0:
95,105,81738,1,8,0:0:0:0:
95,105,81916,1,0,3:0:0:0:
95,105,82093,6,0,P|157:131|235:109,1,140,6|8,0:0|0:0,0:0:0:0:
405,36,82803,2,0,L|406:105,1,70,8|8,3:0|0:0,0:0:0:0:
429,201,83158,1,8,0:0:0:0:
456,295,83336,2,0,L|389:317,1,70,6|0,0:0|0:0,0:0:0:0:
199,382,83869,6,0,B|169:326|169:326|169:300|169:300|146:252,1,140,8|2,3:0|0:0,0:0:0:0:
93,64,84579,2,0,L|25:46,2,70,2|0|0,0:0|3:0|3:0,0:0:0:0:
188,83,85111,1,2,0:0:0:0:
285,99,85289,2,0,L|367:73,2,70,8|2|8,0:0|0:0|0:0,0:0:0:0:
351,170,85821,1,2,0:0:0:0:
351,170,85999,2,0,L|414:228,1,70,8|2,0:0|0:0,0:0:0:0:
322,263,86354,6,0,L|303:347,1,70,12|2,0:0|0:0,0:0:0:0:
227,285,86709,2,0,L|145:311,1,70,8|2,0:0|0:0,0:0:0:0:
160,213,87064,2,0,L|97:155,1,70,8|2,0:0|0:0,0:0:0:0:
189,120,87419,2,0,L|208:36,1,70,8|2,0:0|0:0,0:0:0:0:
256,192,87774,12,0,88484,0:0:0:0:
