osu file format v14

[General]
AudioFilename: audio.mp3
AudioLeadIn: 0
PreviewTime: 57951
Countdown: 0
SampleSet: Soft
StackLeniency: 0.7
Mode: 0
LetterboxInBreaks: 0
WidescreenStoryboard: 1

[Editor]
Bookmarks: 22981,23336,24756,28661,28839,29016,29194,29371,30792,31147,33099,33366,33632,33987,47389
DistanceSpacing: 1
BeatDivisor: 2
GridSize: 8
TimelineZoom: 1.1

[Metadata]
Title:Another colony (TV Size)
TitleUnicode:Another colony (TV Size)
Artist:TRUE
ArtistUnicode:TRUE
Creator:lililing
Version:Easy
Source:転生したらスライムだった件
Tags:Ending tensura tensei shitara slime datta ken that time i got reincarnated as a slime pappl e 104 _lai
BeatmapID:1851512
BeatmapSetID:881066

[Difficulty]
HPDrainRate:2
CircleSize:3
OverallDifficulty:2
ApproachRate:3
SliderMultiplier:0.9
SliderTickRate:1

[Events]
//Background and Video events
0,0,"bg.jpg",0,0
Video,0,"mv.mp4"
//Break Periods
//Storyboard Layer 0 (Background)
//Storyboard Layer 1 (Fail)
//Storyboard Layer 2 (Pass)
//Storyboard Layer 3 (Foreground)
//Storyboard Sound Samples

[TimingPoints]
-273,355.029585798817,4,2,8,85,1,0
792,-100,4,2,8,75,0,0
1147,-100,4,2,8,60,0,0
6827,-100,4,2,8,80,0,0
12508,-100,4,2,8,50,0,0
23869,-100,4,2,8,75,0,0
35229,-100,4,2,8,55,0,0
52271,-100,4,2,8,60,0,0
53691,-100,4,2,8,65,0,0
55111,-100,4,2,8,70,0,0
56531,-100,4,2,8,80,0,0
57951,-100,4,2,8,90,0,0
59371,-100,4,2,8,90,0,1
69312,-100,4,2,8,80,0,0
70732,-100,4,2,8,90,0,1
82093,-100,4,2,8,70,0,0
85289,-100,4,2,8,80,0,0
87774,-100,4,2,8,80,0,0
88484,-100,4,2,8,40,0,0

[Colours]
Combo1 : 255,128,128
Combo2 : 89,201,255
Combo3 : 128,255,128
Combo4 : 128,128,192

[HitObjects]
55,259,792,5,12,0:0:0:0:
137,223,1147,2,0,P|187:205|234:212,1,90,6|8,0:0|0:0,0:0:0:0:
310,230,1857,1,2,0:0:0:0:
397,252,2212,2,0,P|441:254|482:237,2,90,8|2|8,0:0|0:0|0:0,0:0:0:0:
376,164,3277,1,2,0:0:0:0:
289,138,3632,1,8,0:0:0:0:
269,50,3987,6,0,P|224:47|183:64,1,90,6|8,0:0|0:0,0:0:0:0:
108,114,4697,1,2,0:0:0:0:
156,189,5052,2,0,L|250:133,2,90,8|2|2,0:0|0:0|0:0,0:0:0:0:
75,229,6117,1,2,0:0:0:0:
230,319,6827,6,0,P|312:354|405:335,1,180,6|8,0:0|0:0,0:0:0:0:
362,182,8247,2,0,P|346:141|364:90,1,90,2|0,0:0|0:0,0:0:0:0:
438,100,8957,2,0,P|454:141|436:192,1,90,8|2,3:0|3:0,0:0:0:0:
401,254,9667,2,0,P|338:285|324:348,2,135,6|2|2,0:0|0:0|0:0,0:0:0:0:
401,254,12508,5,6,0:0:0:0:
419,342,12863,2,0,P|379:366|322:359,1,90,2|2,0:0|0:0,0:0:0:0:
246,360,13573,1,2,0:0:0:0:
158,352,13928,2,0,B|152:293|152:293|116:242|116:242|109:174,1,180,2|2,0:0|0:0,0:0:0:0:
106,94,14993,1,2,0:0:0:0:
185,134,15348,6,0,P|214:166|272:185,2,90,2|2|2,0:0|0:0|0:0,0:0:0:0:
261,87,16413,2,0,P|232:55|174:36,2,90,2|2|2,0:0|0:0|0:0,0:0:0:0:
350,79,17478,1,2,0:0:0:0:
410,145,17833,1,2,0:0:0:0:
499,135,18188,6,0,P|492:179|453:223,1,90,6|2,0:0|0:0,0:0:0:0:
376,232,18898,1,2,0:0:0:0:
318,301,19253,1,2,0:0:0:0:
231,285,19608,2,0,P|187:270|139:285,1,90,2|2,0:0|0:0,0:0:0:0:
69,328,20318,2,0,B|58:284|58:284|58:228,1,90,2|2,0:0|0:0,0:0:0:0:
61,149,21028,6,0,P|68:102|87:60,2,90,2|2|2,0:0|0:0|0:0,0:0:0:0:
150,160,22093,2,0,P|188:85|279:105,1,180,2|2,0:0|0:0,0:0:0:0:
302,259,23869,5,6,0:0:0:0:
391,248,24224,2,0,P|376:312|321:347,2,135,2|8|2,0:0|3:0|0:0,0:0:0:0:
336,176,25644,1,2,0:0:0:0:
409,124,25999,2,0,P|367:96|296:97,1,90,2|2,0:0|0:0,0:0:0:0:
336,176,26709,5,2,0:0:0:0:
418,210,27064,1,2,0:0:0:0:
491,158,27419,2,0,P|498:116|475:66,2,90,2|2|2,0:0|0:0|0:0,0:0:0:0:
409,124,28484,2,0,P|331:86|256:137,1,180,2|2,0:0|0:0,0:0:0:0:
230,217,29549,5,6,0:0:0:0:
308,261,29904,2,0,L|343:150,2,90,2|2|2,0:0|0:0|0:0,0:0:0:0:
283,347,30969,1,2,0:0:0:0:
201,309,31324,1,2,0:0:0:0:
115,337,31679,2,0,P|75:347|22:334,1,90,2|2,0:0|0:0,0:0:0:0:
72,259,32389,2,0,P|26:186|62:106,1,180,2|8,0:0|0:0,0:0:0:0:
203,177,35229,6,0,L|93:179,1,90,6|0,0:0|0:0,0:0:0:0:
61,106,35940,1,8,0:0:0:0:
112,32,36295,2,0,P|160:42|213:31,1,90,2|2,0:0|0:0,0:0:0:0:
288,17,37005,1,2,0:0:0:0:
371,51,37360,2,0,L|362:162,1,90,8|0,0:0|0:0,0:0:0:0:
445,177,38070,6,0,B|449:129|449:129|479:71,2,90,6|0|8,0:0|0:0|0:0,0:0:0:0:
470,263,39135,2,0,L|373:289,1,90,2|2,0:0|0:0,0:0:0:0:
294,268,39845,1,2,0:0:0:0:
205,251,40200,2,0,L|115:274,1,90,2|2,0:0|0:0,0:0:0:0:
30,293,40910,5,6,0:0:0:0:
52,205,41265,1,0,0:0:0:0:
73,117,41620,2,0,B|91:28,2,90,8|2|2,0:0|0:0|0:0,0:0:0:0:
249,79,43040,2,0,P|295:69|354:82,1,90,0|0,3:0|3:0,0:0:0:0:
425,91,43750,5,6,0:0:0:0:
371,162,44105,2,0,B|347:208|372:275,1,90,2|8,0:0|0:0,0:0:0:0:
419,320,44815,1,2,0:0:0:0:
331,332,45170,2,0,P|281:323|219:334,1,90,2|2,0:0|0:0,0:0:0:0:
155,351,45880,2,0,L|96:281,1,90,2|2,0:0|0:0,0:0:0:0:
89,192,46590,6,0,L|30:122,2,90,6|8|2,0:0|0:0|0:0,0:0:0:0:
173,223,47655,2,0,P|223:232|285:221,1,90,2|2,0:0|0:0,0:0:0:0:
267,138,48366,2,0,P|223:129|178:132,2,90,8|2|2,0:0|0:0|0:0,0:0:0:0:
344,184,49431,5,6,0:0:0:0:
417,131,49786,2,0,B|461:165|461:165|453:226,1,90,8|2,0:0|0:0,0:0:0:0:
445,288,50496,2,0,P|468:322|471:370,2,90,8|2|2,0:0|0:0|0:0,0:0:0:0:
356,281,51561,2,0,P|311:288|265:315,1,90,2|8,0:0|3:0,0:0:0:0:
199,361,52271,5,6,0:0:0:0:
111,338,52626,2,0,P|69:355|-1:340,2,90,2|2|2,0:0|0:0|0:0,0:0:0:0:
172,272,53691,1,2,0:0:0:0:
191,184,54046,2,0,P|204:136|233:91,2,90,2|2|2,0:0|0:0|0:0,0:0:0:0:
256,192,55111,12,6,57951,0:0:0:0:
60,95,59371,6,0,P|103:102|166:92,1,90,6|8,0:0|0:0,0:0:0:0:
234,69,60082,1,2,0:0:0:0:
319,40,60437,2,0,P|363:35|407:42,1,90,8|2,0:0|0:0,0:0:0:0:
460,114,61147,2,0,P|489:79|496:32,2,90,8|2|8,0:0|0:0|0:0,0:0:0:0:
375,144,62212,5,2,0:0:0:0:
286,161,62567,2,0,P|259:197|252:241,2,90,8|2|8,0:0|0:0|0:0,0:0:0:0:
341,231,63632,1,2,0:0:0:0:
306,313,63987,1,8,0:0:0:0:
217,326,64342,2,0,P|181:304|158:255,1,90,2|8,0:0|0:0,0:0:0:0:
251,240,65052,5,6,0:0:0:0:
341,231,65407,2,0,B|388:225|388:225|433:190,2,90,8|2|8,0:0|0:0|0:0,0:0:0:0:
251,240,66472,1,2,0:0:0:0:
197,167,66827,2,0,P|155:159|106:176,2,90,8|2|8,0:0|0:0|0:0,0:0:0:0:
159,248,67892,5,6,0:0:0:0:
69,256,68247,2,0,P|36:225|18:170,1,90,8|2,0:0|3:0,0:0:0:0:
51,100,68957,2,0,P|136:69|242:88,1,180,12|2,0:0|0:0,0:0:0:0:
293,135,70022,1,2,0:0:0:0:
361,76,70377,1,8,0:0:0:0:
431,132,70732,6,0,B|436:169|436:169|429:234,1,90,6|8,0:0|0:0,0:0:0:0:
424,312,71443,1,2,0:0:0:0:
345,267,71798,2,0,L|245:268,1,90,8|2,0:0|0:0,0:0:0:0:
175,309,72508,2,0,P|130:315|82:308,2,90,8|2|8,0:0|0:0|0:0,0:0:0:0:
139,226,73573,5,6,0:0:0:0:
189,151,73928,2,0,P|235:160|282:154,2,90,8|6|8,0:0|0:0|0:0,0:0:0:0:
155,67,74993,1,6,0:0:0:0:
233,22,75348,1,8,0:0:0:0:
306,74,75703,1,2,0:0:0:0:
383,28,76058,6,0,P|390:75|412:114,1,90,8|6,0:0|0:0,0:0:0:0:
475,173,76768,2,0,P|496:212|502:256,1,90,8|2,0:0|0:0,0:0:0:0:
418,290,77478,2,0,P|396:250|390:206,2,90,8|2|8,0:0|0:0|0:0,0:0:0:0:
483,351,78543,1,2,0:0:0:0:
397,378,78898,6,0,P|348:368|307:370,1,90,8|6,0:0|0:0,0:0:0:0:
218,365,79608,2,0,P|173:366|129:356,1,90,8|2,0:0|0:0,0:0:0:0:
42,331,80318,2,0,L|55:152,1,180,2|2,0:0|0:0,0:0:0:0:
44,65,81383,1,2,0:0:0:0:
133,37,81738,6,0,P|179:54|234:43,1,90,8|6,0:0|0:0,0:0:0:0:
309,26,82448,1,8,0:0:0:0:
366,95,82803,1,8,3:0:0:0:
311,166,83158,1,8,0:0:0:0:
224,139,83513,2,0,P|224:184|245:227,1,90,0|8,0:0|3:0,0:0:0:0:
327,254,84224,2,0,P|367:235|394:194,1,90,2|2,0:0|0:0,0:0:0:0:
256,192,84934,12,0,88484,3:0:0:0:
