osu file format v14

[General]
AudioFilename: audio.mp3
AudioLeadIn: 0
PreviewTime: 57951
Countdown: 0
SampleSet: Soft
StackLeniency: 0.7
Mode: 0
LetterboxInBreaks: 0
WidescreenStoryboard: 1

[Editor]
Bookmarks: 22981,23336,24756,28661,28839,29016,29194,29371,30792,31147,33099,33366,33632,33987,47389
DistanceSpacing: 1
BeatDivisor: 2
GridSize: 8
TimelineZoom: 0.6999996

[Metadata]
Title:Another colony (TV Size)
TitleUnicode:Another colony (TV Size)
Artist:TRUE
ArtistUnicode:TRUE
Creator:lililing
Version:Beginner
Source:転生したらスライムだった件
Tags:Ending tensura tensei shitara slime datta ken that time i got reincarnated as a slime pappl e 104 _lai
BeatmapID:1864108
BeatmapSetID:881066

[Difficulty]
HPDrainRate:1
CircleSize:2
OverallDifficulty:1
ApproachRate:2
SliderMultiplier:0.7
SliderTickRate:1

[Events]
//Background and Video events
0,0,"bg.jpg",0,0
Video,0,"mv.mp4"
//Break Periods
//Storyboard Layer 0 (Background)
//Storyboard Layer 1 (Fail)
//Storyboard Layer 2 (Pass)
//Storyboard Layer 3 (Foreground)
//Storyboard Sound Samples

[TimingPoints]
-273,355.029585798817,4,2,8,85,1,0
792,-100,4,2,8,75,0,0
1147,-100,4,2,8,60,0,0
6827,-100,4,2,8,80,0,0
12508,-100,4,2,8,50,0,0
23869,-100,4,2,8,75,0,0
35229,-100,4,2,8,55,0,0
52271,-100,4,2,8,60,0,0
53691,-100,4,2,8,65,0,0
55111,-100,4,2,8,70,0,0
56531,-100,4,2,8,80,0,0
57951,-100,4,2,8,90,0,0
59371,-100,4,2,8,90,0,1
69312,-100,4,2,8,80,0,0
70732,-100,4,2,8,90,0,1
82093,-100,4,2,8,70,0,0
85289,-100,4,2,8,80,0,0
87774,-100,4,2,8,80,0,0
88484,-100,4,2,8,40,0,0

[Colours]
Combo1 : 255,128,128
Combo2 : 89,201,255
Combo3 : 128,255,128
Combo4 : 128,128,192

[HitObjects]
110,89,792,5,12,0:0:0:0:
177,72,1147,2,0,B|241:62|241:62|304:107|382:102,1,210,6|8,0:0|0:0,0:0:0:0:
447,107,2567,2,0,P|492:196|412:246,1,210,2|8,0:0|0:0,0:0:0:0:
347,244,3987,2,0,B|278:258|278:258|214:231|214:231|141:246,1,210,6|8,0:0|0:0,0:0:0:0:
76,256,5407,2,0,L|67:345,2,70,2|2|2,0:0|0:0|0:0,0:0:0:0:
70,109,6827,6,0,B|113:102|113:102|163:111|163:111|219:102,1,140,6|8,0:0|0:0,0:0:0:0:
269,91,7892,2,0,B|315:118|366:77|366:77|356:142|404:169,1,210,2|8,0:0|3:0,0:0:0:0:
453,205,9312,1,2,3:0:0:0:
499,247,9667,2,0,P|461:307|449:369,2,105,6|2|2,0:0|0:0|0:0,0:0:0:0:
237,301,12508,6,0,L|74:274,1,140,6|2,0:0|0:0,0:0:0:0:
34,154,13928,2,0,L|172:176,1,140,2|2,0:0|0:0,0:0:0:0:
312,181,15348,2,0,P|302:113|238:54,1,140,2|2,0:0|0:0,0:0:0:0:
187,43,16413,1,2,0:0:0:0:
154,105,16768,2,0,P|164:173|227:232,1,140,2|2,0:0|0:0,0:0:0:0:
350,214,18188,6,0,L|506:219,1,140,6|2,0:0|0:0,0:0:0:0:
461,355,19608,2,0,L|321:350,1,140,2|2,0:0|0:0,0:0:0:0:
182,333,21028,2,0,P|205:268|265:226,2,140,2|2|2,0:0|0:0|0:0,0:0:0:0:
111,61,23869,6,0,P|144:116|218:141,1,140,6|2,0:0|0:0,0:0:0:0:
352,137,25289,2,0,L|493:152,1,140,2|2,0:0|0:0,0:0:0:0:
480,291,26709,2,0,L|340:276,1,140,2|2,0:0|0:0,0:0:0:0:
203,250,28129,2,0,P|147:262|99:300,1,105,2|8,0:0|3:0,0:0:0:0:
4,383,29371,2,0,L|27:191,1,175,12|2,0:0|0:0,0:0:0:0:
65,76,30969,6,0,L|217:48,1,140,2|2,0:0|0:0,0:0:0:0:
269,72,32034,1,2,0:0:0:0:
334,97,32389,2,0,L|475:72,1,140,2|8,0:0|0:0,0:0:0:0:
468,292,35229,6,0,L|329:277,1,140,6|8,0:0|0:0,0:0:0:0:
265,280,36295,1,2,0:0:0:0:
202,287,36650,2,0,P|132:286|48:251,1,140,2|8,0:0|0:0,0:0:0:0:
19,144,38070,2,0,B|76:142|120:95|120:95|170:111,1,140,6|8,0:0|0:0,0:0:0:0:
203,120,39135,1,2,0:0:0:0:
263,138,39490,2,0,L|410:178,1,140,2|8,0:0|0:0,0:0:0:0:
434,304,40910,5,6,0:0:0:0:
299,264,41620,2,0,L|159:248,1,140,8|2,0:0|0:0,0:0:0:0:
113,116,43040,2,0,L|255:131,1,140,0|6,3:0|0:0,0:0:0:0:
360,50,44460,2,0,P|383:114|375:187,1,140,8|2,0:0|0:0,0:0:0:0:
237,198,45880,6,0,P|229:266|253:332,1,140,2|6,0:0|0:0,0:0:0:0:
323,332,46945,1,8,0:0:0:0:
388,307,47300,2,0,P|395:238|371:172,1,140,2|2,0:0|0:0,0:0:0:0:
324,119,48366,2,0,L|175:131,1,140,8|2,0:0|0:0,0:0:0:0:
115,139,49431,6,0,P|166:189|187:268,1,140,6|2,0:0|0:0,0:0:0:0:
148,311,50496,1,8,0:0:0:0:
79,326,50851,2,0,P|28:276|7:197,1,140,2|2,0:0|0:0,0:0:0:0:
256,192,52271,12,6,56531,0:0:0:0:
68,122,59371,6,0,B|135:141|135:141|202:121|202:121|271:143,1,210,6|8,0:0|0:0,0:0:0:0:
402,186,61147,2,0,P|428:247|366:315,1,140,8|8,0:0|0:0,0:0:0:0:
263,370,62567,2,0,P|237:309|299:241,1,140,8|8,0:0|0:0,0:0:0:0:
392,193,63987,2,0,L|243:146,1,140,8|8,0:0|0:0,0:0:0:0:
190,132,65052,6,0,P|227:216|152:331,1,210,6|8,0:0|0:0,0:0:0:0:
40,342,66827,2,0,B|66:197,1,140,8|8,0:0|0:0,0:0:0:0:
103,76,68247,2,0,P|165:31|252:38,1,140,8|12,0:0|0:0,0:0:0:0:
355,34,70732,6,0,B|396:92|396:92|402:163|402:163|445:228,1,210,6|8,0:0|0:0,0:0:0:0:
493,350,72508,2,0,P|424:360|354:352,1,140,8|8,0:0|0:0,0:0:0:0:
289,327,73573,1,6,0:0:0:0:
225,297,73928,2,0,P|155:289|86:299,1,140,8|8,0:0|0:0,0:0:0:0:
31,343,74993,6,0,P|36:273|26:192,1,140,6|2,0:0|0:0,0:0:0:0:
8,136,76058,2,0,P|78:142|172:124,1,140,8|8,0:0|0:0,0:0:0:0:
266,60,77478,2,0,P|335:49|404:55,1,140,8|8,0:0|0:0,0:0:0:0:
479,174,78898,6,0,P|409:184|340:178,1,140,8|8,0:0|0:0,0:0:0:0:
272,159,79963,1,2,0:0:0:0:
207,130,80318,2,0,P|103:136|74:230,1,210,2|2,0:0|0:0,0:0:0:0:
101,288,81738,1,8,0:0:0:0:
135,349,82093,2,0,L|303:335,1,140,6|8,0:0|3:0,0:0:0:0:
413,320,83513,2,0,P|420:251|392:182,1,140,0|2,0:0|0:0,0:0:0:0:
256,192,84756,12,0,88484,3:0:0:0:
