osu file format v14

[General]
AudioFilename: audio.mp3
AudioLeadIn: 0
PreviewTime: 58395
Countdown: 0
SampleSet: Soft
StackLeniency: 0.7
Mode: 0
LetterboxInBreaks: 0
WidescreenStoryboard: 1

[Editor]
DistanceSpacing: 0.8
BeatDivisor: 4
GridSize: 32
TimelineZoom: 1.5

[Metadata]
Title:Another colony (TV Size)
TitleUnicode:Another colony (TV Size)
Artist:TRUE
ArtistUnicode:TRUE
Creator:dkblaze
Version:Yuuma's Hard
Source:転生したらスライムだった件
Tags:Tensei Shitara Slime Datta Ken 転スラ TenSura That Time I Got Reincarnated as a Slime 8bit japanese pop jpop j-pop anime ed ending Yuuma
BeatmapID:2863638
BeatmapSetID:1386045

[Difficulty]
HPDrainRate:4.5
CircleSize:3.5
OverallDifficulty:6
ApproachRate:8
SliderMultiplier:1.4
SliderTickRate:1

[Events]
//Background and Video events
0,0,"BG.jpg",0,0
Video,-41,"video.mp4"
//Break Periods
//Storyboard Layer 0 (Background)
//Storyboard Layer 1 (Fail)
//Storyboard Layer 2 (Pass)
//Storyboard Layer 3 (Foreground)
//Storyboard Layer 4 (Overlay)
//Storyboard Sound Samples

[TimingPoints]
-268,355.029585798817,4,2,5,70,1,0
797,-83.3333333333333,4,2,5,70,0,0
1152,-100,4,2,5,75,0,0
6832,-111.111111111111,4,2,5,75,0,0
8962,-100,4,2,5,75,0,0
9672,-111.111111111111,4,2,5,75,0,0
12513,-142.857142857143,4,2,5,65,0,0
23874,-125,4,2,5,65,0,0
35234,-125,4,2,5,70,0,0
46595,-111.111111111111,4,2,5,70,0,0
52276,-111.111111111111,4,2,5,75,0,0
52365,-111.111111111111,4,2,5,55,0,0
52631,-111.111111111111,4,2,5,75,0,0
52720,-111.111111111111,4,2,5,55,0,0
52986,-111.111111111111,4,2,5,75,0,0
53075,-111.111111111111,4,2,5,55,0,0
53341,-111.111111111111,4,2,5,75,0,0
53430,-111.111111111111,4,2,5,55,0,0
53696,-111.111111111111,4,2,5,75,0,0
53785,-111.111111111111,4,2,5,55,0,0
54051,-111.111111111111,4,2,5,75,0,0
54140,-111.111111111111,4,2,5,55,0,0
54406,-111.111111111111,4,2,5,75,0,0
54495,-111.111111111111,4,2,5,55,0,0
54761,-111.111111111111,4,2,5,75,0,0
54850,-111.111111111111,4,2,5,55,0,0
55116,-111.111111111111,4,2,5,75,0,0
55205,-111.111111111111,4,2,5,65,0,0
55471,-111.111111111111,4,2,5,75,0,0
55560,-111.111111111111,4,2,5,65,0,0
55826,-111.111111111111,4,2,5,75,0,0
55915,-111.111111111111,4,2,5,65,0,0
56181,-111.111111111111,4,2,5,75,0,0
56270,-111.111111111111,4,2,5,65,0,0
56536,-111.111111111111,4,2,5,75,0,0
58134,-142.857142857143,4,2,5,75,0,0
59021,-83.3333333333334,4,2,5,75,0,0
59376,-100,4,2,5,85,0,1
87601,-142.857142857143,4,2,5,85,0,0
88489,-142.857142857143,4,2,5,5,0,0

[Colours]
Combo1 : 247,184,106
Combo2 : 125,200,244
Combo3 : 251,170,210
Combo4 : 238,91,95

[HitObjects]
418,68,797,6,0,P|347:74|292:95,1,125.999996154785,12|0,0:0|0:0,0:0:0:0:
267,112,1152,6,0,P|228:130|180:136,1,70,6|0,3:2|0:0,0:0:0:0:
116,85,1507,1,10,0:0:0:0:
45,155,1684,2,0,B|24:182|24:182|38:300,1,140,2|2,0:0|0:0,0:0:0:0:
130,323,2217,2,0,L|140:238,1,70,10|2,0:0|0:0,0:0:0:0:
235,217,2572,6,0,L|324:233,1,70,0|0,3:0|0:0,0:0:0:0:
391,281,2927,2,0,L|459:268,1,70,8|0,0:0|0:0,0:0:0:0:
496,177,3282,2,0,L|355:151,1,140,0|8,3:0|0:0,0:0:0:0:
174,87,3992,6,0,P|157:131|167:175,1,70,6|0,3:2|0:0,0:0:0:0:
194,248,4347,1,10,0:0:0:0:
159,343,4524,2,0,P|103:371|44:317,1,140,2|2,0:0|0:0,0:0:0:0:
0,242,5057,2,0,L|17:163,1,70,10|2,0:0|0:0,0:0:0:0:
86,84,5412,5,0,3:0:0:0:
158,152,5589,1,8,0:0:0:0:
226,81,5767,2,0,L|304:69,1,70,8|0,3:2|0:0,0:0:0:0:
377,124,6122,2,0,L|421:116,3,35,0|0|0|0,3:0|3:0|3:0|3:0,0:0:0:0:
440,138,6477,2,0,L|484:130,3,35,8|8|4|4,0:0|0:0|0:3|0:3,0:0:0:0:
502,151,6832,5,6,3:2:0:0:
452,226,7010,2,0,P|401:260|340:252,1,125.999996154785,8|2,0:0|3:2,0:0:0:0:
266,202,7542,2,0,P|215:167|154:175,1,125.999996154785,8|2,0:0|3:2,0:0:0:0:
76,224,8075,2,0,L|20:230,2,31.4999990386963,8|8|2,0:0|0:0|3:2,0:0:0:0:
154,270,8430,2,0,L|142:144,1,125.999996154785,10|2,0:0|3:2,0:0:0:0:
97,59,8962,2,0,P|152:45|174:51,1,70,10|4,0:0|0:3,0:0:0:0:
252,93,9317,2,0,P|307:107|329:101,1,70,10|0,0:3|0:0,0:0:0:0:
411,63,9672,6,0,L|403:-7,2,62.9999980773926,14|2|0,0:0|3:2|0:0,0:0:0:0:
419,156,10205,1,2,3:2:0:0:
512,161,10382,2,0,L|504:223,1,62.9999980773926,10|0,0:0|0:0,0:0:0:0:
490,317,10737,2,0,B|383:343|420:239|307:267,1,188.999994232178,6|8,3:2|0:0,0:0:0:0:
239,300,11447,2,0,P|201:317|166:311,1,62.9999980773926,8|4,0:3|0:3,0:0:0:0:
73,249,11803,5,10,0:0:0:0:
88,150,11980,1,10,0:0:0:0:
264,51,12513,6,0,P|281:81|348:108,1,97.9999970092774,6|0,3:2|3:0,0:0:0:0:
411,85,13045,1,2,0:0:0:0:
411,85,13223,2,0,P|424:162|425:191,1,97.9999970092774,2|0,3:2|3:0,0:0:0:0:
412,261,13755,1,2,0:0:0:0:
335,235,13933,2,0,P|255:215|221:214,2,97.9999970092774,2|0|2,3:2|3:0|3:2,0:0:0:0:
490,296,14998,1,0,3:0:0:0:
368,359,15353,6,0,P|321:373|272:379,1,97.9999970092774,2|2,3:2|3:2,0:0:0:0:
192,357,15885,2,0,P|169:346|153:328,1,48.9999985046387,2|0,0:0|3:0,0:0:0:0:
116,260,16240,2,0,P|113:235|120:212,1,48.9999985046387,2|0,0:0|3:0,0:0:0:0:
174,144,16595,1,2,0:0:0:0:
259,130,16773,2,0,P|307:136|354:150,2,97.9999970092774,0|0|0,3:0|3:0|3:0,0:0:0:0:
90,165,17838,1,0,3:0:0:0:
148,42,18193,6,0,P|194:27|243:21,1,97.9999970092774,6|0,3:2|3:0,0:0:0:0:
319,52,18726,1,2,0:0:0:0:
319,52,18903,2,0,P|365:66|414:72,1,97.9999970092774,2|0,3:2|3:0,0:0:0:0:
494,57,19436,1,2,0:0:0:0:
480,139,19613,6,0,L|462:251,1,97.9999970092774,2|0,3:2|3:0,0:0:0:0:
386,249,20146,1,2,0:0:0:0:
386,249,20323,2,0,L|370:152,1,97.9999970092774,2|0,3:2|3:0,0:0:0:0:
289,136,20856,1,2,0:0:0:0:
243,205,21033,6,0,P|201:248|150:244,1,97.9999970092774,2|2,3:2|3:2,0:0:0:0:
89,221,21566,2,0,L|102:164,1,48.9999985046387,2|0,0:0|3:0,0:0:0:0:
43,108,21921,1,2,0:0:0:0:
43,108,22098,2,0,L|91:89,1,48.9999985046387,2|2,3:2|0:0,0:0:0:0:
113,11,22453,6,0,P|158:42|190:91,1,97.9999970092774,2|2,3:2|3:2,0:0:0:0:
210,162,22986,1,10,0:0:0:0:
327,66,23341,1,10,0:0:0:0:
399,106,23518,1,0,3:0:0:0:
474,65,23696,1,6,0:3:0:0:
474,65,23785,1,4,0:3:0:0:
474,65,23874,6,0,P|484:115|487:181,1,112,6|0,3:2|3:0,0:0:0:0:
470,259,24406,1,2,0:0:0:0:
391,227,24584,1,2,3:2:0:0:
391,227,24761,2,0,P|381:277|378:343,1,112,8|2,0:0|0:0,0:0:0:0:
293,321,25294,6,0,L|177:297,1,112,2|0,3:2|3:0,0:0:0:0:
144,221,25826,1,2,0:0:0:0:
144,221,26004,2,0,L|214:209,1,56,2|0,3:2|0:0,0:0:0:0:
254,148,26359,2,0,L|324:136,1,56,0|2,3:0|0:0,0:0:0:0:
366,75,26714,6,0,P|330:32|261:26,1,112,2|2,3:2|3:2,0:0:0:0:
204,67,27246,2,0,P|177:77|144:76,1,56,2|0,0:0|3:0,0:0:0:0:
76,31,27601,2,0,P|48:31|22:41,1,56,2|0,0:0|3:0,0:0:0:0:
16,126,27956,1,2,0:0:0:0:
16,126,28134,2,0,L|35:240,1,112,0|0,3:0|3:0,0:0:0:0:
119,285,28666,5,10,0:3:0:0:
119,285,28844,2,0,P|189:269|198:271,1,56,0|10,3:0|0:3,0:0:0:0:
256,300,29199,1,2,3:2:0:0:
340,267,29376,6,0,P|368:272|393:285,1,56,14|0,0:0|3:0,0:0:0:0:
468,251,29732,1,2,0:0:0:0:
468,251,29909,2,0,P|475:298|462:364,2,112,2|0|0,3:2|3:0|3:0,0:0:0:0:
421,155,30797,6,0,P|418:119|421:90,2,56,10|2|12,0:0|3:2|0:0,0:0:0:0:
346,202,31329,2,0,P|319:193|291:189,1,56,2|0,3:2|0:0,0:0:0:0:
207,216,31684,2,0,P|161:240|87:244,1,112,2|2,3:2|3:2,0:0:0:0:
54,99,32394,6,0,L|41:30,2,56,2|0|0,3:2|0:0|3:0,0:0:0:0:
131,140,32927,1,2,0:0:0:0:
206,95,33104,2,0,P|252:73|308:73,2,84,10|8|8,3:0|3:0|0:0,0:0:0:0:
131,140,33814,6,0,L|141:195,1,56,2|8,3:2|0:0,0:0:0:0:
162,283,34169,2,0,L|217:272,1,56,2|4,3:2|0:3,0:0:0:0:
305,252,34524,2,0,L|294:196,1,56,10|10,0:3|0:3,0:0:0:0:
274,109,34879,2,0,L|218:119,1,56,6|2,0:3|0:0,0:0:0:0:
131,140,35234,5,6,3:2:0:0:
131,140,35412,2,0,B|82:158|82:158|24:140,1,112,10|0,0:0|3:0,0:0:0:0:
28,50,35945,2,0,B|77:32|77:32|134:49,1,112,8|2,0:0|3:2,0:0:0:0:
212,99,36477,1,10,0:0:0:0:
293,55,36655,2,0,L|348:35,1,56,0|8,3:0|0:0,0:0:0:0:
435,64,37010,2,0,P|455:120|445:192,2,112,0|14|0,3:0|0:0|0:0,0:0:0:0:
294,145,38075,6,0,P|274:197|277:252,1,112,6|0,3:2|0:0,0:0:0:0:
313,332,38607,1,0,3:0:0:0:
313,332,38785,2,0,P|371:319|437:313,1,112,8|2,0:0|3:2,0:0:0:0:
453,233,39317,6,0,P|410:225|389:219,1,56,10|0,0:0|3:0,0:0:0:0:
314,192,39672,1,14,0:0:0:0:
314,192,39850,2,0,P|286:196|259:203,1,56,0|0,3:0|0:0,0:0:0:0:
183,254,40205,2,0,L|193:319,1,56,8|0,0:0|0:0,0:0:0:0:
87,229,40560,2,0,L|99:157,1,56,8|4,0:3|0:3,0:0:0:0:
62,81,40915,5,6,3:2:0:0:
62,81,41092,2,0,P|127:78|178:107,1,112,2|0,3:2|3:0,0:0:0:0:
238,143,41625,2,0,P|288:165|343:160,1,112,8|2,0:0|3:2,0:0:0:0:
420,118,42158,2,0,L|411:52,1,56,10|0,0:0|3:0,0:0:0:0:
331,30,42513,2,0,L|323:85,1,56,8|0,0:0|3:0,0:0:0:0:
241,46,42868,1,2,0:0:0:0:
241,46,43045,2,0,P|195:32|172:37,1,56,10|0,0:0|3:0,0:0:0:0:
105,65,43400,2,0,P|75:73|64:73,2,37.3333333333333,8|8|8,0:0|0:0|0:0,0:0:0:0:
120,77,43755,6,0,L|131:197,1,112,6|0,3:2|3:0,0:0:0:0:
140,275,44288,1,0,0:0:0:0:
225,256,44465,2,0,L|235:144,1,112,8|2,0:0|3:0,0:0:0:0:
314,100,44998,2,0,P|344:128|420:131,1,112,14|2,0:0|0:0,0:0:0:0:
492,94,45530,2,0,L|499:149,1,56,2|2,3:2|0:0,0:0:0:0:
478,238,45885,1,2,3:2:0:0:
392,284,46063,1,10,0:0:0:0:
392,284,46152,1,8,0:0:0:0:
392,284,46240,2,0,L|317:267,1,56,6|6,0:3|0:3,0:0:0:0:
253,220,46595,6,0,P|197:212|127:260,1,125.999996154785,6|10,3:2|0:0,0:0:0:0:
77,313,47128,1,2,0:0:0:0:
23,241,47305,2,0,P|0:200|28:112,1,125.999996154785,0|10,3:0|0:0,0:0:0:0:
82,63,47838,1,2,0:0:0:0:
159,104,48016,1,0,3:0:0:0:
339,43,48371,6,0,P|387:30|407:33,1,62.9999980773926,10|0,0:0|0:0,0:0:0:0:
441,106,48726,2,0,P|380:140|315:118,1,125.999996154785,2|10,3:2|0:0,0:0:0:0:
194,41,49436,6,0,P|133:30|81:62,1,125.999996154785,6|10,3:2|0:0,0:0:0:0:
29,134,49968,1,2,0:0:0:0:
29,134,50146,2,0,B|12:197|12:197|29:263,1,125.999996154785,0|10,3:0|0:0,0:0:0:0:
53,338,50678,1,2,0:0:0:0:
111,276,50856,1,0,3:0:0:0:
197,341,51033,6,0,L|322:321,1,125.999996154785,10|8,0:0|0:3,0:0:0:0:
405,295,51566,2,0,P|411:258|413:219,1,62.9999980773926,2|8,3:2|0:3,0:0:0:0:
318,211,51921,2,0,P|312:174|310:135,1,62.9999980773926,2|8,3:2|0:0,0:0:0:0:
398,100,52276,5,12,3:2:0:0:
398,100,52631,2,0,P|372:82|342:72,1,62.9999980773926,10|8,3:2|0:2,0:0:0:0:
270,18,52986,2,0,P|241:31|218:52,1,62.9999980773926,10|8,3:2|0:2,0:0:0:0:
134,87,53341,2,0,P|131:118|138:148,1,62.9999980773926,10|8,3:2|0:2,0:0:0:0:
179,228,53696,5,12,3:2:0:0:
179,228,54051,2,0,L|256:217,1,62.9999980773926,10|8,3:2|0:2,0:0:0:0:
332,290,54406,2,0,L|269:298,1,62.9999980773926,10|8,3:2|0:2,0:0:0:0:
336,203,54761,2,0,L|413:192,1,62.9999980773926,10|8,3:2|0:2,0:0:0:0:
479,241,55116,6,0,P|492:181|461:128,1,125.999996154785,12|10,3:2|3:2,0:0:0:0:
385,86,55649,1,8,0:2:0:0:
299,120,55826,2,0,P|250:144|234:142,1,62.9999980773926,10|8,3:2|0:2,0:0:0:0:
158,120,56181,2,0,P|129:107|110:82,1,62.9999980773926,10|8,3:2|0:2,0:0:0:0:
218,55,56536,5,8,3:2:0:0:
218,55,56891,2,0,L|225:125,1,62.9999980773926,10|8,3:2|0:2,0:0:0:0:
302,169,57246,2,0,L|295:239,1,62.9999980773926,8|8,3:2|0:2,0:0:0:0:
195,269,57601,2,0,L|202:339,1,62.9999980773926,8|8,3:2|0:2,0:0:0:0:
312,374,57956,5,10,3:2:0:0:
312,374,58134,2,0,P|371:335|434:327,1,122.499996261597,10|0,3:2|3:0,0:0:0:0:
450,333,58666,2,0,L|454:305,3,24.4999992523194,8|4|4|4,0:0|0:3|0:3|0:3,0:0:0:0:
482,298,59021,2,0,L|461:155,1,125.999996154785,14|0,0:0|0:0,0:0:0:0:
454,126,59376,6,0,P|418:127|374:146,1,70,6|0,3:2|0:0,0:0:0:0:
309,210,59732,2,0,P|276:221|241:222,1,70,10|0,0:0|0:0,0:0:0:0:
148,180,60087,2,0,L|163:98,1,70,2|2,3:2|0:0,0:0:0:0:
250,50,60442,2,0,L|272:204,1,140,10|0,0:0|3:0,0:0:0:0:
267,365,61152,6,0,P|319:361|346:344,1,70,10|0,0:0|0:0,0:0:0:0:
382,266,61507,2,0,P|378:214|361:187,1,70,2|2,3:2|0:0,0:0:0:0:
269,188,61862,1,10,0:0:0:0:
181,235,62039,1,8,0:0:0:0:
181,235,62128,1,8,0:0:0:0:
181,235,62217,2,0,P|148:247|113:246,1,70,4|0,3:2|0:0,0:0:0:0:
27,194,62572,6,0,L|41:116,1,70,10|0,0:0|0:0,0:0:0:0:
114,60,62927,2,0,L|182:72,1,70,2|2,3:2|0:0,0:0:0:0:
266,116,63282,2,0,L|334:103,1,70,10|8,0:0|0:0,0:0:0:0:
413,30,63637,2,0,P|466:68|463:160,1,140,0|8,3:0|0:0,0:0:0:0:
450,243,64169,5,2,0:0:0:0:
367,191,64347,1,2,3:2:0:0:
303,258,64524,1,2,0:0:0:0:
232,190,64702,1,10,0:0:0:0:
156,239,64879,1,10,0:0:0:0:
156,239,64968,1,8,0:0:0:0:
156,239,65057,6,0,P|122:228|70:229,1,70,6|0,3:2|0:0,0:0:0:0:
69,320,65412,2,0,P|103:331|155:330,1,70,10|0,0:0|0:0,0:0:0:0:
231,295,65767,2,0,L|242:156,2,140,2|10|0,3:2|0:0|3:0,0:0:0:0:
406,359,66832,6,0,L|412:272,1,70,10|0,0:0|0:0,0:0:0:0:
499,244,67187,2,0,L|493:157,1,70,2|2,3:2|0:0,0:0:0:0:
402,119,67542,1,10,0:0:0:0:
492,66,67720,1,8,0:0:0:0:
492,66,67808,1,8,0:0:0:0:
492,66,67897,1,4,3:2:0:0:
311,25,68252,6,0,P|243:34|194:56,1,105,10|8,0:0|0:3,0:0:0:0:
204,83,68607,2,0,P|170:100|126:110,1,70,2|0,3:2|0:0,0:0:0:0:
35,161,68962,2,0,P|82:173|117:193,1,70,14|0,0:0|0:0,0:0:0:0:
177,253,69317,5,4,3:2:0:0:
273,109,69672,2,0,P|310:114|347:136,1,70,0|10,3:0|0:0,0:0:0:0:
349,228,70027,1,2,3:2:0:0:
349,228,70205,1,10,0:0:0:0:
272,280,70382,1,10,0:3:0:0:
272,280,70560,1,6,0:3:0:0:
177,253,70737,6,0,P|145:267|110:268,1,70,6|0,3:2|0:0,0:0:0:0:
20,216,71092,2,0,P|5:184|4:149,1,70,10|0,0:0|0:0,0:0:0:0:
74,79,71447,2,0,P|105:64|140:63,1,70,2|2,3:2|0:0,0:0:0:0:
242,80,71803,2,0,P|272:141|259:208,1,140,10|0,0:0|3:0,0:0:0:0:
87,330,72513,6,0,L|170:341,1,70,10|0,0:0|0:0,0:0:0:0:
258,366,72868,2,0,L|327:356,1,70,2|2,3:2|0:0,0:0:0:0:
419,309,73223,2,0,B|420:271|420:271|433:245|433:245|434:207,1,105,10|8,0:0|0:0,0:0:0:0:
437,171,73578,5,4,3:2:0:0:
339,42,73933,2,0,P|301:45|259:61,1,70,10|8,0:0|0:0,0:0:0:0:
250,80,74199,1,8,0:0:0:0:
250,80,74288,2,0,P|216:90|181:92,1,70,14|8,3:2|0:0,0:0:0:0:
86,56,74643,2,0,P|53:44|6:46,1,70,10|8,0:0|0:0,0:0:0:0:
29,148,74998,6,0,L|48:298,1,140,6|8,3:2|0:0,0:0:0:0:
222,360,75708,2,0,L|234:270,1,70,0|2,3:0|0:0,0:0:0:0:
248,190,76063,2,0,P|313:186|356:230,1,105,10|8,0:0|0:0,0:0:0:0:
367,233,76418,6,0,P|406:255|489:217,1,140,4|10,3:2|0:0,0:0:0:0:
511,119,76950,1,2,0:0:0:0:
459,31,77128,2,0,P|420:9|337:47,1,140,0|10,3:0|0:0,0:0:0:0:
318,145,77660,1,10,0:0:0:0:
318,145,77749,1,8,0:0:0:0:
318,145,77838,6,0,L|240:156,1,70,0|2,3:0|0:0,0:0:0:0:
162,217,78193,2,0,L|21:193,1,140,10|0,0:0|3:0,0:0:0:0:
125,23,78903,1,10,0:0:0:0:
223,63,79081,1,10,0:0:0:0:
223,63,79169,1,8,0:0:0:0:
223,63,79258,6,0,P|252:129|232:208,1,140,4|10,3:2|0:0,0:0:0:0:
200,273,79791,1,2,0:0:0:0:
200,273,79968,2,0,P|183:328|193:356,1,70,0|2,3:0|0:0,0:0:0:0:
281,371,80323,1,2,3:2:0:0:
349,299,80501,1,14,0:0:0:0:
432,354,80678,6,0,P|497:342|502:258,1,140,0|2,3:0|3:2,0:0:0:0:
438,207,81211,2,0,P|344:186|274:190,1,140,14|8,0:0|0:3,0:0:0:0:
199,241,81743,1,10,0:0:0:0:
96,197,81921,1,10,0:0:0:0:
96,197,82010,1,8,0:0:0:0:
96,197,82098,6,0,B|71:136|109:133|79:57,2,140,4|8|0,3:2|0:0|3:0,0:0:0:0:
199,241,82986,2,0,L|195:285,2,35,8|8|8,0:0|0:0|0:0,0:0:0:0:
300,186,83341,1,14,0:0:0:0:
300,186,83518,6,0,L|288:104,1,70,2|8,0:0|0:3,0:0:0:0:
370,47,83874,1,10,0:3:0:0:
468,114,84051,1,10,0:0:0:0:
468,114,84140,1,8,0:0:0:0:
468,114,84229,2,0,L|459:266,1,140,0|2,3:0|0:0,0:0:0:0:
446,359,84761,5,6,3:2:0:0:
310,221,85116,1,0,3:0:0:0:
310,221,85294,2,0,L|231:232,1,70,8|0,0:0|3:0,0:0:0:0:
148,279,85649,6,0,P|137:229|147:190,1,70,8|0,0:0|3:0,0:0:0:0:
34,197,86004,2,0,P|44:163|42:128,1,70,8|0,0:0|3:0,0:0:0:0:
139,60,86359,6,0,B|180:52|180:52|205:63,1,70,12|0,0:0|3:0,0:0:0:0:
300,109,86714,2,0,B|325:120|325:120|366:112,1,70,8|0,0:0|3:0,0:0:0:0:
465,59,87069,5,8,0:0:0:0:
512,154,87246,1,0,3:0:0:0:
441,232,87424,2,0,L|390:244,1,35,8|8,0:0|0:0,0:0:0:0:
391,259,87601,6,0,B|262:302|307:154|153:204,1,244.999992523194,6|0,3:2|0:0,0:0:0:0:
