osu file format v14

[General]
AudioFilename: audio.mp3
AudioLeadIn: 0
PreviewTime: 58395
Countdown: 0
SampleSet: Soft
StackLeniency: 0.7
Mode: 0
LetterboxInBreaks: 0
WidescreenStoryboard: 0

[Editor]
DistanceSpacing: 0.8
BeatDivisor: 4
GridSize: 32
TimelineZoom: 2.1

[Metadata]
Title:Another colony (TV Size)
TitleUnicode:Another colony (TV Size)
Artist:TRUE
ArtistUnicode:TRUE
Creator:dkblaze
Version:Nameless Story
Source:転生したらスライムだった件
Tags:Tensei Shitara Slime Datta Ken 転スラ TenSura That Time I Got Reincarnated as a Slime 8bit japanese pop jpop j-pop anime ed ending Yuuma
BeatmapID:2863219
BeatmapSetID:1386045

[Difficulty]
HPDrainRate:6
CircleSize:3.8
OverallDifficulty:9
ApproachRate:9.2
SliderMultiplier:1.7
SliderTickRate:1

[Events]
//Background and Video events
0,0,"BG.jpg",0,0
Video,-41,"video.mp4"
//Break Periods
//Storyboard Layer 0 (Background)
//Storyboard Layer 1 (Fail)
//Storyboard Layer 2 (Pass)
//Storyboard Layer 3 (Foreground)
//Storyboard Layer 4 (Overlay)
//Storyboard Sound Samples

[TimingPoints]
-268,355.029585798817,4,2,5,70,1,0
619,-166.666666666667,4,2,5,70,0,0
1152,-90.909090909091,4,2,5,75,0,0
12513,-125,4,2,5,65,0,0
35234,-125,4,2,5,70,0,0
46595,-100,4,2,5,70,0,0
52276,-76.9230769230769,4,2,5,75,0,0
52365,-76.9230769230769,4,2,5,55,0,0
52631,-100,4,2,5,75,0,0
52720,-100,4,2,5,55,0,0
52986,-100,4,2,5,75,0,0
53075,-100,4,2,5,55,0,0
53341,-100,4,2,5,75,0,0
53430,-76.9230769230769,4,2,5,55,0,0
53696,-76.9230769230769,4,2,5,75,0,0
53785,-76.9230769230769,4,2,5,55,0,0
54051,-90.9090909090909,4,2,5,75,0,0
54140,-90.9090909090909,4,2,5,55,0,0
54406,-90.9090909090909,4,2,5,75,0,0
54495,-90.9090909090909,4,2,5,55,0,0
54761,-90.9090909090909,4,2,5,75,0,0
54850,-90.9090909090909,4,2,5,55,0,0
55116,-90.9090909090909,4,2,5,75,0,0
55205,-90.9090909090909,4,2,5,65,0,0
55471,-90.9090909090909,4,2,5,75,0,0
55560,-90.9090909090909,4,2,5,65,0,0
55826,-83.3333333333333,4,2,5,75,0,0
55915,-83.3333333333333,4,2,5,65,0,0
56181,-83.3333333333333,4,2,5,75,0,0
56270,-83.3333333333333,4,2,5,65,0,0
56536,-76.9230769230769,4,2,5,75,0,0
59021,-71.4285714285714,4,2,5,75,0,0
59376,-71.4285714285714,4,2,5,85,0,1
68607,-333.333333333333,4,2,5,85,0,1
68962,-71.4285714285714,4,2,5,85,0,1
87601,-76.9230769230769,4,2,5,85,0,0
88489,-76.9230769230769,4,2,5,5,0,0

[Colours]
Combo1 : 247,184,106
Combo2 : 125,200,244
Combo3 : 251,170,210
Combo4 : 238,91,95

[HitObjects]
197,219,619,5,0,0:0:0:0:
348,182,797,2,0,L|261:153,1,76.4999976654053,12|0,0:0|0:0,0:0:0:0:
205,86,1152,6,0,P|242:73|310:48,2,93.5000028533936,6|0|10,3:2|0:0|0:0,0:0:0:0:
24,148,1684,2,0,B|124:146|76:237|203:248,1,187.000005706787,2|2,0:0|0:0,0:0:0:0:
102,322,2217,1,10,0:0:0:0:
275,196,2394,6,0,P|251:302|236:386,1,187.000005706787,2|0,0:0|0:0,0:0:0:0:
396,318,2927,2,0,P|373:283|358:219,1,93.5000028533936,8|0,0:0|0:0,0:0:0:0:
425,130,3282,1,0,3:0:0:0:
425,130,3371,1,8,0:0:0:0:
425,130,3459,1,2,0:0:0:0:
275,196,3637,2,0,L|376:226,1,93.5000028533936,8|0,0:0|0:0,0:0:0:0:
305,61,3992,5,6,3:2:0:0:
186,211,4169,1,0,0:0:0:0:
89,126,4347,1,10,0:0:0:0:
321,51,4524,2,0,B|257:25|189:-3|189:-3|197:37|179:70,1,187.000005706787,2|2,0:0|0:0,0:0:0:0:
186,211,5057,1,10,0:0:0:0:
73,112,5234,6,0,P|91:195|97:237,1,93.5000028533936,2|0,0:0|3:0,0:0:0:0:
248,296,5589,1,8,0:0:0:0:
79,384,5767,2,0,P|64:349|95:279,1,93.5000028533936,8|0,3:2|0:0,0:0:0:0:
274,140,6122,5,0,3:0:0:0:
257,123,6210,1,0,3:0:0:0:
235,115,6299,1,0,3:0:0:0:
212,117,6388,1,0,3:0:0:0:
191,127,6477,1,8,0:0:0:0:
176,145,6565,1,8,0:0:0:0:
170,167,6654,1,4,0:3:0:0:
173,190,6743,1,4,0:3:0:0:
185,210,6832,5,6,3:2:0:0:
167,318,7010,2,0,P|212:298|335:265,1,140.25000428009,8|0,0:0|0:0,0:0:0:0:
298,271,7365,1,2,3:2:0:0:
446,382,7542,1,8,0:0:0:0:
446,382,7897,5,2,3:2:0:0:
365,114,8075,1,8,0:0:0:0:
365,114,8163,1,8,0:0:0:0:
365,114,8252,1,2,3:2:0:0:
512,220,8430,1,10,0:0:0:0:
512,220,8785,5,2,3:2:0:0:
298,271,8962,1,10,0:0:0:0:
380,317,9140,1,4,0:3:0:0:
512,220,9317,2,0,P|468:207|413:190,1,93.5000028533936,10|0,0:3|0:0,0:0:0:0:
162,293,9672,5,14,0:0:0:0:
298,271,9850,1,2,3:2:0:0:
298,271,10027,1,0,0:0:0:0:
105,214,10205,5,2,3:2:0:0:
324,174,10382,1,10,0:0:0:0:
324,174,10560,1,0,0:0:0:0:
156,380,10737,6,0,B|114:324|167:277|185:289|234:232|187:163,1,233.750007133484,6|0,3:2|0:0,0:0:0:0:
131,80,11270,6,0,P|122:112|117:141,1,46.7500014266968,8|0,0:0|0:0,0:0:0:0:
105,214,11447,5,8,0:3:0:0:
245,104,11625,1,4,0:3:0:0:
245,104,11714,1,4,0:3:0:0:
245,104,11803,5,10,0:0:0:0:
47,0,11980,1,10,0:0:0:0:
47,0,12335,5,2,0:0:0:0:
1,122,12513,2,0,P|61:100|152:74,1,136,6|0,3:2|3:0,0:0:0:0:
179,166,13045,1,2,0:0:0:0:
179,166,13223,2,0,P|230:175|287:112,1,136,2|0,3:2|3:0,0:0:0:0:
366,52,13755,1,2,0:0:0:0:
366,52,13933,2,0,P|379:122|390:190,1,136,2|0,3:2|3:0,0:0:0:0:
312,233,14465,1,2,0:0:0:0:
312,233,14643,2,0,P|300:312|294:375,1,136,2|0,3:2|3:0,0:0:0:0:
383,310,15175,1,2,0:0:0:0:
465,380,15353,6,0,P|478:353|477:291,1,68,2|0,3:2|0:0,0:0:0:0:
484,188,15708,1,2,3:2:0:0:
397,220,15885,2,0,P|422:213|469:199,1,68,2|0,0:0|3:0,0:0:0:0:
291,127,16240,2,0,P|331:139|380:153,1,68,2|0,0:0|3:0,0:0:0:0:
232,233,16595,2,0,B|172:213|202:168|114:144,1,136,2|0,0:0|0:0,0:0:0:0:
2,233,17128,2,0,P|23:313|37:373,2,136,0|0|0,3:0|3:0|3:0,0:0:0:0:
39,146,18016,1,2,0:0:0:0:
217,219,18193,6,0,B|193:215|167:209|167:209|140:230|140:230|114:224|67:216,1,136,6|0,3:2|3:0,0:0:0:0:
139,364,18726,1,2,0:0:0:0:
139,364,18903,2,0,P|166:325|268:322,1,136,2|0,3:2|3:0,0:0:0:0:
323,384,19436,1,2,0:0:0:0:
323,384,19613,2,0,P|334:336|358:239,1,136,2|0,3:2|3:0,0:0:0:0:
248,311,20146,1,2,0:0:0:0:
248,311,20323,2,0,B|182:307|213:255|101:242,1,136,2|0,3:2|3:0,0:0:0:0:
59,307,20856,1,2,0:0:0:0:
0,194,21033,6,0,P|46:180|123:146,1,102,2|0,3:2|0:0,0:0:0:0:
95,159,21388,1,2,3:2:0:0:
38,31,21566,2,0,P|28:72|24:103,1,68,2|0,0:0|3:0,0:0:0:0:
101,139,21921,1,2,0:0:0:0:
182,0,22098,2,0,P|192:39|200:79,1,68,2|2,3:2|0:0,0:0:0:0:
234,196,22453,6,0,B|252:180|271:163|271:163|372:194,1,136,2|2,3:2|3:2,0:0:0:0:
271,356,22986,2,0,P|278:326|291:277,1,68,10|0,0:0|3:0,0:0:0:0:
473,222,23341,1,10,0:0:0:0:
401,286,23518,1,0,3:0:0:0:
310,122,23696,1,6,0:3:0:0:
310,122,23785,1,4,0:3:0:0:
310,122,23874,6,0,P|353:157|445:117,1,136,6|0,3:2|3:0,0:0:0:0:
485,57,24406,1,2,0:0:0:0:
485,57,24584,1,2,3:2:0:0:
353,0,24761,2,0,P|367:45|377:82,1,68,8|0,0:0|3:0,0:0:0:0:
448,143,25116,1,2,0:0:0:0:
448,143,25294,2,0,P|432:229|425:289,1,136,2|0,3:2|3:0,0:0:0:0:
461,369,25826,1,2,0:0:0:0:
461,369,26004,2,0,P|429:321|328:324,1,136,2|0,3:2|3:0,0:0:0:0:
271,367,26536,1,2,0:0:0:0:
236,282,26714,6,0,P|246:332|253:366,1,68,2|0,3:2|0:0,0:0:0:0:
339,309,27069,1,2,3:2:0:0:
374,224,27247,2,0,P|364:274|357:308,1,68,2|0,0:0|3:0,0:0:0:0:
242,193,27601,2,0,P|270:190|307:165,1,68,2|0,0:0|3:0,0:0:0:0:
395,106,27956,2,0,P|345:90|246:52,1,136,2|0,0:0|0:0,0:0:0:0:
193,113,28489,1,0,3:0:0:0:
109,9,28666,2,0,P|82:43|86:96,1,68,10|0,0:3|3:0,0:0:0:0:
124,169,29021,1,10,0:3:0:0:
124,169,29199,1,2,3:2:0:0:
5,276,29376,6,0,P|35:264|93:243,1,68,14|0,0:0|3:0,0:0:0:0:
207,202,29732,1,2,0:0:0:0:
129,324,29909,2,0,P|192:349|270:376,2,136,2|0|0,3:2|3:0|3:0,0:0:0:0:
207,202,30797,1,10,0:0:0:0:
277,268,30974,5,2,3:2:0:0:
427,140,31152,1,12,0:0:0:0:
509,218,31329,2,0,P|491:273|486:297,1,68,2|0,3:2|0:0,0:0:0:0:
412,377,31684,2,0,P|396:364|329:341,1,68,2|0,3:2|0:0,0:0:0:0:
277,268,32039,2,0,P|246:283|214:292,1,68,2|0,3:2|0:0,0:0:0:0:
115,378,32394,6,0,P|106:339|79:224,1,136,2|0,3:2|3:0,0:0:0:0:
190,300,32927,1,2,0:0:0:0:
227,112,33104,2,0,P|216:150|210:178,1,68,10|0,3:0|0:0,0:0:0:0:
205,205,33371,1,8,3:0:0:0:
205,205,33459,1,0,3:0:0:0:
309,152,33637,1,8,0:0:0:0:
150,39,33814,6,0,P|134:80|137:119,1,68,2|8,3:2|0:0,0:0:0:0:
28,195,34169,2,0,P|45:219|85:238,1,68,2|4,3:2|0:3,0:0:0:0:
227,112,34524,5,10,0:3:0:0:
181,291,34702,1,10,0:3:0:0:
290,236,34879,5,6,0:3:0:0:
121,160,35057,1,2,0:0:0:0:
304,250,35234,5,6,3:2:0:0:
84,377,35412,1,10,0:0:0:0:
84,377,35767,5,0,3:0:0:0:
3,237,35945,2,0,P|10:273|17:308,1,68,8|0,0:0|0:0,0:0:0:0:
205,194,36300,5,2,3:2:0:0:
37,70,36477,1,10,0:0:0:0:
96,136,36655,5,0,3:0:0:0:
246,8,36832,1,8,0:0:0:0:
340,67,37010,1,0,3:0:0:0:
246,8,37187,5,2,0:0:0:0:
246,8,37276,1,2,0:0:0:0:
246,8,37365,2,0,P|255:90|265:218,1,204,14|0,0:0|0:0,0:0:0:0:
215,309,38075,5,6,3:2:0:0:
376,384,38252,1,10,0:0:0:0:
376,384,38607,5,0,3:0:0:0:
333,246,38785,2,0,P|323:293|317:322,1,68,8|0,0:0|0:0,0:0:0:0:
509,213,39140,5,2,3:2:0:0:
303,112,39317,1,10,0:0:0:0:
374,170,39495,5,0,3:0:0:0:
512,29,39672,1,14,0:0:0:0:
442,87,39850,1,0,3:0:0:0:
442,87,40205,6,0,P|452:133|459:168,1,68,8|0,0:0|0:0,0:0:0:0:
492,341,40560,1,8,0:3:0:0:
371,274,40737,1,4,0:3:0:0:
276,371,40915,5,6,3:2:0:0:
444,210,41092,1,2,3:2:0:0:
444,210,41447,5,0,3:0:0:0:
286,289,41625,2,0,P|253:276|205:261,1,68,8|0,0:0|0:0,0:0:0:0:
97,144,41980,5,2,3:2:0:0:
303,37,42158,1,10,0:0:0:0:
213,7,42335,5,0,3:0:0:0:
264,192,42513,1,8,0:0:0:0:
355,154,42690,1,0,3:0:0:0:
199,119,42868,5,2,0:0:0:0:
199,119,42956,1,2,0:0:0:0:
199,119,43045,1,10,0:0:0:0:
286,82,43223,1,0,3:0:0:0:
187,261,43400,1,8,0:0:0:0:
174,250,43518,2,0,P|158:243|118:228,1,45.3333333333333,8|8,0:0|0:0,0:0:0:0:
12,197,43755,5,6,3:2:0:0:
126,367,43933,1,2,0:0:0:0:
126,367,44288,5,0,0:0:0:0:
12,286,44465,2,0,P|18:258|33:196,1,68,8|0,0:0|0:0,0:0:0:0:
163,124,44820,5,2,3:0:0:0:
0,67,44998,1,14,0:0:0:0:
49,132,45175,5,0,3:0:0:0:
216,0,45353,1,2,0:0:0:0:
284,77,45530,1,2,3:2:0:0:
284,77,45619,1,2,0:0:0:0:
284,77,45708,1,2,0:0:0:0:
167,209,45885,5,2,3:2:0:0:
281,341,46063,1,10,0:0:0:0:
284,314,46151,1,8,0:0:0:0:
298,290,46240,1,6,0:3:0:0:
320,274,46329,1,4,0:3:0:0:
346,268,46418,1,6,0:3:0:0:
372,272,46506,1,4,0:3:0:0:
396,285,46595,6,0,P|406:334|412:369,1,85,6|0,3:2|0:0,0:0:0:0:
512,235,46950,2,0,P|476:227|421:180,1,85,10|2,0:0|0:0,0:0:0:0:
500,18,47305,1,0,3:0:0:0:
489,35,47394,2,0,P|475:85|465:146,1,85,8|0,0:0|0:0,0:0:0:0:
480,131,47660,1,10,0:0:0:0:
391,56,47838,1,2,0:0:0:0:
248,156,48016,6,0,P|321:166|350:207,1,127.5,0|0,3:0|0:0,0:0:0:0:
349,225,48371,2,0,P|334:282|329:317,1,85,10|0,0:0|0:0,0:0:0:0:
223,373,48726,1,2,3:2:0:0:
201,374,48814,2,0,P|169:350|178:274,1,85,8|0,0:0|0:0,0:0:0:0:
175,269,49081,2,0,P|200:259|281:235,1,85,10|0,0:0|0:0,0:0:0:0:
134,115,49436,6,0,P|116:168|107:226,1,85,6|0,3:2|0:0,0:0:0:0:
284,80,49791,1,10,0:0:0:0:
194,45,49968,1,2,0:0:0:0:
296,176,50146,1,0,3:0:0:0:
315,161,50234,2,0,P|341:149|414:131,1,85,8|0,0:0|0:0,0:0:0:0:
413,119,50501,2,0,P|417:82|369:35,1,85,10|2,0:0|0:0,0:0:0:0:
214,130,50856,5,0,3:0:0:0:
440,294,51033,1,10,0:0:0:0:
316,350,51211,1,0,3:0:0:0:
372,228,51388,1,8,0:3:0:0:
214,130,51566,6,0,P|231:195|243:269,1,127.5,2|0,3:2|0:0,0:0:0:0:
247,281,51921,1,2,3:2:0:0:
471,116,52098,1,8,0:0:0:0:
471,116,52187,1,8,0:0:0:0:
471,116,52276,6,0,B|392:99|429:46|319:24,1,165.749992412568,12|8,3:2|0:2,0:0:0:0:
204,171,52631,6,0,L|213:129,3,42.5,10|8|8|8,3:2|0:2|0:2|0:2,0:0:0:0:
122,14,52986,2,0,L|131:55,3,42.5,10|8|8|8,3:2|0:2|0:2|0:2,0:0:0:0:
15,124,53341,2,0,L|24:82,3,42.5,10|8|8|8,3:2|0:2|0:2|0:2,0:0:0:0:
166,300,53696,6,0,B|253:291|225:219|342:216,1,165.749992412568,12|8,3:2|0:2,0:0:0:0:
479,365,54051,6,0,P|459:355|432:343,3,46.7500014266968,10|8|8|8,3:2|0:2|0:2|0:2,0:0:0:0:
325,234,54406,2,0,P|345:224|372:212,3,46.7500014266968,10|8|8|8,3:2|0:2|0:2|0:2,0:0:0:0:
482,176,54761,2,0,P|462:166|435:154,3,46.7500014266968,10|8|8|8,3:2|0:2|0:2|0:2,0:0:0:0:
345,22,55116,5,12,3:2:0:0:
331,28,55205,1,8,0:2:0:0:
317,34,55294,2,0,L|305:104,1,46.7500014266968,8|8,0:2|0:2,0:0:0:0:
151,130,55471,5,10,3:2:0:0:
157,144,55560,1,8,0:2:0:0:
163,158,55649,2,0,L|233:170,1,46.7500014266968,8|8,0:2|0:2,0:0:0:0:
246,332,55825,5,10,3:2:0:0:
265,323,55914,1,8,0:2:0:0:
285,315,56003,2,0,L|301:217,1,50.9999984436036,8|8,0:2|0:2,0:0:0:0:
461,228,56181,5,10,3:2:0:0:
452,208,56270,1,8,0:2:0:0:
444,188,56359,2,0,L|346:171,1,50.9999984436036,8|8,0:2|0:2,0:0:0:0:
173,271,56536,5,8,3:2:0:0:
162,265,56624,1,8,0:2:0:0:
151,260,56713,1,8,0:2:0:0:
140,255,56802,1,8,0:2:0:0:
129,250,56891,5,10,3:2:0:0:
80,266,56980,1,8,0:2:0:0:
59,313,57069,1,8,0:2:0:0:
75,361,57158,1,8,0:2:0:0:
122,378,57246,5,8,3:2:0:0:
164,340,57335,1,8,0:2:0:0:
170,284,57424,1,8,0:2:0:0:
141,235,57513,1,8,0:2:0:0:
89,213,57601,1,8,3:2:0:0:
49,173,57690,1,8,0:2:0:0:
41,117,57779,1,8,0:2:0:0:
60,64,57868,1,8,0:2:0:0:
104,31,57956,5,10,3:2:0:0:
374,78,58134,1,10,3:2:0:0:
374,78,58489,6,0,P|367:115|361:146,1,55.2499974708558,0|0,0:0|3:0,0:0:0:0:
221,213,58666,1,8,0:0:0:0:
257,188,58755,1,4,0:3:0:0:
301,190,58844,1,4,0:3:0:0:
337,214,58933,1,4,0:3:0:0:
354,262,59021,6,0,B|441:237|402:176|519:152,1,178.499994552612,14|0,0:0|0:0,0:0:0:0:
512,252,59376,6,0,P|477:237|307:180,1,178.499994552612,6|0,3:2|0:0,0:0:0:0:
266,240,59732,2,0,B|230:200|230:200|262:138,1,118.999996368408,10|0,0:0|0:0,0:0:0:0:
482,107,60087,1,2,3:2:0:0:
489,129,60175,1,8,0:0:0:0:
496,151,60264,1,2,0:0:0:0:
259,0,60442,2,0,P|245:72|239:129,1,118.999996368408,10|8,0:0|0:0,0:0:0:0:
233,199,60708,1,8,0:0:0:0:
233,199,60797,5,0,3:0:0:0:
372,55,60974,1,0,0:0:0:0:
358,369,61152,2,0,P|379:347|355:237,1,118.999996368408,10|0,0:0|0:0,0:0:0:0:
99,306,61507,1,2,3:2:0:0:
121,312,61595,1,8,0:0:0:0:
143,319,61684,1,2,0:0:0:0:
275,132,61862,1,10,0:0:0:0:
6,242,62039,2,0,P|23:236|63:223,1,59.4999981842042,8|8,0:0|0:0,0:0:0:0:
248,231,62217,6,0,B|166:213|204:148|90:119,1,178.499994552612,4|0,3:2|0:0,0:0:0:0:
66,49,62572,2,0,P|23:98|32:152,1,118.999996368408,10|0,0:0|0:0,0:0:0:0:
262,275,62927,1,2,3:2:0:0:
255,253,63016,1,8,0:0:0:0:
248,231,63104,1,2,0:0:0:0:
434,106,63282,2,0,P|414:188|409:226,1,118.999996368408,10|8,0:0|0:0,0:0:0:0:
460,347,63548,1,8,0:0:0:0:
481,339,63637,6,0,P|502:321|492:223,1,118.999996368408,0|0,3:0|0:0,0:0:0:0:
324,137,63992,1,8,0:0:0:0:
487,26,64169,1,2,0:0:0:0:
402,248,64347,6,0,P|396:222|386:180,1,59.4999981842042,2|8,3:2|0:0,0:0:0:0:
273,30,64524,2,0,P|267:56|257:98,1,59.4999981842042,2|0,0:0|0:0,0:0:0:0:
151,214,64702,2,0,P|145:188|135:146,1,59.4999981842042,10|0,0:0|0:0,0:0:0:0:
17,76,64879,1,10,0:0:0:0:
12,92,64968,1,8,0:0:0:0:
7,108,65057,6,0,P|85:77|183:47,1,178.499994552612,6|0,3:2|0:0,0:0:0:0:
264,112,65412,2,0,P|227:111|167:19,1,118.999996368408,10|0,0:0|0:0,0:0:0:0:
76,259,65767,1,2,3:2:0:0:
53,250,65856,1,8,0:0:0:0:
30,241,65945,1,2,0:0:0:0:
279,315,66122,2,0,P|235:328|152:351,1,118.999996368408,10|8,0:0|0:0,0:0:0:0:
86,368,66388,1,8,0:0:0:0:
86,368,66477,5,0,3:0:0:0:
241,233,66655,1,0,0:0:0:0:
359,384,66832,2,0,P|355:343|405:261,1,118.999996368408,10|0,0:0|0:0,0:0:0:0:
512,207,67187,1,2,3:2:0:0:
507,230,67276,1,8,0:0:0:0:
502,253,67365,1,2,0:0:0:0:
343,27,67542,1,10,0:0:0:0:
303,175,67720,2,0,P|330:165|376:150,1,59.4999981842042,8|8,0:0|0:0,0:0:0:0:
512,84,67897,6,0,P|440:64|327:20,1,178.499994552612,4|0,3:2|0:0,0:0:0:0:
264,0,68252,1,10,0:0:0:0:
151,161,68430,1,8,0:3:0:0:
143,138,68518,1,8,0:3:0:0:
135,115,68607,6,0,P|160:124|173:137,1,38.2499988327027,2|0,3:2|0:0,0:0:0:0:
285,97,68962,6,0,P|250:196|246:286,1,178.499994552612,14|0,0:0|0:0,0:0:0:0:
364,359,69317,2,0,P|341:351|289:338,1,59.4999981842042,4|0,3:2|0:0,0:0:0:0:
199,384,69495,5,8,0:0:0:0:
199,384,69584,1,8,0:0:0:0:
199,384,69672,2,0,P|163:375|133:368,1,59.4999981842042,0|0,3:0|0:0,0:0:0:0:
5,329,69850,1,10,0:0:0:0:
5,329,69939,1,8,0:0:0:0:
5,329,70027,2,0,P|28:323|71:314,1,59.4999981842042,2|0,3:2|0:0,0:0:0:0:
146,190,70205,5,10,0:0:0:0:
157,147,70293,1,8,0:0:0:0:
149,103,70382,1,10,0:3:0:0:
122,69,70471,1,4,0:3:0:0:
81,51,70560,1,6,0:3:0:0:
37,55,70648,1,4,0:3:0:0:
0,78,70737,6,0,P|7:156|16:262,1,178.499994552612,6|0,3:2|0:0,0:0:0:0:
113,313,71092,2,0,P|120:272|135:192,1,118.999996368408,10|0,0:0|0:0,0:0:0:0:
317,120,71447,1,2,3:2:0:0:
323,143,71536,1,8,0:0:0:0:
329,166,71625,1,2,0:0:0:0:
479,317,71803,2,0,P|508:285|495:184,1,118.999996368408,10|8,0:0|0:0,0:0:0:0:
477,143,72070,1,8,0:0:0:0:
477,143,72158,5,0,3:0:0:0:
367,245,72335,1,0,0:0:0:0:
280,15,72513,2,0,P|333:39|395:54,1,118.999996368408,10|0,0:0|0:0,0:0:0:0:
251,226,72868,1,2,3:2:0:0:
228,233,72956,1,8,0:0:0:0:
205,240,73045,1,2,0:0:0:0:
42,91,73223,2,0,P|112:59|123:136,1,178.499994552612,10|8,0:0|0:0,0:0:0:0:
6,306,73578,6,0,B|-26:259|-26:259|106:299,1,178.499994552612,4|0,3:2|0:0,0:0:0:0:
136,377,73933,2,0,L|213:352,1,59.4999981842042,10|0,0:0|0:0,0:0:0:0:
344,219,74110,1,8,0:0:0:0:
408,218,74199,1,8,0:0:0:0:
429,282,74288,1,14,3:2:0:0:
377,325,74376,2,0,P|325:309|235:284,1,118.999996368408,8|0,0:0|0:0,0:0:0:0:
132,217,74643,2,0,L|209:192,1,59.4999981842042,10|0,0:0|0:0,0:0:0:0:
302,88,74820,1,8,0:0:0:0:
253,39,74909,1,8,0:0:0:0:
189,64,74998,6,0,B|124:100|73:106|73:106|65:78|22:53,1,178.499994552612,6|0,3:2|0:0,0:0:0:0:
110,22,75353,2,0,B|145:0|145:0|134:49|116:156,1,178.499994552612,8|0,0:0|0:0,0:0:0:0:
37,184,75708,1,0,3:0:0:0:
48,210,75797,2,0,P|89:242|161:231,1,118.999996368408,8|0,0:0|0:0,0:0:0:0:
216,178,76063,1,10,0:0:0:0:
405,255,76240,1,10,0:0:0:0:
283,90,76418,6,0,P|267:171|249:305,1,178.499994552612,4|0,3:2|0:0,0:0:0:0:
240,347,76773,1,10,0:0:0:0:
72,121,76950,2,0,P|86:191|97:244,1,118.999996368408,2|0,0:0|3:0,0:0:0:0:
112,313,77217,1,8,0:0:0:0:
112,313,77305,1,2,0:0:0:0:
221,186,77483,1,10,0:0:0:0:
0,109,77660,6,0,B|89:98|62:29|167:22,1,178.499994552612,10|0,0:0|0:0,0:0:0:0:
228,74,78016,1,2,0:0:0:0:
446,0,78193,2,0,P|429:103|421:191,1,178.499994552612,10|0,0:0|0:0,0:0:0:0:
503,250,78548,2,0,P|523:208|492:122,1,118.999996368408,0|2,3:0|0:0,0:0:0:0:
363,287,78903,1,10,0:0:0:0:
232,193,79081,2,0,P|267:204|306:217,1,59.4999981842042,10|8,0:0|0:0,0:0:0:0:
336,77,79258,6,0,L|109:128,1,178.499994552612,4|0,3:2|0:0,0:0:0:0:
84,131,79613,1,10,0:0:0:0:
192,340,79791,2,0,P|158:306|175:227,1,118.999996368408,2|0,0:0|3:0,0:0:0:0:
232,193,80057,1,8,0:0:0:0:
232,193,80146,1,2,0:0:0:0:
359,300,80323,2,0,P|363:279|378:223,1,59.4999981842042,2|0,3:2|0:0,0:0:0:0:
512,139,80501,6,0,B|396:117|453:-4|307:-2,1,237.999992736817,14|0,0:0|0:0,0:0:0:0:
137,143,81033,2,0,P|131:116|118:59,1,59.4999981842042,2|0,3:2|0:0,0:0:0:0:
252,15,81211,2,0,P|236:133|229:245,1,178.499994552612,14|0,0:0|0:0,0:0:0:0:
225,271,81566,1,8,0:3:0:0:
0,316,81743,1,10,0:0:0:0:
38,270,81832,1,8,0:0:0:0:
97,267,81921,1,10,0:0:0:0:
140,308,82010,1,8,0:0:0:0:
145,366,82098,6,0,P|100:347|19:322,1,118.999996368408,4|0,3:2|0:0,0:0:0:0:
298,213,82453,2,0,P|345:198|429:174,1,118.999996368408,8|0,0:0|0:0,0:0:0:0:
115,171,82808,1,0,3:0:0:0:
100,164,82896,1,0,0:0:0:0:
85,158,82985,1,8,0:0:0:0:
69,153,83074,1,8,0:0:0:0:
54,148,83163,1,8,0:0:0:0:
338,27,83341,6,0,B|393:-4|393:-4|351:124,1,178.499994552612,14|0,0:0|0:0,0:0:0:0:
326,177,83696,1,8,0:3:0:0:
258,116,83874,1,10,0:3:0:0:
494,222,84051,1,10,0:0:0:0:
494,222,84140,1,8,0:0:0:0:
494,222,84229,1,0,3:0:0:0:
414,292,84406,1,2,0:0:0:0:
344,97,84584,1,2,0:0:0:0:
135,242,84761,6,0,B|257:214|188:132|354:116,1,237.999992736817,6|0,3:2|3:0,0:0:0:0:
14,163,85294,5,8,0:0:0:0:
116,321,85471,1,0,3:0:0:0:
185,36,85649,5,8,0:0:0:0:
112,340,85826,1,0,3:0:0:0:
346,160,86004,5,8,0:0:0:0:
108,358,86181,1,0,3:0:0:0:
185,36,86359,5,12,0:0:0:0:
341,336,86536,1,0,3:0:0:0:
373,13,86714,5,8,0:0:0:0:
167,264,86891,1,0,3:0:0:0:
482,180,87069,5,8,0:0:0:0:
133,99,87246,1,0,3:0:0:0:
469,191,87424,2,0,P|431:178|397:167,1,59.4999981842042,8|8,0:0|0:0,0:0:0:0:
117,111,87601,6,0,B|82:137|40:144|40:144|107:135|155:170|155:170|200:124|275:74|275:74|330:131|390:147|390:147|353:149|319:170,1,552.499974708558,6|0,3:2|0:0,0:0:0:0:
