osu file format v14

[General]
AudioFilename: audio.mp3
AudioLeadIn: 0
PreviewTime: 57863
Countdown: 0
SampleSet: Normal
StackLeniency: 0.7
Mode: 1
LetterboxInBreaks: 0
WidescreenStoryboard: 0

[Editor]
Bookmarks: 34765
DistanceSpacing: 1.2
BeatDivisor: 4
GridSize: 32
TimelineZoom: 1.4

[Metadata]
Title:Another colony (TV Size)
TitleUnicode:Another colony (TV Size)
Artist:TRUE
ArtistUnicode:TRUE
Creator:Faputa
Version:Oni
Source:転生したらスライムだった件
Tags:jacky10186 MTDex -GN Junior Tensei shitara Slime Datta Ken ending That Time I Got Reincarnated as a ed Karasawa Miho 唐澤美帆
BeatmapID:1832184
BeatmapSetID:875526

[Difficulty]
HPDrainRate:5
CircleSize:2
OverallDifficulty:5
ApproachRate:10
SliderMultiplier:1.4
SliderTickRate:1

[Events]
//Background and Video events
0,0,"BG.jpg",0,50
//Break Periods
//Storyboard Layer 0 (Background)
//Storyboard Layer 1 (Fail)
//Storyboard Layer 2 (Pass)
//Storyboard Layer 3 (Foreground)
//Storyboard Sound Samples

[TimingPoints]
82,355.029585798817,4,1,0,85,1,8
1148,355.029585798817,4,1,0,85,1,0
12508,-100,4,1,0,80,0,0
35230,-100,4,1,0,75,0,0
46591,-100,4,1,0,80,0,0
52272,-100,4,1,0,85,0,0
57952,-100,4,1,0,90,0,0
59372,-100,4,1,0,95,0,1
84934,-100,4,1,0,90,0,0

[HitObjects]
256,192,614,5,0,0:0:0:0:
256,192,702,1,0,0:0:0:0:
256,192,791,1,8,0:0:0:0:
256,192,1146,1,4,0:0:0:0:
256,192,1503,1,8,0:0:0:0:
256,192,1680,1,8,0:0:0:0:
256,192,1858,1,0,0:0:0:0:
256,192,1946,1,8,0:0:0:0:
256,192,2035,1,0,0:0:0:0:
256,192,2213,1,8,0:0:0:0:
256,192,2390,1,8,0:0:0:0:
256,192,2479,1,8,0:0:0:0:
256,192,2568,1,0,0:0:0:0:
256,192,2923,1,8,0:0:0:0:
256,192,3100,1,0,0:0:0:0:
256,192,3278,1,8,0:0:0:0:
256,192,3366,1,0,0:0:0:0:
256,192,3455,1,8,0:0:0:0:
256,192,3633,1,0,0:0:0:0:
256,192,3810,1,0,0:0:0:0:
256,192,3988,1,12,0:0:0:0:
256,192,4343,1,8,0:0:0:0:
256,192,4520,1,8,0:0:0:0:
256,192,4698,1,0,0:0:0:0:
256,192,4787,1,0,0:0:0:0:
256,192,4875,1,0,0:0:0:0:
256,192,5053,1,8,0:0:0:0:
256,192,5230,1,8,0:0:0:0:
256,192,5319,1,8,0:0:0:0:
256,192,5408,1,0,0:0:0:0:
256,192,5585,1,8,0:0:0:0:
256,192,5763,1,8,0:0:0:0:
256,192,6118,1,8,0:0:0:0:
256,192,6207,1,8,0:0:0:0:
256,192,6295,1,0,0:0:0:0:
256,192,6384,1,0,0:0:0:0:
256,192,6473,1,8,0:0:0:0:
256,192,6650,1,8,0:0:0:0:
256,192,6828,1,4,0:0:0:0:
256,192,7005,1,0,0:0:0:0:
256,192,7361,1,0,0:0:0:0:
256,192,7538,1,8,0:0:0:0:
256,192,7893,1,0,0:0:0:0:
256,192,8071,1,8,0:0:0:0:
256,192,8248,1,0,0:0:0:0:
256,192,8426,1,8,0:0:0:0:
256,192,8781,1,0,0:0:0:0:
256,192,8958,1,8,0:0:0:0:
256,192,9136,1,8,0:0:0:0:
256,192,9313,1,0,0:0:0:0:
256,192,9491,1,8,0:0:0:0:
256,192,9668,1,12,0:0:0:0:
256,192,9846,1,0,0:0:0:0:
256,192,10201,1,8,0:0:0:0:
256,192,10378,1,0,0:0:0:0:
256,192,10733,1,12,0:0:0:0:
256,192,11266,1,8,0:0:0:0:
256,192,11621,1,0,0:0:0:0:
256,192,11798,1,12,0:0:0:0:
256,192,11976,1,12,0:0:0:0:
256,192,12508,1,12,0:0:0:0:
256,192,12863,1,0,0:0:0:0:
256,192,13041,1,8,0:0:0:0:
256,192,13219,1,8,0:0:0:0:
256,192,13574,1,8,0:0:0:0:
256,192,13751,1,0,0:0:0:0:
256,192,13929,1,0,0:0:0:0:
256,192,14284,1,8,0:0:0:0:
256,192,14639,1,8,0:0:0:0:
256,192,14994,1,0,0:0:0:0:
256,192,15171,1,8,0:0:0:0:
256,192,15349,1,0,0:0:0:0:
256,192,15704,1,8,0:0:0:0:
256,192,15881,1,0,0:0:0:0:
256,192,16059,1,0,0:0:0:0:
256,192,16236,1,8,0:0:0:0:
256,192,16591,1,8,0:0:0:0:
256,192,16769,1,0,0:0:0:0:
256,192,17124,1,0,0:0:0:0:
256,192,17479,1,8,0:0:0:0:
256,192,17834,1,0,0:0:0:0:
256,192,18011,1,0,0:0:0:0:
256,192,18189,1,12,0:0:0:0:
256,192,18544,1,0,0:0:0:0:
256,192,18721,1,8,0:0:0:0:
256,192,18899,1,8,0:0:0:0:
256,192,19254,1,8,0:0:0:0:
256,192,19432,1,0,0:0:0:0:
256,192,19609,1,8,0:0:0:0:
256,192,19964,1,0,0:0:0:0:
256,192,20142,1,8,0:0:0:0:
256,192,20319,1,8,0:0:0:0:
256,192,20674,1,0,0:0:0:0:
256,192,20852,1,8,0:0:0:0:
256,192,21029,1,0,0:0:0:0:
256,192,21384,1,8,0:0:0:0:
256,192,21562,1,0,0:0:0:0:
256,192,21917,1,8,0:0:0:0:
256,192,22094,1,0,0:0:0:0:
256,192,22272,1,0,0:0:0:0:
256,192,22361,1,0,0:0:0:0:
256,192,22449,1,8,0:0:0:0:
256,192,22804,1,0,0:0:0:0:
256,192,22982,1,8,0:0:0:0:
256,192,23337,1,8,0:0:0:0:
256,192,23514,1,0,0:0:0:0:
256,192,23692,1,0,0:0:0:0:
256,192,23869,1,12,0:0:0:0:
256,192,24224,1,8,0:0:0:0:
256,192,24402,1,0,0:0:0:0:
256,192,24579,1,0,0:0:0:0:
256,192,24757,1,8,0:0:0:0:
256,192,25112,1,0,0:0:0:0:
256,192,25290,1,8,0:0:0:0:
256,192,25467,1,0,0:0:0:0:
256,192,25822,1,8,0:0:0:0:
256,192,26000,1,0,0:0:0:0:
256,192,26177,1,8,0:0:0:0:
256,192,26532,1,8,0:0:0:0:
256,192,26710,1,0,0:0:0:0:
256,192,27065,1,0,0:0:0:0:
256,192,27242,1,0,0:0:0:0:
256,192,27420,1,8,0:0:0:0:
256,192,27597,1,8,0:0:0:0:
256,192,27952,1,0,0:0:0:0:
256,192,28130,1,8,0:0:0:0:
256,192,28307,1,0,0:0:0:0:
256,192,28662,1,8,0:0:0:0:
256,192,28840,1,0,0:0:0:0:
256,192,29017,1,8,0:0:0:0:
256,192,29195,1,0,0:0:0:0:
256,192,29372,1,8,0:0:0:0:
256,192,29461,1,8,0:0:0:0:
256,192,29550,1,0,0:0:0:0:
256,192,29905,1,8,0:0:0:0:
256,192,30082,1,0,0:0:0:0:
256,192,30260,1,8,0:0:0:0:
256,192,30615,1,8,0:0:0:0:
256,192,30792,1,8,0:0:0:0:
256,192,30970,1,0,0:0:0:0:
256,192,31148,1,8,0:0:0:0:
256,192,31325,1,0,0:0:0:0:
256,192,31680,1,8,0:0:0:0:
256,192,32035,1,0,0:0:0:0:
256,192,32213,1,0,0:0:0:0:
256,192,32390,1,8,0:0:0:0:
256,192,32923,1,0,0:0:0:0:
256,192,33100,1,8,0:0:0:0:
256,192,33366,1,8,0:0:0:0:
256,192,33633,1,8,0:0:0:0:
256,192,33810,1,0,0:0:0:0:
256,192,33988,1,8,0:0:0:0:
256,192,34165,1,0,0:0:0:0:
256,192,34343,1,0,0:0:0:0:
256,192,34520,1,8,0:0:0:0:
256,192,34698,1,8,0:0:0:0:
256,192,34875,1,0,0:0:0:0:
256,192,35230,1,12,0:0:0:0:
256,192,35408,1,8,0:0:0:0:
256,192,35763,1,0,0:0:0:0:
256,192,35940,1,8,0:0:0:0:
256,192,36029,1,8,0:0:0:0:
256,192,36118,1,0,0:0:0:0:
256,192,36295,1,8,0:0:0:0:
256,192,36473,1,8,0:0:0:0:
256,192,36650,1,0,0:0:0:0:
256,192,36828,1,8,0:0:0:0:
256,192,37005,1,0,0:0:0:0:
256,192,37183,1,8,0:0:0:0:
256,192,37272,1,8,0:0:0:0:
256,192,37361,1,8,0:0:0:0:
256,192,38071,1,12,0:0:0:0:
256,192,38248,1,8,0:0:0:0:
256,192,38603,1,0,0:0:0:0:
256,192,38781,1,8,0:0:0:0:
256,192,38869,1,8,0:0:0:0:
256,192,38958,1,0,0:0:0:0:
256,192,39136,1,8,0:0:0:0:
256,192,39313,1,8,0:0:0:0:
256,192,39491,1,0,0:0:0:0:
256,192,39668,1,12,0:0:0:0:
256,192,40023,1,0,0:0:0:0:
256,192,40201,1,12,0:0:0:0:
256,192,40556,1,0,0:0:0:0:
256,192,40733,1,0,0:0:0:0:
256,192,40911,1,12,0:0:0:0:
256,192,41088,1,8,0:0:0:0:
256,192,41443,1,0,0:0:0:0:
256,192,41621,1,8,0:0:0:0:
256,192,41798,1,0,0:0:0:0:
256,192,41887,1,0,0:0:0:0:
256,192,41976,1,0,0:0:0:0:
256,192,42153,1,8,0:0:0:0:
256,192,42331,1,0,0:0:0:0:
256,192,42508,1,8,0:0:0:0:
256,192,42863,1,0,0:0:0:0:
256,192,43041,1,12,0:0:0:0:
256,192,43396,1,8,0:0:0:0:
256,192,43514,1,8,0:0:0:0:
256,192,43633,1,8,0:0:0:0:
256,192,43751,1,4,0:0:0:0:
256,192,44106,1,0,0:0:0:0:
256,192,44284,1,8,0:0:0:0:
256,192,44461,1,8,0:0:0:0:
256,192,44639,1,0,0:0:0:0:
256,192,44727,1,0,0:0:0:0:
256,192,44816,1,0,0:0:0:0:
256,192,44994,1,12,0:0:0:0:
256,192,45349,1,8,0:0:0:0:
256,192,45526,1,8,0:0:0:0:
256,192,45615,1,8,0:0:0:0:
256,192,45704,1,0,0:0:0:0:
256,192,45881,1,8,0:0:0:0:
256,192,46059,1,8,0:0:0:0:
256,192,46148,1,8,0:0:0:0:
256,192,46236,1,0,0:0:0:0:
256,192,46414,1,0,0:0:0:0:
256,192,46591,1,12,0:0:0:0:
256,192,46946,1,8,0:0:0:0:
256,192,47301,1,0,0:0:0:0:
256,192,47390,1,8,0:0:0:0:
256,192,47479,1,0,0:0:0:0:
256,192,47656,1,8,0:0:0:0:
256,192,48011,1,0,0:0:0:0:
256,192,48100,1,0,0:0:0:0:
256,192,48189,1,0,0:0:0:0:
256,192,48366,1,8,0:0:0:0:
256,192,48544,1,0,0:0:0:0:
256,192,48721,1,8,0:0:0:0:
256,192,49076,1,0,0:0:0:0:
256,192,49432,1,12,0:0:0:0:
384,288,49787,1,8,0:0:0:0:
256,192,50142,1,0,0:0:0:0:
256,192,50230,1,8,0:0:0:0:
256,192,50319,1,0,0:0:0:0:
256,192,50497,1,8,0:0:0:0:
256,192,50674,1,8,0:0:0:0:
256,192,50852,1,0,0:0:0:0:
256,192,51029,1,12,0:0:0:0:
256,192,51384,1,8,0:0:0:0:
256,192,51562,1,0,0:0:0:0:
256,192,51650,1,0,0:0:0:0:
256,192,51739,1,0,0:0:0:0:
256,192,51917,1,8,0:0:0:0:
256,192,52094,1,0,0:0:0:0:
256,192,52272,1,12,0:0:0:0:
256,192,52627,1,8,0:0:0:0:
256,192,52804,1,0,0:0:0:0:
256,192,52893,1,0,0:0:0:0:
256,192,52982,1,0,0:0:0:0:
256,192,53159,1,0,0:0:0:0:
256,192,53337,1,8,0:0:0:0:
256,192,53692,1,0,0:0:0:0:
256,192,53869,1,0,0:0:0:0:
256,192,54047,1,8,0:0:0:0:
256,192,54224,1,8,0:0:0:0:
256,192,54313,1,8,0:0:0:0:
256,192,54402,1,0,0:0:0:0:
256,192,54579,1,8,0:0:0:0:
256,192,54757,1,0,0:0:0:0:
256,192,55112,1,4,0:0:0:0:
256,192,55467,1,8,0:0:0:0:
256,192,55645,1,0,0:0:0:0:
256,192,55733,1,0,0:0:0:0:
256,192,55822,1,8,0:0:0:0:
256,192,56000,1,0,0:0:0:0:
256,192,56177,1,8,0:0:0:0:
256,192,56266,1,8,0:0:0:0:
256,192,56355,1,0,0:0:0:0:
256,192,56532,1,8,0:0:0:0:
256,192,56710,1,0,0:0:0:0:
256,192,56887,1,8,0:0:0:0:
256,192,56976,1,8,0:0:0:0:
256,192,57065,1,8,0:0:0:0:
256,192,57242,1,0,0:0:0:0:
256,192,57331,1,0,0:0:0:0:
256,192,57420,1,0,0:0:0:0:
256,192,57597,1,8,0:0:0:0:
256,192,57952,1,12,0:0:0:0:
256,192,58130,1,12,0:0:0:0:
256,192,58485,1,0,0:0:0:0:
256,192,58574,1,0,0:0:0:0:
256,192,58662,1,8,0:0:0:0:
256,192,58840,1,0,0:0:0:0:
256,192,59017,1,12,0:0:0:0:
256,192,59372,1,4,0:0:0:0:
256,192,59727,1,8,0:0:0:0:
256,192,59905,1,8,0:0:0:0:
256,192,60082,1,0,0:0:0:0:
256,192,60171,1,8,0:0:0:0:
256,192,60437,1,0,0:0:0:0:
256,192,60792,1,8,0:0:0:0:
256,192,60970,1,8,0:0:0:0:
256,192,61148,1,0,0:0:0:0:
256,192,61325,1,0,0:0:0:0:
256,192,61503,1,8,0:0:0:0:
256,192,61591,1,0,0:0:0:0:
256,192,61858,1,8,0:0:0:0:
256,192,62035,1,8,0:0:0:0:
256,192,62213,1,4,0:0:0:0:
256,192,62568,1,8,0:0:0:0:
256,192,62745,1,8,0:0:0:0:
256,192,62923,1,0,0:0:0:0:
256,192,63011,1,8,0:0:0:0:
256,192,63278,1,0,0:0:0:0:
256,192,63633,1,0,0:0:0:0:
256,192,63810,1,0,0:0:0:0:
256,192,63988,1,8,0:0:0:0:
256,192,64165,1,8,0:0:0:0:
256,192,64343,1,0,0:0:0:0:
256,192,64432,1,8,0:0:0:0:
256,192,64520,1,8,0:0:0:0:
256,192,64698,1,0,0:0:0:0:
256,192,64875,1,8,0:0:0:0:
256,192,65053,1,4,0:0:0:0:
256,192,65408,1,8,0:0:0:0:
256,192,65763,1,0,0:0:0:0:
256,192,65852,1,8,0:0:0:0:
256,192,66118,1,8,0:0:0:0:
256,192,66473,1,0,0:0:0:0:
256,192,66650,1,0,0:0:0:0:
256,192,66828,1,8,0:0:0:0:
256,192,67183,1,8,0:0:0:0:
256,192,67361,1,8,0:0:0:0:
256,192,67538,1,0,0:0:0:0:
256,192,67716,1,8,0:0:0:0:
256,192,67893,1,4,0:0:0:0:
256,192,68248,1,8,0:0:0:0:
256,192,68337,1,8,0:0:0:0:
256,192,68426,1,0,0:0:0:0:
256,192,68514,1,0,0:0:0:0:
256,192,68603,1,8,0:0:0:0:
256,192,68781,1,0,0:0:0:0:
256,192,68958,1,12,0:0:0:0:
256,192,69313,1,4,0:0:0:0:
256,192,69668,1,8,0:0:0:0:
256,192,69757,1,8,0:0:0:0:
256,192,69846,1,0,0:0:0:0:
256,192,70023,1,8,0:0:0:0:
256,192,70201,1,8,0:0:0:0:
256,192,70378,1,0,0:0:0:0:
256,192,70497,1,0,0:0:0:0:
256,192,70615,1,0,0:0:0:0:
256,192,70733,1,12,0:0:0:0:
256,192,71088,1,8,0:0:0:0:
256,192,71266,1,8,0:0:0:0:
256,192,71443,1,0,0:0:0:0:
256,192,71532,1,8,0:0:0:0:
256,192,71798,1,0,0:0:0:0:
256,192,72153,1,0,0:0:0:0:
256,192,72331,1,0,0:0:0:0:
256,192,72508,1,8,0:0:0:0:
256,192,72686,1,0,0:0:0:0:
256,192,72863,1,8,0:0:0:0:
256,192,72952,1,0,0:0:0:0:
256,192,73219,1,8,0:0:0:0:
256,192,73574,1,4,0:0:0:0:
256,192,73929,1,8,0:0:0:0:
256,192,74106,1,8,0:0:0:0:
256,192,74284,1,0,0:0:0:0:
256,192,74372,1,8,0:0:0:0:
256,192,74639,1,0,0:0:0:0:
256,192,74816,1,8,0:0:0:0:
256,192,74994,1,4,0:0:0:0:
256,192,75349,1,8,0:0:0:0:
256,192,75526,1,8,0:0:0:0:
256,192,75704,1,0,0:0:0:0:
256,192,75792,1,0,0:0:0:0:
256,192,75881,1,8,0:0:0:0:
256,192,76059,1,0,0:0:0:0:
256,192,76236,1,8,0:0:0:0:
256,192,76414,1,4,0:0:0:0:
256,192,76769,1,0,0:0:0:0:
256,192,77124,1,8,0:0:0:0:
256,192,77301,1,0,0:0:0:0:
256,192,77479,1,8,0:0:0:0:
256,192,77656,1,0,0:0:0:0:
256,192,77745,1,0,0:0:0:0:
256,192,77834,1,8,0:0:0:0:
256,192,78011,1,8,0:0:0:0:
256,192,78189,1,0,0:0:0:0:
256,192,78544,1,0,0:0:0:0:
256,192,78633,1,8,0:0:0:0:
256,192,78721,1,0,0:0:0:0:
256,192,78899,1,8,0:0:0:0:
256,192,79076,1,8,0:0:0:0:
256,192,79254,1,4,0:0:0:0:
256,192,79609,1,8,0:0:0:0:
256,192,79787,1,8,0:0:0:0:
256,192,79964,1,0,0:0:0:0:
256,192,80053,1,8,0:0:0:0:
256,192,80319,1,0,0:0:0:0:
256,192,80497,1,4,0:0:0:0:
256,192,80852,1,8,0:0:0:0:
256,192,81029,1,0,0:0:0:0:
256,192,81207,1,12,0:0:0:0:
256,192,81562,1,8,0:0:0:0:
256,192,81739,1,0,0:0:0:0:
256,192,81828,1,0,0:0:0:0:
256,192,81917,1,0,0:0:0:0:
256,192,82094,1,12,0:0:0:0:
256,192,82449,1,8,0:0:0:0:
256,192,82627,1,8,0:0:0:0:
256,192,82804,1,0,0:0:0:0:
256,192,82982,1,0,0:0:0:0:
256,192,83071,1,0,0:0:0:0:
256,192,83159,1,8,0:0:0:0:
256,192,83337,1,4,0:0:0:0:
256,192,83692,1,0,0:0:0:0:
256,192,83869,1,8,0:0:0:0:
256,192,84047,1,0,0:0:0:0:
256,192,84224,1,12,0:0:0:0:
256,192,84402,1,0,0:0:0:0:
256,192,84491,1,8,0:0:0:0:
256,192,84579,1,8,0:0:0:0:
256,192,84757,1,4,0:0:0:0:
256,192,85112,1,0,0:0:0:0:
256,192,85290,1,8,0:0:0:0:
256,192,85645,1,8,0:0:0:0:
256,192,85822,1,0,0:0:0:0:
256,192,86000,1,8,0:0:0:0:
256,192,86177,1,0,0:0:0:0:
256,192,86355,1,12,0:0:0:0:
256,192,86710,1,8,0:0:0:0:
256,192,86887,1,0,0:0:0:0:
256,192,86976,1,0,0:0:0:0:
256,192,87065,1,8,0:0:0:0:
256,192,87242,1,0,0:0:0:0:
256,192,87420,1,8,0:0:0:0:
256,192,87508,1,0,0:0:0:0:
256,192,87597,1,8,0:0:0:0:
256,192,87775,12,8,88485,0:0:0:0:
