osu file format v14

[General]
AudioFilename: audio.mp3
AudioLeadIn: 0
PreviewTime: 29683
Countdown: 0
SampleSet: Soft
StackLeniency: 0.7
Mode: 3
LetterboxInBreaks: 0
SpecialStyle: 0
WidescreenStoryboard: 0

[Editor]
DistanceSpacing: 1
BeatDivisor: 4
GridSize: 8
TimelineZoom: 3.299999

[Metadata]
Title:Supervelocidad
TitleUnicode:Supervelocidad
Artist:TRONIC
ArtistUnicode:TRONIC
Creator:Lumpita
Version:Dificil
Source:
Tags:punk punk-rock espaƱol pop-punk rock spanish ke patine la risa chile -ryu-
BeatmapID:4445096
BeatmapSetID:2116670

[Difficulty]
HPDrainRate:7
CircleSize:4
OverallDifficulty:7
ApproachRate:5
SliderMultiplier:1.4
SliderTickRate:1

[Events]
//Background and Video events
0,0,"Supervelocidaaaaaaaaaaaa.jpg",0,0
//Break Periods
//Storyboard Layer 0 (Background)
//Storyboard Layer 1 (Fail)
//Storyboard Layer 2 (Pass)
//Storyboard Layer 3 (Foreground)
//Storyboard Layer 4 (Overlay)
//Storyboard Sound Samples
Sample,3221,0,"openhit.wav",70
Sample,5683,0,"openhit.wav",70
Sample,8145,0,"openhit.wav",70
Sample,10606,0,"openhit.wav",70
Sample,15529,0,"openhit.wav",70
Sample,30298,0,"openhit.wav",70
Sample,32760,0,"openhit.wav",70
Sample,35221,0,"openhit.wav",70
Sample,37683,0,"openhit.wav",70
Sample,40145,0,"openhit.wav",70
Sample,40760,0,"openhit.wav",70
Sample,41375,0,"openhit.wav",70

[TimingPoints]
145,307.692307692308,4,2,1,60,1,0

[HitObjects]
64,192,145,1,2,0:0:0:0:
192,192,145,1,4,0:0:0:0:
320,192,145,128,0,2145:0:0:0:0:
64,192,2145,1,2,0:0:0:0:
448,192,2298,1,8,0:0:0:0:
320,192,2375,1,8,0:0:0:0:
192,192,2452,1,8,0:0:0:0:
64,192,2529,1,8,0:0:0:0:
192,192,2606,1,2,0:0:0:0:
320,192,2606,1,4,0:0:0:0:
448,192,2606,128,0,2914:0:0:0:0:
64,192,2914,128,8,3221:0:0:0:0:
192,192,2914,1,0,0:0:0:70:openhit.wav
448,192,3221,1,2,0:0:0:0:
320,192,3375,1,2,0:0:0:0:
192,192,3529,1,8,0:0:0:0:
320,192,3529,1,0,0:0:0:70:openhit.wav
64,192,3683,1,4,0:0:0:0:
192,192,3683,128,2,3991:0:0:0:0:
448,192,3683,1,0,0:0:0:0:
448,192,3991,1,2,0:0:0:0:
320,192,4145,1,8,0:0:0:0:
448,192,4145,1,0,0:0:0:70:openhit.wav
192,192,4298,1,2,0:0:0:0:
320,192,4452,1,0,0:0:0:70:openhit.wav
64,192,4606,1,2,0:0:0:0:
64,192,4760,1,8,0:0:0:0:
192,192,4760,1,0,0:0:0:70:openhit.wav
320,192,4914,1,8,0:0:0:0:
192,192,4991,1,8,0:0:0:0:
64,192,5068,1,4,0:0:0:0:
320,192,5068,128,2,5375:0:0:0:0:
448,192,5068,1,0,0:0:0:0:
192,192,5375,128,8,5683:0:0:0:0:
448,192,5375,1,0,0:0:0:70:openhit.wav
64,192,5683,1,2,0:0:0:0:
320,192,5837,1,2,0:0:0:0:
192,192,5991,1,8,0:0:0:0:
320,192,5991,1,0,0:0:0:70:openhit.wav
448,192,6145,1,2,0:0:0:0:
64,192,6298,1,0,0:0:0:70:openhit.wav
192,192,6452,1,2,0:0:0:0:
192,192,6606,1,8,0:0:0:0:
448,192,6606,1,0,0:0:0:70:openhit.wav
320,192,6760,1,2,0:0:0:0:
64,192,6914,1,0,0:0:0:70:openhit.wav
192,192,7068,1,2,0:0:0:0:
448,192,7221,1,8,0:0:0:0:
64,192,7298,1,8,0:0:0:0:
192,192,7375,1,8,0:0:0:0:
320,192,7452,1,8,0:0:0:0:
64,192,7529,128,4,7837:0:0:0:0:
192,192,7529,1,2,0:0:0:0:
448,192,7529,1,8,0:0:0:0:
192,192,7837,1,8,0:0:0:0:
448,192,7837,128,0,8145:0:0:0:70:openhit.wav
320,192,8145,1,2,0:0:0:0:
64,192,8298,1,2,0:0:0:0:
64,192,8452,1,8,0:0:0:0:
320,192,8452,1,0,0:0:0:70:openhit.wav
192,192,8606,1,2,0:0:0:0:
320,192,8606,128,4,8914:0:0:0:0:
448,192,8606,1,0,0:0:0:0:
448,192,8914,1,2,0:0:0:0:
64,192,9068,1,8,0:0:0:0:
448,192,9068,1,0,0:0:0:70:openhit.wav
192,192,9221,1,2,0:0:0:0:
320,192,9375,1,0,0:0:0:70:openhit.wav
64,192,9529,1,2,0:0:0:0:
64,192,9683,1,8,0:0:0:0:
448,192,9683,1,0,0:0:0:70:openhit.wav
320,192,9837,1,8,0:0:0:0:
192,192,9914,1,8,0:0:0:0:
64,192,9991,1,4,0:0:0:0:
320,192,9991,128,2,10298:0:0:0:0:
448,192,9991,1,0,0:0:0:0:
192,192,10298,128,8,10606:0:0:0:0:
448,192,10298,1,0,0:0:0:70:openhit.wav
64,192,10606,1,2,0:0:0:0:
320,192,10760,1,2,0:0:0:0:
320,192,10914,1,8,0:0:0:0:
448,192,10914,1,0,0:0:0:70:openhit.wav
192,192,11068,1,2,0:0:0:0:
448,192,11221,1,0,0:0:0:70:openhit.wav
64,192,11375,1,2,0:0:0:0:
64,192,11529,1,8,0:0:0:0:
320,192,11529,1,0,0:0:0:70:openhit.wav
192,192,11683,1,2,0:0:0:0:
320,192,11837,1,0,0:0:0:70:openhit.wav
448,192,11991,1,2,0:0:0:0:
64,192,12145,1,8,0:0:0:0:
448,192,12145,1,0,0:0:0:70:openhit.wav
192,192,12298,1,2,0:0:0:0:
64,192,12452,1,8,0:0:0:0:
320,192,12452,1,4,0:0:0:0:
448,192,12452,1,0,0:0:0:0:
320,192,12606,1,2,0:0:0:0:
64,192,12760,1,8,0:0:0:0:
192,192,12760,1,0,0:0:0:70:openhit.wav
448,192,12760,1,0,0:0:0:0:
192,192,12914,1,2,0:0:0:0:
64,192,13068,1,8,0:0:0:0:
320,192,13068,1,0,0:0:0:70:openhit.wav
448,192,13068,1,0,0:0:0:0:
448,192,13221,1,2,0:0:0:0:
64,192,13375,1,8,0:0:0:0:
192,192,13375,1,0,0:0:0:70:openhit.wav
320,192,13375,1,0,0:0:0:0:
64,192,13529,1,2,0:0:0:0:
192,192,13683,1,8,0:0:0:0:
320,192,13683,1,0,0:0:0:70:openhit.wav
448,192,13683,1,0,0:0:0:0:
192,192,13837,1,2,0:0:0:0:
64,192,13991,1,8,0:0:0:0:
320,192,13991,1,0,0:0:0:70:openhit.wav
448,192,13991,1,0,0:0:0:0:
448,192,14145,1,2,0:0:0:0:
64,192,14298,1,8,0:0:0:0:
192,192,14298,1,0,0:0:0:70:openhit.wav
320,192,14298,1,0,0:0:0:0:
320,192,14452,1,2,0:0:0:0:
64,192,14606,1,8,0:0:0:0:
192,192,14606,1,4,0:0:0:0:
448,192,14606,1,0,0:0:0:0:
64,192,14914,128,2,15221:0:0:0:0:
192,192,14914,1,4,0:0:0:0:
320,192,14914,1,0,0:0:0:0:
192,192,15221,1,8,0:0:0:0:
448,192,15221,128,0,15529:0:0:0:70:openhit.wav
320,192,15529,1,2,0:0:0:0:
64,192,15683,1,2,0:0:0:0:
64,192,15837,1,8,0:0:0:0:
192,192,15837,1,0,0:0:0:70:openhit.wav
448,192,15991,1,2,0:0:0:0:
320,192,16145,1,0,0:0:0:70:openhit.wav
192,192,16298,1,2,0:0:0:0:
192,192,16452,1,8,0:0:0:0:
448,192,16452,1,0,0:0:0:70:openhit.wav
64,192,16606,1,2,0:0:0:0:
448,192,16760,1,0,0:0:0:70:openhit.wav
320,192,16914,1,2,0:0:0:0:
64,192,17068,1,8,0:0:0:0:
320,192,17068,1,0,0:0:0:70:openhit.wav
64,192,17375,1,4,0:0:0:0:
320,192,17375,1,2,0:0:0:0:
448,192,17375,1,0,0:0:0:0:
192,192,17529,1,2,0:0:0:0:
448,192,17529,1,0,0:0:0:70:openhit.wav
64,192,18606,128,2,19221:0:0:0:0:
320,192,18606,1,4,0:0:0:0:
448,192,18606,1,0,0:0:0:0:
192,192,19221,1,2,0:0:0:0:
320,192,19221,1,4,0:0:0:0:
448,192,19221,128,0,19837:0:0:0:0:
64,192,19837,1,8,0:0:0:0:
192,192,19837,1,4,0:0:0:0:
320,192,19837,1,0,0:0:0:0:
64,192,19991,1,2,0:0:0:0:
192,192,20145,1,8,0:0:0:0:
320,192,20145,1,0,0:0:0:70:slap-crash.wav
448,192,20145,1,0,0:0:0:0:
448,192,20298,1,2,0:0:0:0:
64,192,20452,1,8,0:0:0:0:
192,192,20452,1,0,0:0:0:70:slap-crash.wav
320,192,20452,1,0,0:0:0:0:
192,192,20606,1,2,0:0:0:0:
64,192,20760,1,8,0:0:0:0:
320,192,20760,1,0,0:0:0:70:slap-crash.wav
448,192,20760,1,0,0:0:0:0:
320,192,20914,1,2,0:0:0:0:
64,192,21068,1,8,0:0:0:0:
192,192,21068,1,0,0:0:0:70:slap-crash.wav
448,192,21068,1,0,0:0:0:0:
64,192,21221,1,2,0:0:0:0:
192,192,21375,1,8,0:0:0:0:
320,192,21375,1,0,0:0:0:70:slap-crash.wav
448,192,21375,1,0,0:0:0:0:
448,192,21529,1,2,0:0:0:0:
64,192,21683,1,8,0:0:0:0:
192,192,21683,1,0,0:0:0:70:slap-crash.wav
320,192,21683,1,0,0:0:0:0:
448,192,21837,1,2,0:0:0:0:
320,192,21914,1,2,0:0:0:0:
64,192,21991,1,8,0:0:0:0:
192,192,21991,1,0,0:0:0:70:slap-crash.wav
192,192,22298,1,8,0:0:0:0:
320,192,22298,1,4,0:0:0:0:
448,192,22298,1,0,0:0:0:0:
192,192,22452,1,2,0:0:0:0:
64,192,22606,1,8,0:0:0:0:
320,192,22606,1,0,0:0:0:70:slap-crash.wav
448,192,22606,1,0,0:0:0:0:
64,192,22760,1,2,0:0:0:0:
192,192,22914,1,8,0:0:0:0:
320,192,22914,1,0,0:0:0:70:slap-crash.wav
448,192,22914,1,0,0:0:0:0:
320,192,23068,1,2,0:0:0:0:
64,192,23221,1,8,0:0:0:0:
192,192,23221,1,0,0:0:0:70:slap-crash.wav
448,192,23221,1,0,0:0:0:0:
448,192,23375,1,2,0:0:0:0:
64,192,23529,1,8,0:0:0:0:
192,192,23529,1,0,0:0:0:70:slap-crash.wav
320,192,23529,1,0,0:0:0:0:
192,192,23683,1,2,0:0:0:0:
64,192,23837,1,8,0:0:0:0:
320,192,23837,1,0,0:0:0:70:slap-crash.wav
448,192,23837,1,0,0:0:0:0:
320,192,23991,1,2,0:0:0:0:
64,192,24145,1,8,0:0:0:0:
192,192,24145,1,0,0:0:0:70:slap-crash.wav
448,192,24145,1,0,0:0:0:0:
320,192,24298,1,2,0:0:0:0:
192,192,24375,1,2,0:0:0:0:
64,192,24452,1,8,0:0:0:0:
448,192,24452,1,0,0:0:0:70:slap-crash.wav
64,192,24760,1,4,0:0:0:0:
192,192,24760,1,8,0:0:0:0:
320,192,24760,1,0,0:0:0:0:
64,192,24914,1,2,0:0:0:0:
192,192,25068,1,8,0:0:0:0:
320,192,25068,1,0,0:0:0:70:slap-crash.wav
448,192,25068,1,0,0:0:0:0:
448,192,25221,1,2,0:0:0:0:
64,192,25375,1,8,0:0:0:0:
192,192,25375,1,0,0:0:0:70:slap-crash.wav
320,192,25375,1,0,0:0:0:0:
320,192,25529,1,2,0:0:0:0:
64,192,25683,1,8,0:0:0:0:
192,192,25683,1,0,0:0:0:70:slap-crash.wav
448,192,25683,1,0,0:0:0:0:
64,192,25837,1,2,0:0:0:0:
192,192,25991,1,8,0:0:0:0:
320,192,25991,1,0,0:0:0:70:slap-crash.wav
448,192,25991,1,0,0:0:0:0:
192,192,26145,1,2,0:0:0:0:
64,192,26298,1,8,0:0:0:0:
320,192,26298,1,0,0:0:0:70:slap-crash.wav
448,192,26298,1,0,0:0:0:0:
448,192,26452,1,2,0:0:0:0:
64,192,26606,1,8,0:0:0:0:
192,192,26606,1,0,0:0:0:70:slap-crash.wav
320,192,26606,1,0,0:0:0:0:
448,192,26760,1,2,0:0:0:0:
320,192,26837,1,2,0:0:0:0:
64,192,26914,1,8,0:0:0:0:
192,192,26914,1,0,0:0:0:70:slap-crash.wav
64,192,27221,1,4,0:0:0:0:
192,192,27221,1,8,0:0:0:0:
320,192,27221,1,0,0:0:0:0:
64,192,27375,1,2,0:0:0:0:
192,192,27529,1,8,0:0:0:0:
320,192,27529,1,0,0:0:0:70:slap-crash.wav
448,192,27529,1,0,0:0:0:0:
320,192,27683,1,2,0:0:0:0:
64,192,27837,1,8,0:0:0:0:
192,192,27837,1,0,0:0:0:70:slap-crash.wav
448,192,27837,1,0,0:0:0:0:
192,192,27991,1,2,0:0:0:0:
64,192,28145,1,8,0:0:0:0:
320,192,28145,1,0,0:0:0:70:slap-crash.wav
448,192,28145,1,0,0:0:0:0:
448,192,28298,1,2,0:0:0:0:
64,192,28452,1,10,0:0:0:0:
192,192,28529,1,8,0:0:0:0:
320,192,28606,1,8,0:0:0:0:
448,192,28683,1,8,0:0:0:0:
64,192,28760,1,10,0:0:0:0:
192,192,28837,1,8,0:0:0:0:
320,192,28914,1,8,0:0:0:0:
448,192,28991,1,8,0:0:0:0:
64,192,29068,1,10,0:0:0:0:
192,192,29145,1,8,0:0:0:0:
320,192,29221,1,8,0:0:0:0:
448,192,29298,1,8,0:0:0:0:
64,192,29375,1,10,0:0:0:0:
192,192,29452,1,8,0:0:0:0:
320,192,29529,1,8,0:0:0:0:
448,192,29606,1,8,0:0:0:0:
64,192,29683,1,4,0:0:0:0:
192,192,29683,1,2,0:0:0:0:
320,192,29683,128,0,29991:0:0:0:0:
192,192,29991,128,8,30298:0:0:0:0:
448,192,29991,1,0,0:0:0:70:openhit.wav
448,192,30298,1,2,0:0:0:0:
320,192,30452,1,2,0:0:0:0:
192,192,30606,1,8,0:0:0:0:
320,192,30606,1,0,0:0:0:70:openhit.wav
64,192,30760,1,2,0:0:0:0:
192,192,30914,1,0,0:0:0:70:openhit.wav
448,192,31068,1,2,0:0:0:0:
320,192,31221,1,8,0:0:0:0:
448,192,31221,1,0,0:0:0:70:openhit.wav
192,192,31375,1,2,0:0:0:0:
320,192,31529,1,0,0:0:0:70:openhit.wav
64,192,31683,1,2,0:0:0:0:
64,192,31837,1,8,0:0:0:0:
320,192,31837,1,0,0:0:0:70:openhit.wav
192,192,31991,1,8,0:0:0:0:
320,192,32068,1,8,0:0:0:0:
64,192,32145,1,2,0:0:0:0:
192,192,32145,1,4,0:0:0:0:
448,192,32145,128,0,32452:0:0:0:0:
64,192,32452,128,8,32760:0:0:0:0:
320,192,32452,1,0,0:0:0:70:openhit.wav
192,192,32760,1,2,0:0:0:0:
448,192,32914,1,2,0:0:0:0:
64,192,33068,1,8,0:0:0:0:
448,192,33068,1,0,0:0:0:70:openhit.wav
64,192,33221,1,4,0:0:0:0:
192,192,33221,128,2,33529:0:0:0:0:
320,192,33221,1,0,0:0:0:0:
448,192,33529,1,2,0:0:0:0:
320,192,33683,1,8,0:0:0:0:
448,192,33683,1,0,0:0:0:70:openhit.wav
64,192,33837,1,2,0:0:0:0:
320,192,33991,1,0,0:0:0:70:openhit.wav
192,192,34145,1,2,0:0:0:0:
64,192,34298,1,8,0:0:0:0:
448,192,34375,1,8,0:0:0:0:
320,192,34452,1,8,0:0:0:0:
192,192,34529,1,8,0:0:0:0:
64,192,34606,1,2,0:0:0:0:
320,192,34606,128,4,34914:0:0:0:0:
448,192,34606,1,0,0:0:0:0:
64,192,34914,1,8,0:0:0:0:
192,192,34914,128,0,35221:0:0:0:70:openhit.wav
448,192,35221,1,2,0:0:0:0:
64,192,35375,1,2,0:0:0:0:
64,192,35529,1,8,0:0:0:0:
320,192,35529,1,0,0:0:0:70:openhit.wav
192,192,35683,1,2,0:0:0:0:
448,192,35837,1,0,0:0:0:70:openhit.wav
320,192,35991,1,2,0:0:0:0:
64,192,36145,1,8,0:0:0:0:
320,192,36145,1,0,0:0:0:70:openhit.wav
192,192,36298,1,2,0:0:0:0:
64,192,36452,1,0,0:0:0:70:openhit.wav
448,192,36606,1,2,0:0:0:0:
192,192,36760,1,8,0:0:0:0:
448,192,36760,1,0,0:0:0:70:openhit.wav
320,192,36914,1,8,0:0:0:0:
192,192,36991,1,8,0:0:0:0:
64,192,37068,128,2,37375:0:0:0:0:
320,192,37068,1,4,0:0:0:0:
448,192,37068,1,8,0:0:0:0:
192,192,37375,1,8,0:0:0:0:
448,192,37375,128,0,37683:0:0:0:70:openhit.wav
320,192,37683,1,2,0:0:0:0:
64,192,37837,1,2,0:0:0:0:
64,192,37991,1,8,0:0:0:0:
448,192,37991,1,0,0:0:0:70:openhit.wav
192,192,38145,1,2,0:0:0:0:
320,192,38145,128,4,38452:0:0:0:0:
448,192,38145,1,0,0:0:0:0:
64,192,38452,1,2,0:0:0:0:
64,192,38606,1,8,0:0:0:0:
192,192,38606,1,0,0:0:0:70:openhit.wav
448,192,38760,1,2,0:0:0:0:
320,192,38914,1,0,0:0:0:70:openhit.wav
64,192,39068,1,2,0:0:0:0:
192,192,39221,1,8,0:0:0:0:
448,192,39298,1,8,0:0:0:0:
320,192,39375,1,8,0:0:0:0:
64,192,39452,1,8,0:0:0:0:
192,192,39529,1,8,0:0:0:0:
320,192,39529,128,2,39837:0:0:0:0:
448,192,39529,1,4,0:0:0:0:
64,192,39837,1,8,0:0:0:0:
192,192,39837,128,0,40145:0:0:0:70:openhit.wav
448,192,40145,1,2,0:0:0:0:
320,192,40298,1,2,0:0:0:0:
192,192,40452,1,8,0:0:0:0:
320,192,40452,1,0,0:0:0:70:openhit.wav
64,192,40760,1,2,0:0:0:0:
320,192,41068,1,8,0:0:0:0:
448,192,41068,1,0,0:0:0:70:openhit.wav
64,192,41375,1,2,0:0:0:0:
192,192,41529,1,2,0:0:0:0:
192,192,41683,1,8,0:0:0:0:
320,192,41683,1,0,0:0:0:70:openhit.wav
64,192,41991,1,8,0:0:0:0:
192,192,41991,1,4,0:0:0:0:
320,192,41991,1,0,0:0:0:0:
64,192,42145,1,2,0:0:0:0:
192,192,42298,1,8,0:0:0:0:
320,192,42298,1,0,0:0:0:70:openhit.wav
448,192,42298,1,0,0:0:0:0:
448,192,42452,1,2,0:0:0:0:
64,192,42606,1,8,0:0:0:0:
192,192,42606,1,0,0:0:0:70:openhit.wav
320,192,42606,1,0,0:0:0:0:
320,192,42760,1,2,0:0:0:0:
64,192,42914,1,8,0:0:0:0:
192,192,42914,1,0,0:0:0:70:openhit.wav
448,192,42914,1,0,0:0:0:0:
192,192,43068,1,2,0:0:0:0:
64,192,43221,1,8,0:0:0:0:
320,192,43221,1,0,0:0:0:70:openhit.wav
448,192,43221,1,0,0:0:0:0:
448,192,43375,1,2,0:0:0:0:
64,192,43529,1,8,0:0:0:0:
192,192,43529,1,0,0:0:0:70:openhit.wav
320,192,43529,1,0,0:0:0:0:
192,192,43683,1,2,0:0:0:0:
64,192,43837,1,8,0:0:0:0:
320,192,43837,1,0,0:0:0:70:openhit.wav
448,192,43837,1,0,0:0:0:0:
64,192,43991,1,2,0:0:0:0:
192,192,44145,1,8,0:0:0:0:
320,192,44145,1,0,0:0:0:70:openhit.wav
448,192,44145,1,0,0:0:0:0:
320,192,44298,1,2,0:0:0:0:
64,192,44452,1,8,0:0:0:0:
192,192,44452,1,4,0:0:0:0:
448,192,44452,1,0,0:0:0:0:
448,192,44606,1,2,0:0:0:0:
64,192,44760,1,8,0:0:0:0:
192,192,44760,1,0,0:0:0:70:openhit.wav
320,192,44760,1,0,0:0:0:0:
64,192,44914,1,2,0:0:0:0:
192,192,45068,1,8,0:0:0:0:
320,192,45068,1,0,0:0:0:70:openhit.wav
448,192,45068,1,0,0:0:0:0:
448,192,45221,1,2,0:0:0:0:
64,192,45375,1,8,0:0:0:0:
192,192,45375,1,0,0:0:0:70:openhit.wav
320,192,45375,1,0,0:0:0:0:
192,192,45529,1,2,0:0:0:0:
64,192,45683,1,8,0:0:0:0:
320,192,45683,1,0,0:0:0:70:openhit.wav
448,192,45683,1,0,0:0:0:0:
64,192,45837,1,2,0:0:0:0:
192,192,45991,1,8,0:0:0:0:
320,192,45991,1,0,0:0:0:70:openhit.wav
448,192,45991,1,0,0:0:0:0:
320,192,46145,1,2,0:0:0:0:
64,192,46298,1,8,0:0:0:0:
192,192,46298,1,0,0:0:0:70:openhit.wav
448,192,46298,1,0,0:0:0:0:
448,192,46452,1,2,0:0:0:0:
64,192,46606,1,8,0:0:0:0:
192,192,46606,1,0,0:0:0:70:openhit.wav
320,192,46606,1,0,0:0:0:0:
64,192,46760,1,2,0:0:0:0:
192,192,46914,1,8,0:0:0:0:
320,192,46914,1,0,0:0:0:70:openhit.wav
448,192,46914,1,0,0:0:0:0:
448,192,47068,1,2,0:0:0:0:
64,192,47221,1,8,0:0:0:0:
192,192,47221,1,0,0:0:0:70:openhit.wav
64,192,47375,1,2,0:0:0:0:
192,192,47529,1,8,0:0:0:0:
320,192,47529,1,0,0:0:0:70:openhit.wav
192,192,47683,1,2,0:0:0:0:
320,192,47837,128,8,48145:0:0:0:0:
448,192,47837,1,0,0:0:0:70:openhit.wav
64,192,48145,1,2,0:0:0:0:
192,192,48145,1,4,0:0:0:0:
448,192,48145,1,0,0:0:0:0:
64,192,48298,128,2,49068:0:0:0:0:
192,192,48298,128,4,49068:0:0:0:0:
