osu file format v14

[General]
AudioFilename: audio.mp3
AudioLeadIn: 0
PreviewTime: 29683
Countdown: 0
SampleSet: Soft
StackLeniency: 0.7
Mode: 0
LetterboxInBreaks: 0
WidescreenStoryboard: 1

[Editor]
Bookmarks: 12262,16723
DistanceSpacing: 1.2
BeatDivisor: 4
GridSize: 32
TimelineZoom: 2.5

[Metadata]
Title:Supervelocidad
TitleUnicode:Supervelocidad
Artist:TRONIC
ArtistUnicode:TRONIC
Creator:[-Evil-]
Version:Normal
Source:
Tags:Punk Punk-Rock EspaƱol Pop-Punk Rock Spanish Ke Patine La Risa Chile Lugu
BeatmapID:3191017
BeatmapSetID:1560910

[Difficulty]
HPDrainRate:3
CircleSize:3
OverallDifficulty:4
ApproachRate:6
SliderMultiplier:1
SliderTickRate:1

[Events]
//Background and Video events
0,0,"Supervelocidaaaaaaaaaaaa.png",0,0
//Break Periods
//Storyboard Layer 0 (Background)
//Storyboard Layer 1 (Fail)
//Storyboard Layer 2 (Pass)
//Storyboard Layer 3 (Foreground)
//Storyboard Layer 4 (Overlay)
//Storyboard Sound Samples

[TimingPoints]
145,307.692307692308,4,2,1,50,1,0
145,-111.111111111111,4,2,1,50,0,0
2068,-100,4,2,1,5,0,0
2145,-100,4,2,1,60,0,0
2606,-100,4,2,1,60,0,0
5298,-100,4,2,1,5,0,0
5375,-100,4,2,1,65,0,0
7760,-100,4,2,1,65,0,0
7837,-100,4,2,1,65,0,0
12452,-100,4,2,1,65,0,0
14606,-100,4,2,1,65,0,0
14837,-100,4,2,1,65,0,0
14914,-100,4,2,1,65,0,0
15145,-100,4,2,1,65,0,0
15221,-100,4,2,1,65,0,0
18606,-100,4,2,1,55,0,0
19145,-100,4,2,1,55,0,0
19221,-100,4,2,1,55,0,0
19760,-100,4,2,1,55,0,0
19837,-100,4,2,2,75,0,1
21991,-100,4,2,2,75,0,1
22221,-100,4,2,2,75,0,1
22298,-100,4,2,2,75,0,1
24452,-100,4,2,2,75,0,1
24683,-100,4,2,2,75,0,0
24760,-100,4,2,2,75,0,1
26914,-100,4,2,2,75,0,1
27145,-100,4,2,2,75,0,1
27222,-100,4,2,2,75,0,1
29683,-100,4,2,1,65,0,0
29914,-100,4,2,1,65,0,0
29991,-100,4,2,1,65,0,0
31760,-100,4,2,1,65,0,0
31837,-100,4,2,1,65,0,0
34837,-100,4,2,1,65,0,0
34914,-100,4,2,1,65,0,0
39760,-100,4,2,1,65,0,0
39837,-100,4,2,1,65,0,0
41914,-100,4,2,1,65,0,0
41991,-100,4,2,1,70,0,1
46914,-100,4,2,1,60,0,0
48068,-100,4,2,1,60,0,0
48145,-100,4,2,1,55,0,0
48298,-100,4,2,1,55,0,0
48914,-133.333333333333,4,2,1,20,0,0

[Colours]
Combo1 : 221,0,0
Combo2 : 192,192,210
Combo3 : 128,128,140
Combo4 : 117,0,0

[HitObjects]
70,331,145,5,2,1:2:0:0:
467,99,2145,2,0,L|479:173,2,50,0|8|8,1:0|0:0|0:0,0:0:0:0:
447,42,2606,2,0,P|389:18|320:42,1,100,4|10,1:2|0:0,0:0:0:0:
266,105,3221,1,2,1:2:0:0:
266,105,3375,1,2,1:2:0:0:
164,41,3683,6,0,L|49:55,1,100,6|2,1:2|1:2,0:0:0:0:
7,158,4298,2,0,L|122:172,1,100,2|0,1:2|1:2,0:0:0:0:
153,207,4760,2,0,L|223:198,1,50,10|8,0:0|0:0,0:0:0:0:
262,190,5068,1,4,1:2:0:0:
380,176,5375,37,10,0:0:0:0:
430,284,5683,1,2,1:2:0:0:
430,284,5837,2,0,L|414:368,1,50,2|8,1:2|0:0,0:0:0:0:
378,375,6145,2,0,P|329:331|265:327,1,100,2|2,1:2|1:2,0:0:0:0:
182,361,6760,2,0,L|58:339,1,100,2|0,1:2|1:2,0:0:0:0:
31,313,7221,2,0,P|26:286|40:258,1,50,8|0,0:0|1:0,0:0:0:0:
89,242,7529,6,0,P|98:189|71:134,1,100,6|10,1:2|0:0,0:0:0:0:
29,39,8145,1,2,1:2:0:0:
29,39,8298,2,0,L|106:26,1,50,2|8,1:2|0:0,0:0:0:0:
131,1,8606,2,0,L|241:19,1,100,6|2,1:2|1:2,0:0:0:0:
265,132,9221,2,0,L|375:113,1,100,2|0,1:2|1:2,0:0:0:0:
408,75,9683,2,0,L|463:84,1,50,10|8,0:0|0:0,0:0:0:0:
506,118,9991,1,4,1:2:0:0:
480,235,10298,37,10,0:0:0:0:
447,350,10606,1,2,1:2:0:0:
447,350,10760,2,0,L|357:328,1,50,2|8,1:2|0:0,0:0:0:0:
353,297,11068,2,0,L|211:331,1,100,2|2,1:2|1:2,0:0:0:0:
142,349,11683,1,2,0:0:0:0:
142,349,11837,2,0,L|155:242,1,100,2|8,0:0|0:0,0:0:0:0:
265,204,12452,6,0,P|267:169|249:142,1,50,14|0,0:0|1:0,0:0:0:0:
266,95,12760,2,0,P|245:66|213:57,1,50,10|0,0:0|1:2,0:0:0:0:
174,41,13068,1,10,0:0:0:0:
54,35,13375,1,8,0:0:0:0:
24,151,13683,38,0,L|40:204,1,50,8|0,0:0|1:0,0:0:0:0:
94,221,13991,2,0,L|71:299,1,50,8|2,0:0|1:2,0:0:0:0:
67,327,14298,1,10,0:0:0:0:
179,368,14606,1,14,0:0:0:0:
229,259,14914,5,4,1:2:0:0:
341,299,15221,2,0,L|453:280,1,100,10|2,0:0|1:2,0:0:0:0:
499,278,15683,1,2,1:2:0:0:
488,158,15991,2,0,P|439:142|371:185,1,100,2|2,1:2|1:2,0:0:0:0:
344,187,16452,1,8,0:0:0:0:
344,187,16606,2,0,L|278:157,1,50,2|2,1:2|0:0,0:0:0:0:
186,121,17068,1,8,0:0:0:0:
134,229,17375,38,0,L|149:296,1,50,4|4,1:2|1:2,0:0:0:0:
500,15,18606,2,0,L|473:245,1,200,6|6,1:2|1:2,0:0:0:0:
271,339,19837,22,0,P|243:309|206:306,1,50,14|0,0:0|1:2,0:0:0:0:
194,262,20145,2,0,P|154:271|132:301,1,50,10|0,0:0|1:2,0:0:0:0:
103,316,20452,1,10,0:0:0:0:
5,260,20760,1,10,0:0:0:0:
88,174,21068,2,0,L|69:114,1,50,10|0,0:0|1:2,0:0:0:0:
25,89,21375,2,0,L|44:29,1,50,10|0,0:0|1:2,0:0:0:0:
86,2,21683,1,10,0:0:0:0:
199,41,21991,1,10,0:0:0:0:
313,76,22298,6,0,L|385:57,1,50,14|0,0:0|1:0,0:0:0:0:
410,27,22606,2,0,L|482:46,1,50,10|0,0:0|1:0,0:0:0:0:
498,85,22914,1,10,0:0:0:0:
478,203,23221,1,10,0:0:0:0:
454,320,23529,2,0,P|407:335|386:325,1,50,10|0,0:0|1:2,0:0:0:0:
370,288,23837,2,0,P|323:273|302:283,1,50,10|0,0:0|1:2,0:0:0:0:
266,290,24145,1,10,0:0:0:0:
163,351,24452,1,10,0:0:0:0:
82,261,24760,38,0,L|97:206,1,50,14|0,0:0|1:0,0:0:0:0:
141,173,25068,2,0,L|126:118,1,50,10|0,0:0|1:2,0:0:0:0:
113,66,25375,1,10,0:0:0:0:
213,0,25683,1,10,0:0:0:0:
276,102,25991,2,0,P|306:105|332:91,1,50,10|0,0:0|1:2,0:0:0:0:
363,52,26298,2,0,P|393:49|419:63,1,50,10|0,0:0|1:2,0:0:0:0:
464,83,26606,1,10,0:0:0:0:
391,178,26914,1,10,0:0:0:0:
495,236,27221,6,0,L|480:306,1,50,14|0,0:0|1:0,0:0:0:0:
498,343,27529,2,0,L|429:365,1,50,10|0,0:0|1:2,0:0:0:0:
395,383,27837,1,10,0:0:0:0:
339,276,28145,1,10,0:0:0:0:
253,359,28452,38,0,L|197:350,1,50,10|8,0:0|0:0,0:0:0:0:
145,333,28760,2,0,L|89:342,1,50,10|8,0:0|0:0,0:0:0:0:
45,374,29068,2,0,P|6:328|4:281,1,100,10|10,0:0|0:0,0:0:0:0:
95,214,29683,21,4,1:2:0:0:
2,137,29991,2,0,L|22:33,1,100,10|2,0:0|1:2,0:0:0:0:
56,0,30452,1,2,1:2:0:0:
156,65,30760,2,0,L|282:36,1,100,2|2,1:2|1:2,0:0:0:0:
311,28,31221,1,8,0:0:0:0:
311,28,31375,2,0,P|345:67|328:127,1,100,2|0,1:2|1:0,0:0:0:0:
317,168,31837,1,8,0:0:0:0:
369,282,32145,5,4,1:2:0:0:
369,282,32298,2,0,L|425:273,2,50,2|10|2,0:0|0:0|0:0,0:0:0:0:
325,324,32760,2,0,L|233:309,1,50,2|2,1:2|1:2,0:0:0:0:
164,361,33221,38,0,P|115:318|59:319,1,100,6|2,1:2|1:2,0:0:0:0:
33,346,33683,1,8,0:0:0:0:
33,346,33837,2,0,L|49:220,1,100,2|0,1:2|1:0,0:0:0:0:
57,187,34298,2,0,P|92:180|136:206,2,50,10|0|4,0:0|1:2|1:2,0:0:0:0:
4,80,34914,6,0,P|28:31|98:31,1,100,10|2,0:0|1:2,0:0:0:0:
124,43,35375,1,2,1:2:0:0:
238,6,35683,2,0,L|363:25,1,100,2|2,1:2|1:2,0:0:0:0:
397,31,36145,1,10,0:0:0:0:
397,31,36298,2,0,P|417:94|378:144,1,100,2|2,1:2|1:2,0:0:0:0:
357,159,36760,2,0,L|287:143,1,50,8|8,0:0|0:0,0:0:0:0:
207,210,37221,37,2,0:0:0:0:
207,210,37375,2,0,L|143:225,2,50,8|2|2,0:0|0:0|1:2,0:0:0:0:
255,245,37837,2,0,L|244:334,1,50,2|10,1:2|0:0,0:0:0:0:
240,354,38145,2,0,P|289:368|348:323,1,100,6|2,1:2|1:2,0:0:0:0:
423,271,38760,2,0,P|437:222|392:163,1,100,2|0,1:2|1:0,0:0:0:0:
357,159,39221,2,0,L|307:171,1,50,10|0,0:0|1:0,0:0:0:0:
250,184,39529,1,6,1:2:0:0:
165,98,39837,5,10,0:0:0:0:
84,187,40145,2,0,P|63:237|86:288,1,100,2|8,1:2|0:0,0:0:0:0:
110,327,40606,2,0,L|251:297,1,100,2|0,0:0|0:0,0:0:0:0:
266,292,41068,1,8,0:0:0:0:
375,340,41375,2,0,L|440:358,2,50,0|0|8,1:0|1:0|0:0,0:0:0:0:
366,219,41991,21,12,0:0:0:0:
291,125,42298,1,10,0:0:0:0:
212,215,42606,2,0,L|148:198,1,50,10|0,0:0|1:2,0:0:0:0:
127,250,42914,2,0,L|63:267,1,50,8|2,0:0|1:2,0:0:0:0:
21,243,43221,1,8,0:0:0:0:
36,123,43529,1,8,0:0:0:0:
59,5,43837,2,0,L|128:26,1,50,8|0,0:0|1:2,0:0:0:0:
157,52,44145,2,0,L|226:31,1,50,8|0,0:0|1:2,0:0:0:0:
261,17,44452,37,12,0:0:0:0:
333,112,44760,1,10,0:0:0:0:
416,26,45068,2,0,P|445:35|470:56,1,50,10|0,0:0|1:2,0:0:0:0:
507,84,45375,2,0,P|513:114|508:145,1,50,8|2,0:0|1:2,0:0:0:0:
491,190,45683,1,8,0:0:0:0:
415,283,45991,1,8,0:0:0:0:
324,204,46298,2,0,L|244:218,1,50,8|0,0:0|1:2,0:0:0:0:
231,254,46606,2,0,L|151:240,1,50,8|0,0:0|1:2,0:0:0:0:
137,204,46914,21,10,0:0:0:0:
37,271,47221,2,0,L|57:393,2,100,8|8|8,0:0|0:0|0:0,0:0:0:0:
10,153,48145,1,6,1:2:0:0:
10,153,48298,2,0,B|45:135|79:134|79:134|102:95|102:95|150:89|218:62,1,200,6|0,1:2|0:0,0:0:0:0:
