osu file format v14

[General]
AudioFilename: audio.mp3
AudioLeadIn: 0
PreviewTime: 29683
Countdown: 0
SampleSet: Soft
StackLeniency: 0.7
Mode: 0
LetterboxInBreaks: 0
WidescreenStoryboard: 1

[Editor]
Bookmarks: 12262
DistanceSpacing: 0.6
BeatDivisor: 4
GridSize: 8
TimelineZoom: 2.5

[Metadata]
Title:Supervelocidad
TitleUnicode:Supervelocidad
Artist:TRONIC
ArtistUnicode:TRONIC
Creator:[-Evil-]
Version:Extra de Lugu
Source:
Tags:Punk Punk-Rock EspaƱol Pop-Punk Rock Spanish Ke Patine La Risa Chile Lugu
BeatmapID:3189063
BeatmapSetID:1560910

[Difficulty]
HPDrainRate:5.2
CircleSize:4.2
OverallDifficulty:8.8
ApproachRate:9.3
SliderMultiplier:1.62
SliderTickRate:1

[Events]
//Background and Video events
0,0,"Supervelocidaaaaaaaaaaaa.png",0,0
//Break Periods
//Storyboard Layer 0 (Background)
//Storyboard Layer 1 (Fail)
//Storyboard Layer 2 (Pass)
//Storyboard Layer 3 (Foreground)
//Storyboard Layer 4 (Overlay)
//Storyboard Sound Samples

[TimingPoints]
145,307.692307692308,4,2,1,50,1,0
145,-200,4,2,1,50,0,0
2068,-100,4,2,1,5,0,0
2145,-100,4,2,1,60,0,0
2606,-83.3333333333333,4,2,1,60,0,0
5298,-83.3333333333333,4,2,1,5,0,0
5375,-83.3333333333333,4,2,1,65,0,0
6760,-71.4285714285714,4,2,1,65,0,0
7221,-83.3333333333333,4,2,1,65,0,0
12452,-71.4285714285714,4,2,1,65,0,0
14606,-125,4,2,1,65,0,0
14837,-125,4,2,1,5,0,0
14914,-83.3333333333333,4,2,1,65,0,0
15145,-83.3333333333333,4,2,1,5,0,0
15221,-83.3333333333333,4,2,1,65,0,0
18606,-66.6666666666667,4,2,1,55,0,0
19145,-133.333333333333,4,2,1,5,0,0
19221,-133.333333333333,4,2,1,55,0,0
19760,-133.333333333333,4,2,1,5,0,0
19837,-66.6666666666667,4,2,2,75,0,1
21991,-133.333333333333,4,2,2,75,0,1
22221,-133.333333333333,4,2,2,5,0,1
22298,-66.6666666666667,4,2,2,75,0,1
24452,-133.333333333333,4,2,2,75,0,1
24683,-133.333333333333,4,2,2,5,0,0
24760,-66.6666666666667,4,2,2,75,0,1
26914,-133.333333333333,4,2,2,75,0,1
27145,-133.333333333333,4,2,2,5,0,1
27222,-66.6666666666667,4,2,2,75,0,1
29683,-83.3333333333333,4,2,1,65,0,0
29914,-83.3333333333333,4,2,1,5,0,0
29991,-83.3333333333333,4,2,1,65,0,0
31760,-83.3333333333333,4,2,1,65,0,0
31837,-83.3333333333333,4,2,1,65,0,0
34837,-83.3333333333333,4,2,1,5,0,0
34914,-83.3333333333333,4,2,1,65,0,0
39760,-83.3333333333333,4,2,1,5,0,0
39837,-83.3333333333333,4,2,1,65,0,0
41914,-83.3333333333333,4,2,1,5,0,0
41991,-71.4285714285714,4,2,1,70,0,1
46914,-83.3333333333333,4,2,1,60,0,0
47837,-133.333333333333,4,2,1,60,0,0
48068,-133.333333333333,4,2,1,5,0,0
48145,-100,4,2,1,55,0,0
48914,-133.333333333333,4,2,1,20,0,0

[Colours]
Combo1 : 221,0,0
Combo2 : 192,192,210
Combo3 : 128,128,140
Combo4 : 117,0,0

[HitObjects]
89,70,145,6,0,B|179:123|200:12|326:98|326:98|260:89|208:186|241:-4|101:-3,1,506.25,2|0,1:2|0:0,0:0:0:0:
102,0,2145,1,0,1:0:0:0:
34,162,2298,5,8,0:0:0:0:
48,176,2375,1,8,0:0:0:0:
57,194,2452,1,8,0:0:0:0:
60,213,2529,1,8,0:0:0:0:
61,232,2606,37,4,1:2:0:0:
209,262,2760,1,2,0:0:0:0:
33,341,2914,2,0,B|10:332|2:300|2:300|17:320|52:316,1,97.1999970336915,10|0,0:0|0:0,0:0:0:0:
285,212,3221,1,2,1:2:0:0:
200,166,3375,2,0,P|206:216|210:276,1,97.1999970336915,2|8,1:2|0:0,0:0:0:0:
441,306,3683,6,0,P|472:266|461:214,1,97.1999970336915,6|0,1:2|0:0,0:0:0:0:
275,115,3991,2,0,P|281:165|285:225,1,97.1999970336915,2|8,1:2|0:0,0:0:0:0:
512,13,4298,2,0,B|409:-5|418:68|320:40,1,194.399994067383,2|0,1:2|1:2,0:0:0:0:
444,151,4760,1,10,0:0:0:0:
230,49,4914,1,8,0:0:0:0:
230,49,4991,1,8,0:0:0:0:
230,49,5068,38,0,B|210:57|203:87|203:87|194:62|163:48,1,97.1999970336915,4|0,1:2|0:0,0:0:0:0:
9,220,5375,2,0,P|48:185|111:189,1,97.1999970336915,10|0,0:0|0:0,0:0:0:0:
283,343,5683,1,2,1:2:0:0:
201,384,5837,2,0,P|198:326|195:287,1,97.1999970336915,2|8,1:2|0:0,0:0:0:0:
302,95,6145,2,0,P|328:137|306:197,1,97.1999970336915,2|0,1:2|0:0,0:0:0:0:
103,342,6452,2,0,P|77:302|85:255,1,97.1999970336915,2|8,1:2|0:0,0:0:0:0:
302,95,6760,6,0,B|255:148|199:92|205:88|212:85|145:22|87:87,1,226.799993078613,2|0,1:2|1:2,0:0:0:0:
370,17,7221,1,8,0:0:0:0:
387,25,7298,1,8,0:0:0:0:
400,39,7375,1,0,1:0:0:0:
409,55,7452,1,0,1:0:0:0:
413,74,7529,38,0,P|402:147|391:248,1,145.799995550537,6|0,1:2|0:0,0:0:0:0:
383,231,7837,2,0,P|329:237|301:200,1,97.1999970336915,10|0,0:0|0:0,0:0:0:0:
76,95,8145,1,2,1:2:0:0:
172,29,8298,2,0,P|161:78|152:144,1,97.1999970336915,2|8,1:2|0:0,0:0:0:0:
224,368,8606,6,0,P|246:323|226:270,1,97.1999970336915,6|0,1:2|0:0,0:0:0:0:
76,95,8914,2,0,P|54:140|74:193,1,97.1999970336915,2|8,1:2|0:0,0:0:0:0:
322,281,9221,2,0,P|292:220|172:222,1,194.399994067383,2|0,1:2|1:2,0:0:0:0:
65,355,9683,1,10,0:0:0:0:
233,279,9837,1,8,0:0:0:0:
233,279,9914,1,8,0:0:0:0:
234,279,9991,38,0,P|245:325|224:368,1,97.1999970336915,4|0,1:2|0:0,0:0:0:0:
0,270,10298,2,0,P|58:263|108:250,1,97.1999970336915,10|0,0:0|0:0,0:0:0:0:
274,97,10606,1,2,1:2:0:0:
177,29,10760,2,0,P|183:85|184:128,1,97.1999970336915,2|8,1:2|0:0,0:0:0:0:
419,222,11068,6,0,P|382:182|326:181,1,97.1999970336915,2|0,1:2|0:0,0:0:0:0:
224,367,11375,2,0,P|270:358|301:321,1,97.1999970336915,2|8,1:2|0:0,0:0:0:0:
184,125,11683,1,2,0:0:0:0:
120,167,11837,2,0,P|126:220|131:334,1,145.799995550537,2|0,0:0|0:0,0:0:0:0:
131,329,12145,2,0,P|76:348|25:373,1,97.1999970336915,8|0,0:0|1:0,0:0:0:0:
287,181,12452,38,0,P|345:192|363:261,1,113.399996539307,14|0,0:0|1:0,0:0:0:0:
226,372,12760,1,10,0:0:0:0:
287,181,12914,1,0,1:2:0:0:
290,263,13068,1,10,0:0:0:0:
59,103,13221,1,2,1:2:0:0:
134,49,13375,1,8,0:0:0:0:
119,337,13529,1,2,1:2:0:0:
39,262,13683,5,8,0:0:0:0:
287,181,13837,1,0,1:0:0:0:
148,172,13991,1,8,0:0:0:0:
367,237,14145,1,2,1:2:0:0:
479,82,14298,38,0,B|446:73|428:52|428:52|431:80|416:112,1,113.399996539307,10|0,0:0|1:0,0:0:0:0:
441,353,14606,2,0,P|478:323|464:261,1,97.2,14|0,0:0|0:0,0:0:0:0:
441,211,14914,6,0,B|347:190|384:270|285:245,1,145.799995550537,4|0,1:2|0:0,0:0:0:0:
291,245,15221,2,0,P|270:208|290:160,1,97.1999970336915,10|0,0:0|0:0,0:0:0:0:
512,7,15529,1,2,1:2:0:0:
474,82,15683,2,0,P|419:73|365:71,1,97.1999970336915,2|8,1:2|0:0,0:0:0:0:
107,86,15991,2,0,B|136:91|146:118|146:118|149:88|185:69,1,97.1999970336915,2|0,1:2|0:0,0:0:0:0:
359,157,16298,2,0,P|386:114|372:63,1,97.1999970336915,2|8,1:2|0:0,0:0:0:0:
131,7,16606,1,2,1:2:0:0:
107,86,16760,37,2,0:0:0:0:
373,66,16914,1,0,1:0:0:0:
232,4,17068,1,8,0:0:0:0:
326,239,17221,1,0,0:0:0:0:
489,106,17375,5,4,1:2:0:0:
357,148,17529,2,0,B|316:117|254:103|231:197|121:115|121:115|185:138|251:37|308:97|324:161|286:228|244:237|179:223,1,583.199982202149,4|0,1:2|0:0,0:0:0:0:
97,318,18606,38,0,B|56:292|3:316|3:316|181:209|175:383|313:312,1,425.250016222001,6|0,1:2|0:0,0:0:0:0:
459,305,19221,6,0,B|424:261|371:240|295:287|339:371|393:353|407:332,1,212.625008111,6|0,1:2|0:0,0:0:0:0:
409,335,19837,5,14,0:0:0:0:
291,108,19991,1,0,1:2:0:0:
227,212,20145,1,10,0:0:0:0:
486,111,20298,1,0,1:2:0:0:
368,33,20452,1,10,0:0:0:0:
310,247,20606,1,0,1:2:0:0:
433,216,20760,1,10,0:0:0:0:
216,56,20914,1,0,1:2:0:0:
156,136,21068,5,10,0:0:0:0:
462,35,21221,1,0,1:2:0:0:
288,16,21375,1,10,0:0:0:0:
486,111,21529,1,0,1:2:0:0:
366,5,21683,1,10,0:0:0:0:
433,216,21837,1,0,1:2:0:0:
433,216,21914,1,0,1:2:0:0:
433,216,21991,2,0,P|389:204|337:225,1,91.125003476143,10|0,0:0|0:0,0:0:0:0:
301,279,22298,38,0,B|318:353|318:353|357:372|361:319,1,121.500004634857,14|0,0:0|1:0,0:0:0:0:
153,174,22606,2,0,B|182:163|192:130|192:130|186:165|204:189,1,121.500004634857,10|0,0:0|1:0,0:0:0:0:
71,379,22914,2,0,P|40:376|8:288,1,121.500004634857,10|0,0:0|1:2,0:0:0:0:
137,71,23221,2,0,P|125:149|117:254,1,182.250006952286,10|0,0:0|0:0,0:0:0:0:
121,270,23529,5,10,0:0:0:0:
361,232,23683,1,0,1:2:0:0:
227,178,23837,1,10,0:0:0:0:
141,373,23991,1,0,1:2:0:0:
266,318,24145,1,10,0:0:0:0:
53,176,24298,1,0,1:2:0:0:
53,176,24375,1,0,1:0:0:0:
53,176,24452,2,0,P|57:212|60:275,1,91.125003476143,10|0,0:0|0:0,0:0:0:0:
56,279,24760,37,14,0:0:0:0:
302,207,24914,1,0,1:0:0:0:
173,126,25068,1,10,0:0:0:0:
127,381,25221,1,0,1:2:0:0:
266,318,25375,1,10,0:0:0:0:
53,176,25529,1,0,1:2:0:0:
36,300,25683,1,10,0:0:0:0:
300,218,25837,1,0,1:2:0:0:
173,126,25991,6,0,P|167:194|160:258,1,121.500004634857,10|0,0:0|1:2,0:0:0:0:
417,62,26298,2,0,P|361:22|301:30,1,121.500004634857,10|0,0:0|1:2,0:0:0:0:
158,323,26606,2,0,P|217:323|264:286,1,121.500004634857,10|0,0:0|1:2,0:0:0:0:
300,218,26837,1,0,1:0:0:0:
300,218,26914,2,0,P|295:156|288:109,1,91.125003476143,10|0,0:0|0:0,0:0:0:0:
275,113,27221,37,14,0:0:0:0:
492,212,27375,1,0,1:0:0:0:
359,293,27529,1,10,0:0:0:0:
311,21,27683,1,0,1:2:0:0:
442,96,27837,1,10,0:0:0:0:
183,208,27991,1,0,1:2:0:0:
222,49,28145,1,10,0:0:0:0:
357,252,28298,1,0,1:2:0:0:
242,315,28452,6,0,L|252:254,3,60.7500023174287,10|8|8|8,0:0|0:0|0:0|0:0,0:0:0:0:
99,325,28760,2,0,L|109:386,3,60.7500023174287,10|8|8|8,0:0|0:0|0:0|0:0,0:0:0:0:
27,195,29068,1,10,0:0:0:0:
40,174,29145,1,8,0:0:0:0:
61,164,29221,1,8,0:0:0:0:
85,163,29298,1,8,0:0:0:0:
108,168,29375,1,10,0:0:0:0:
136,190,29452,1,8,0:0:0:0:
170,200,29529,1,8,0:0:0:0:
206,196,29606,1,8,0:0:0:0:
231,181,29683,6,0,B|267:132|253:87|253:87|236:114|207:120,1,145.799995550537,4|0,1:2|0:0,0:0:0:0:
189,114,29991,2,0,P|171:75|211:26,1,97.1999970336915,10|0,0:0|0:0,0:0:0:0:
420,254,30298,1,2,1:2:0:0:
337,304,30452,2,0,P|335:251|331:199,1,97.1999970336915,2|8,1:2|0:0,0:0:0:0:
467,30,30760,2,0,P|489:73|464:119,1,97.1999970336915,2|0,1:2|0:0,0:0:0:0:
260,174,31068,2,0,P|292:135|348:130,1,97.1999970336915,2|8,1:2|0:0,0:0:0:0:
448,382,31375,2,0,P|426:335|415:193,1,194.399994067383,2|0,1:2|1:0,0:0:0:0:
469,114,31837,2,0,B|485:91|509:86|509:86|481:86|462:60,1,97.1999970336915,8|8,0:0|0:0,0:0:0:0:
404,31,32068,1,8,0:0:0:0:
404,31,32145,5,4,1:2:0:0:
135,124,32298,1,2,0:0:0:0:
278,11,32452,2,0,P|272:64|267:122,1,97.1999970336915,10|2,0:0|0:0,0:0:0:0:
159,265,32760,1,2,1:2:0:0:
105,47,32914,2,0,P|163:42|210:83,1,97.1999970336915,2|10,1:2|0:0,0:0:0:0:
274,276,33221,38,0,P|252:230|264:178,1,97.1999970336915,6|0,1:2|0:0,0:0:0:0:
398,41,33529,2,0,P|390:93|386:142,1,97.1999970336915,2|8,1:2|0:0,0:0:0:0:
505,371,33837,2,0,B|387:403|438:308|321:335,1,194.399994067383,2|0,1:2|1:0,0:0:0:0:
103,217,34298,1,10,0:0:0:0:
87,241,34375,1,8,0:0:0:0:
79,269,34452,1,0,1:2:0:0:
79,298,34529,1,0,1:2:0:0:
89,325,34606,6,0,B|133:289|187:310|187:310|166:326|160:369,1,145.799995550537,4|0,1:2|0:0,0:0:0:0:
168,359,34914,2,0,L|275:372,1,97.1999970336915,10|0,0:0|0:0,0:0:0:0:
450,172,35221,1,2,1:2:0:0:
361,104,35375,2,0,P|344:150|347:204,1,97.1999970336915,2|8,1:2|0:0,0:0:0:0:
501,362,35683,38,0,P|472:318|414:303,1,97.1999970336915,2|0,1:2|0:0,0:0:0:0:
168,359,35991,1,2,1:2:0:0:
345,197,36145,1,10,0:0:0:0:
253,161,36298,2,0,P|260:224|264:279,1,97.1999970336915,2|0,1:2|0:0,0:0:0:0:
499,103,36606,2,0,P|451:98|405:68,1,97.1999970336915,2|8,1:2|0:0,0:0:0:0:
205,9,36914,1,8,0:0:0:0:
205,9,36991,1,8,0:0:0:0:
205,9,37068,5,4,1:2:0:0:
343,114,37221,1,2,0:0:0:0:
246,180,37375,2,0,P|255:117|260:76,1,97.1999970336915,10|2,0:0|0:0,0:0:0:0:
399,0,37683,1,2,1:2:0:0:
166,108,37837,1,2,1:2:0:0:
338,227,37991,1,10,0:0:0:0:
176,353,38145,2,0,P|151:304|161:250,1,97.1999970336915,6|0,1:2|0:0,0:0:0:0:
390,169,38452,2,0,P|415:218|405:272,1,97.1999970336915,2|8,1:2|0:0,0:0:0:0:
175,140,38760,38,0,B|291:145|226:236|359:226,1,194.399994067383,2|0,1:2|1:0,0:0:0:0:
486,47,39221,1,10,0:0:0:0:
465,26,39298,1,8,0:0:0:0:
439,12,39375,1,0,1:0:0:0:
410,7,39452,1,0,1:0:0:0:
381,11,39529,6,0,B|416:54|401:107|401:107|384:83|348:78,1,145.799995550537,6|0,1:2|0:0,0:0:0:0:
345,75,39837,2,0,P|299:59|246:65,1,97.1999970336915,10|0,0:0|0:0,0:0:0:0:
36,226,40145,2,0,P|99:213|156:205,1,97.1999970336915,2|0,1:2|1:2,0:0:0:0:
294,136,40452,1,8,0:0:0:0:
294,136,40606,1,2,0:0:0:0:
146,18,40760,38,0,P|142:67|137:128,1,97.1999970336915,0|0,1:0|0:0,0:0:0:0:
282,225,41068,2,0,P|304:172|283:123,1,97.1999970336915,8|0,0:0|0:0,0:0:0:0:
92,297,41375,1,0,1:0:0:0:
294,351,41529,1,0,1:0:0:0:
166,215,41683,2,0,P|175:270|186:369,1,145.799995550537,8|0,0:0|0:0,0:0:0:0:
197,375,41991,22,0,B|226:358|232:327|232:327|235:360|260:378,1,113.399996539307,12|0,0:0|1:0,0:0:0:0:
495,247,42298,1,10,0:0:0:0:
267,151,42452,1,0,1:2:0:0:
408,313,42606,2,0,P|414:236|421:182,1,113.399996539307,10|0,0:0|1:2,0:0:0:0:
280,51,42914,1,8,0:0:0:0:
280,51,43068,1,2,1:2:0:0:
496,41,43221,6,0,P|442:48|401:97,1,113.399996539307,8|0,0:0|1:2,0:0:0:0:
484,359,43529,2,0,P|490:282|497:228,1,113.399996539307,8|0,0:0|1:2,0:0:0:0:
267,151,43837,1,8,0:0:0:0:
339,366,43991,1,0,1:2:0:0:
465,178,44145,2,0,B|429:189|421:250|421:250|390:193|352:202,1,170.09999480896,8|0,0:0|0:0,0:0:0:0:
343,208,44452,38,0,P|286:197|267:142,1,113.399996539307,12|0,0:0|1:0,0:0:0:0:
499,57,44760,2,0,P|490:119|484:179,1,113.399996539307,10|0,0:0|1:2,0:0:0:0:
258,384,45068,2,0,P|243:327|278:264,1,113.399996539307,10|0,0:0|1:2,0:0:0:0:
442,326,45375,1,8,0:0:0:0:
442,326,45529,1,2,1:2:0:0:
333,95,45683,6,0,P|340:152|343:215,1,113.399996539307,8|0,0:0|1:2,0:0:0:0:
126,47,45991,2,0,P|181:6|242:5,1,113.399996539307,8|0,0:0|1:2,0:0:0:0:
115,286,46298,2,0,P|59:276|16:240,1,113.399996539307,8|0,0:0|1:2,0:0:0:0:
245,130,46606,1,8,0:0:0:0:
245,130,46760,1,0,1:2:0:0:
126,47,46914,6,0,L|139:157,1,97.1999970336915,10|0,0:0|0:0,0:0:0:0:
284,355,47221,2,0,L|297:245,1,97.1999970336915,8|0,0:0|1:0,0:0:0:0:
329,53,47529,1,8,0:0:0:0:
204,238,47683,1,0,1:0:0:0:
460,147,47837,2,0,B|394:143|394:143|378:158|353:164,1,91.125003476143,8|0,0:0|0:0,0:0:0:0:
358,162,48145,5,6,1:2:0:0:
479,363,48298,2,0,B|477:315|522:298|522:298|410:314|410:314|380:342|380:342|275:357,1,324,6|0,1:2|0:0,0:0:0:0:
