osu file format v14

[General]
AudioFilename: audio.mp3
AudioLeadIn: 0
PreviewTime: 29683
Countdown: 0
SampleSet: Soft
StackLeniency: 0.7
Mode: 0
LetterboxInBreaks: 0
WidescreenStoryboard: 1

[Editor]
Bookmarks: 12262,16723
DistanceSpacing: 1
BeatDivisor: 4
GridSize: 32
TimelineZoom: 2.5

[Metadata]
Title:Supervelocidad
TitleUnicode:Supervelocidad
Artist:TRONIC
ArtistUnicode:TRONIC
Creator:[-Evil-]
Version:Dificil
Source:
Tags:Punk Punk-Rock EspaƱol Pop-Punk Rock Spanish Ke Patine La Risa Chile Lugu
BeatmapID:3191015
BeatmapSetID:1560910

[Difficulty]
HPDrainRate:4
CircleSize:3.5
OverallDifficulty:7
ApproachRate:8
SliderMultiplier:1.1
SliderTickRate:1

[Events]
//Background and Video events
0,0,"Supervelocidaaaaaaaaaaaa.png",0,0
//Break Periods
//Storyboard Layer 0 (Background)
//Storyboard Layer 1 (Fail)
//Storyboard Layer 2 (Pass)
//Storyboard Layer 3 (Foreground)
//Storyboard Layer 4 (Overlay)
//Storyboard Sound Samples

[TimingPoints]
145,307.692307692308,4,2,1,50,1,0
145,-200,4,2,1,50,0,0
2068,-100,4,2,1,5,0,0
2145,-100,4,2,1,60,0,0
2606,-100,4,2,1,60,0,0
5298,-100,4,2,1,5,0,0
5375,-100,4,2,1,65,0,0
7760,-100,4,2,1,5,0,0
7837,-100,4,2,1,65,0,0
12452,-90.9090909090909,4,2,1,65,0,0
14606,-125,4,2,1,65,0,0
14837,-125,4,2,1,65,0,0
14914,-100,4,2,1,65,0,0
15145,-100,4,2,1,5,0,0
15221,-100,4,2,1,65,0,0
18606,-133.333333333333,4,2,1,55,0,0
19145,-133.333333333333,4,2,1,5,0,0
19221,-133.333333333333,4,2,1,55,0,0
19760,-133.333333333333,4,2,1,5,0,0
19837,-83.3333333333333,4,2,2,75,0,1
21991,-83.3333333333333,4,2,2,75,0,1
22221,-83.3333333333333,4,2,2,75,0,1
22298,-83.3333333333333,4,2,2,75,0,1
24452,-83.3333333333333,4,2,2,75,0,1
24683,-83.3333333333333,4,2,2,75,0,0
24760,-83.3333333333333,4,2,2,75,0,1
26914,-83.3333333333333,4,2,2,75,0,1
27145,-83.3333333333333,4,2,2,75,0,1
27222,-83.3333333333333,4,2,2,75,0,1
29683,-100,4,2,1,65,0,0
29914,-100,4,2,1,5,0,0
29991,-100,4,2,1,65,0,0
31760,-100,4,2,1,65,0,0
31837,-100,4,2,1,65,0,0
34837,-100,4,2,1,5,0,0
34914,-100,4,2,1,65,0,0
39760,-100,4,2,1,65,0,0
39837,-100,4,2,1,65,0,0
41914,-100,4,2,1,5,0,0
41991,-83.3333333333333,4,2,1,70,0,1
46914,-100,4,2,1,60,0,0
48068,-133.333333333333,4,2,1,5,0,0
48145,-100,4,2,1,55,0,0
48298,-133.333333333333,4,2,1,55,0,0
48914,-133.333333333333,4,2,1,20,0,0

[Colours]
Combo1 : 221,0,0
Combo2 : 192,192,210
Combo3 : 128,128,140
Combo4 : 117,0,0

[HitObjects]
3,84,145,6,0,B|125:63|125:63|183:134|183:134|314:111,1,343.75,2|0,1:2|0:0,0:0:0:0:
323,108,2145,1,0,1:0:0:0:
378,176,2298,2,0,L|373:221,3,27.5,8|8|8|8,0:0|0:0|0:0|0:0,0:0:0:0:
356,227,2606,5,6,1:2:0:0:
425,347,2914,2,0,L|432:284,1,55,10|0,0:0|0:0,0:0:0:0:
499,228,3221,1,2,1:2:0:0:
499,228,3375,2,0,L|492:165,1,55,2|8,1:2|0:0,0:0:0:0:
439,95,3683,38,0,P|412:85|368:92,1,55,6|0,1:2|0:0,0:0:0:0:
308,32,3991,2,0,P|285:50|269:91,1,55,2|8,1:2|0:0,0:0:0:0:
313,158,4298,2,0,L|188:144,1,110,2|0,1:2|1:2,0:0:0:0:
141,74,4760,1,10,0:0:0:0:
84,149,4914,1,8,0:0:0:0:
84,149,4991,1,8,0:0:0:0:
84,149,5068,1,0,0:0:0:0:
37,304,5375,6,0,L|28:374,1,55,10|0,0:0|0:0,0:0:0:0:
134,363,5683,1,2,1:2:0:0:
134,363,5837,2,0,L|125:292,1,55,2|8,1:2|0:0,0:0:0:0:
187,236,6145,38,0,P|219:220|254:233,1,55,2|0,1:2|0:0,0:0:0:0:
286,303,6452,2,0,P|318:318|353:305,1,55,2|8,1:2|0:0,0:0:0:0:
434,255,6760,2,0,L|420:138,1,110,2|0,1:2|1:2,0:0:0:0:
363,72,7221,2,0,L|366:42,3,27.5,8|8|0|0,0:0|0:0|1:0|1:0,0:0:0:0:
337,6,7529,6,0,P|301:-4|240:22,1,82.5,6|0,1:2|0:0,0:0:0:0:
239,50,7837,2,0,L|250:128,1,55,10|0,0:0|0:0,0:0:0:0:
304,178,8145,1,2,1:2:0:0:
304,178,8298,2,0,L|293:256,1,55,2|8,1:2|0:0,0:0:0:0:
217,284,8606,38,0,P|189:250|160:246,1,55,6|0,1:2|0:0,0:0:0:0:
89,219,8914,2,0,P|45:226|27:249,1,55,2|8,1:2|0:0,0:0:0:0:
36,334,9221,2,0,L|163:319,1,110,2|0,1:2|1:2,0:0:0:0:
225,369,9683,1,10,0:0:0:0:
305,317,9837,1,8,0:0:0:0:
305,317,9914,1,8,0:0:0:0:
305,317,9991,1,4,1:2:0:0:
226,147,10298,6,0,L|301:131,1,55,10|0,0:0|0:0,0:0:0:0:
348,70,10606,1,2,1:2:0:0:
348,70,10760,2,0,L|423:86,1,55,2|8,1:2|0:0,0:0:0:0:
490,113,11068,38,0,P|506:157|497:187,1,55,2|0,1:2|0:0,0:0:0:0:
476,252,11375,2,0,P|445:287|415:295,1,55,2|8,1:2|0:0,0:0:0:0:
349,305,11683,1,2,0:0:0:0:
349,305,11837,2,0,P|302:296|281:274,1,55,2|0,0:0|1:0,0:0:0:0:
247,212,12145,1,8,0:0:0:0:
136,293,12452,6,0,L|54:274,1,60.5000018463135,14|0,0:0|1:0,0:0:0:0:
14,196,12760,2,0,L|96:177,1,60.5000018463135,10|0,0:0|1:2,0:0:0:0:
137,102,13068,1,10,0:0:0:0:
137,102,13221,1,2,1:2:0:0:
212,179,13375,1,8,0:0:0:0:
212,179,13529,1,2,1:2:0:0:
275,98,13683,38,0,L|358:113,1,60.5000018463135,8|0,0:0|1:0,0:0:0:0:
397,190,13991,2,0,L|314:205,1,60.5000018463135,8|2,0:0|1:2,0:0:0:0:
256,262,14298,1,10,0:0:0:0:
256,262,14452,1,0,1:0:0:0:
324,330,14606,1,14,0:0:0:0:
167,366,14914,6,0,L|61:343,1,82.5,4|0,1:2|0:0,0:0:0:0:
51,317,15221,2,0,P|43:286|61:258,1,55,10|0,0:0|0:0,0:0:0:0:
141,231,15529,1,2,1:2:0:0:
141,231,15683,2,0,P|149:200|131:172,1,55,2|8,1:2|0:0,0:0:0:0:
77,109,15991,38,0,L|93:42,1,55,2|0,1:2|0:0,0:0:0:0:
172,11,16298,2,0,L|188:78,1,55,2|8,1:2|0:0,0:0:0:0:
251,131,16606,1,2,1:2:0:0:
251,131,16760,2,0,B|299:146|345:118|323:101|370:81|420:96,1,165,2|0,0:0|0:0,0:0:0:0:
479,148,17375,6,0,L|465:211,1,55,4|4,1:2|1:2,0:0:0:0:
5,371,18606,2,0,P|21:300|91:287,1,144.375005507469,6|0,1:2|0:0,0:0:0:0:
110,307,19221,2,0,P|159:360|226:336,1,144.375005507469,6|0,1:2|0:0,0:0:0:0:
253,298,19837,6,0,L|239:204,1,65.9999979858399,14|0,0:0|1:2,0:0:0:0:
142,198,20145,2,0,L|156:104,1,65.9999979858399,10|0,0:0|1:2,0:0:0:0:
116,33,20452,2,0,P|154:15|197:33,1,65.9999979858399,10|0,0:0|1:2,0:0:0:0:
258,86,20760,2,0,P|296:104|339:86,1,65.9999979858399,10|0,0:0|1:2,0:0:0:0:
391,23,21068,5,10,0:0:0:0:
473,87,21221,1,0,1:2:0:0:
405,168,21375,1,10,0:0:0:0:
497,218,21529,1,0,1:2:0:0:
430,300,21683,1,10,0:0:0:0:
430,300,21837,2,0,L|439:349,2,32.99999899292,0|0|10,1:2|1:2|0:0,0:0:0:0:
230,370,22298,38,0,L|146:345,1,65.9999979858399,14|0,0:0|1:0,0:0:0:0:
78,292,22606,2,0,L|162:267,1,65.9999979858399,10|0,0:0|1:0,0:0:0:0:
225,207,22914,2,0,P|191:174|163:163,1,65.9999979858399,10|0,2:0|1:2,0:0:0:0:
71,141,23221,2,0,P|91:98|113:79,1,65.9999979858399,10|0,0:0|1:2,0:0:0:0:
178,10,23529,5,10,0:0:0:0:
236,98,23683,1,0,1:2:0:0:
319,33,23837,1,10,0:0:0:0:
393,107,23991,1,0,1:2:0:0:
471,36,24145,1,10,0:0:0:0:
471,36,24298,2,0,L|456:0,2,32.99999899292,0|0|10,1:2|1:0|0:0,0:0:0:0:
367,220,24760,38,0,P|339:250|311:255,1,65.9999979858399,14|0,0:0|1:2,0:0:0:0:
258,166,25068,2,0,P|286:136|314:131,1,65.9999979858399,10|0,0:0|1:0,0:0:0:0:
367,220,25375,2,0,L|385:307,1,65.9999979858399,10|0,0:0|1:2,0:0:0:0:
310,364,25683,2,0,L|233:352,1,65.9999979858399,10|0,0:0|1:2,0:0:0:0:
142,323,25991,5,10,0:0:0:0:
207,240,26145,1,0,1:2:0:0:
118,183,26298,1,10,0:0:0:0:
195,110,26452,1,0,1:2:0:0:
106,61,26606,1,10,0:0:0:0:
106,61,26760,2,0,L|69:77,2,32.99999899292,0|0|10,1:2|1:0|0:0,0:0:0:0:
310,6,27221,38,0,L|293:96,1,65.9999979858399,14|0,0:0|1:0,0:0:0:0:
195,110,27529,2,0,L|212:200,1,65.9999979858399,10|0,0:0|1:2,0:0:0:0:
236,277,27837,2,0,P|270:245|311:241,1,65.9999979858399,10|0,0:0|1:2,0:0:0:0:
363,314,28145,2,0,P|397:346|438:350,1,65.9999979858399,10|0,0:0|1:2,0:0:0:0:
486,272,28452,6,0,L|479:235,3,32.99999899292,10|8|8|8,0:0|0:0|0:0|0:0,0:0:0:0:
433,212,28760,2,0,L|440:175,3,32.99999899292,10|8|8|8,0:0|0:0|0:0|0:0,0:0:0:0:
475,140,29068,2,0,L|468:103,3,32.99999899292,10|8|8|8,0:0|0:0|0:0|0:0,0:0:0:0:
422,83,29375,2,0,L|428:50,3,32.99999899292,10|8|8|8,0:0|0:0|0:0|0:0,0:0:0:0:
449,11,29683,6,0,L|346:29,1,82.5,4|0,1:2|0:0,0:0:0:0:
343,53,29991,2,0,L|279:41,1,55,10|0,0:0|0:0,0:0:0:0:
207,9,30298,1,2,1:2:0:0:
207,9,30452,2,0,L|143:21,1,55,2|8,1:2|0:0,0:0:0:0:
61,42,30760,6,0,P|47:88|60:114,1,55,2|0,1:2|0:0,0:0:0:0:
136,126,31068,2,0,P|150:172|137:198,1,55,2|8,1:2|0:0,0:0:0:0:
51,230,31375,2,0,L|66:354,1,110,2|0,1:2|1:0,0:0:0:0:
150,377,31837,1,8,0:0:0:0:
204,301,31991,1,8,0:0:0:0:
204,301,32068,1,8,0:0:0:0:
204,301,32145,1,4,1:2:0:0:
283,348,32298,37,2,0:0:0:0:
283,348,32452,2,0,L|359:335,1,55,10|2,0:0|0:0,0:0:0:0:
392,263,32760,1,2,1:2:0:0:
392,263,32914,2,0,L|316:250,1,55,2|10,1:2|0:0,0:0:0:0:
249,222,33221,6,0,P|237:188|244:164,1,55,6|0,1:2|0:0,0:0:0:0:
190,90,33529,2,0,P|213:62|237:56,1,55,2|8,1:2|0:0,0:0:0:0:
307,2,33837,2,0,B|341:-9|367:8|349:27|383:36|426:27,1,110,2|0,1:2|1:0,0:0:0:0:
482,85,34298,2,0,L|475:126,3,27.5,10|8|0|0,0:0|0:0|1:2|1:2,0:0:0:0:
441,143,34606,38,0,L|457:240,1,82.5,4|0,1:2|0:0,0:0:0:0:
463,270,34914,2,0,P|435:291|401:282,1,55,10|0,0:0|0:0,0:0:0:0:
354,227,35221,1,2,1:2:0:0:
354,227,35375,2,0,P|326:206|292:215,1,55,2|8,1:2|0:0,0:0:0:0:
239,272,35683,6,0,L|246:348,1,55,2|0,1:2|0:0,0:0:0:0:
162,374,35991,1,2,1:2:0:0:
162,374,36145,1,10,0:0:0:0:
89,315,36298,2,0,L|96:239,1,55,2|0,1:2|0:0,0:0:0:0:
163,196,36606,1,2,1:2:0:0:
163,196,36760,1,8,0:0:0:0:
110,132,36914,1,8,0:0:0:0:
110,132,36991,1,8,0:0:0:0:
110,132,37068,1,4,1:2:0:0:
176,66,37221,37,2,0:0:0:0:
176,66,37375,2,0,L|247:80,1,55,10|2,0:0|0:0,0:0:0:0:
296,143,37683,2,0,L|225:157,1,55,2|2,1:2|1:2,0:0:0:0:
163,196,37991,1,10,0:0:0:0:
209,277,38145,6,0,P|239:297|275:294,1,55,6|0,1:2|0:0,0:0:0:0:
324,362,38452,2,0,P|356:346|371:313,1,55,2|8,1:2|0:0,0:0:0:0:
418,252,38760,2,0,L|402:137,1,110,2|0,1:2|1:0,0:0:0:0:
332,81,39221,2,0,L|336:46,3,27.5,10|8|0|0,0:0|0:0|1:0|1:0,0:0:0:0:
344,7,39529,1,6,1:2:0:0:
157,18,39837,38,0,L|82:31,1,55,10|0,0:0|0:0,0:0:0:0:
39,97,40145,2,0,L|155:117,1,110,2|8,1:2|0:0,0:0:0:0:
215,179,40606,1,2,0:0:0:0:
215,179,40760,2,0,P|231:226|194:296,1,110,0|8,1:0|0:0,0:0:0:0:
32,337,41375,1,0,1:0:0:0:
32,337,41529,1,0,1:0:0:0:
10,251,41683,2,0,L|31:159,1,82.5,8|0,0:0|0:0,0:0:0:0:
24,117,41991,22,0,P|70:107|100:132,1,65.9999979858399,12|0,0:0|1:0,0:0:0:0:
153,195,42298,2,0,P|199:205|229:180,1,65.9999979858399,10|0,0:0|1:2,0:0:0:0:
276,111,42606,1,10,0:0:0:0:
355,180,42760,1,0,1:2:0:0:
434,109,42914,1,8,0:0:0:0:
434,109,43068,1,2,1:2:0:0:
500,190,43221,6,0,L|486:274,1,65.9999979858399,8|0,0:0|1:2,0:0:0:0:
424,339,43529,2,0,L|410:255,1,65.9999979858399,8|0,0:0|1:2,0:0:0:0:
355,180,43837,1,8,0:0:0:0:
280,255,43991,1,0,1:2:0:0:
232,166,44145,1,8,0:0:0:0:
232,166,44298,1,0,1:2:0:0:
158,241,44452,38,0,P|96:259|89:256,1,65.9999979858399,12|0,0:0|1:0,0:0:0:0:
19,188,44760,2,0,P|34:125|40:120,1,65.9999979858399,10|0,0:0|1:2,0:0:0:0:
84,34,45068,1,10,0:0:0:0:
149,116,45221,1,0,1:2:0:0:
213,33,45375,1,8,0:0:0:0:
213,33,45529,1,2,1:2:0:0:
270,121,45683,6,0,L|351:100,1,65.9999979858399,8|0,0:0|1:2,0:0:0:0:
414,34,45991,2,0,L|495:55,1,65.9999979858399,8|0,0:0|1:2,0:0:0:0:
509,151,46298,1,8,0:0:0:0:
415,199,46452,1,0,1:2:0:0:
487,282,46606,1,8,0:0:0:0:
487,282,46760,1,0,1:2:0:0:
402,308,46914,6,0,L|350:287,1,55,10|0,0:0|0:0,0:0:0:0:
262,284,47221,2,0,L|253:209,1,55,8|0,0:0|1:0,0:0:0:0:
178,184,47529,2,0,L|169:259,1,55,8|0,0:0|1:0,0:0:0:0:
95,285,47837,2,0,L|84:201,1,82.5,8|0,0:0|0:0,0:0:0:0:
77,159,48145,1,6,1:2:0:0:
186,91,48298,6,0,B|241:101|241:101|260:150|260:150|328:169,1,165.000006294251,6|0,1:2|0:0,0:0:0:0:
