osu file format v14

[General]
AudioFilename: audio.mp3
AudioLeadIn: 0
PreviewTime: 22300
Countdown: 0
SampleSet: Soft
StackLeniency: 0.7
Mode: 2
LetterboxInBreaks: 0
WidescreenStoryboard: 0

[Editor]
DistanceSpacing: 1.4
BeatDivisor: 4
GridSize: 8
TimelineZoom: 3.499999

[Metadata]
Title:Chichavino
TitleUnicode:Chichavino
Artist:TRONIC
ArtistUnicode:TRONIC
Creator:Ponchiwi
Version:Salad
Source:
Tags:Ke Patine La Risa Jusenkyo
BeatmapID:1257750
BeatmapSetID:594658

[Difficulty]
HPDrainRate:4
CircleSize:3
OverallDifficulty:7
ApproachRate:7
SliderMultiplier:1
SliderTickRate:1

[Events]
//Background and Video events
0,0,"tronic.jpg",0,0
//Break Periods
2,81882,90060
//Storyboard Layer 0 (Background)
//Storyboard Layer 1 (Fail)
//Storyboard Layer 2 (Pass)
//Storyboard Layer 3 (Foreground)
//Storyboard Sound Samples

[TimingPoints]
2507,309.278350515464,4,2,1,75,1,0
12403,-100,4,2,1,70,0,0
21682,-100,4,2,1,80,0,0
22300,-83.3333333333333,4,2,1,85,0,1
32197,-100,4,2,1,70,0,0
41476,-100,4,2,1,80,0,0
42094,-83.3333333333333,4,2,1,85,0,1
51372,-83.3333333333333,4,2,1,80,0,0
51991,-83.3333333333333,4,2,1,85,0,1
56939,-111.111111111111,4,2,1,75,0,0
58177,-111.111111111111,4,2,1,75,0,0
59414,-100,4,2,1,80,0,0
61888,-83.3333333333333,4,2,1,75,0,0
81682,-100,4,2,1,75,0,0
90960,-100,4,2,1,75,0,0
91579,-83.3333333333333,4,2,1,75,0,1
100857,-83.3333333333333,4,2,1,75,0,0
101476,-83.3333333333333,4,2,1,75,0,1
110754,-83.3333333333333,4,2,1,75,0,0
111372,-83.3333333333333,4,2,1,75,0,1
113847,-100,4,2,1,75,0,0
115084,-100,4,2,1,65,0,0
116321,-100,4,2,1,55,0,0
117558,-100,4,2,1,45,0,0
118795,-100,4,2,1,35,0,0
120032,-100,4,2,1,25,0,0
120342,-100,4,2,1,15,0,0
120651,-100,4,2,1,10,0,0
120960,-100,4,2,1,5,0,0

[Colours]
Combo1 : 217,61,4
Combo2 : 242,93,7
Combo3 : 242,191,128
Combo4 : 242,145,2

[HitObjects]
304,304,2507,6,0,L|416:304,1,100,8|8,3:0|0:0,0:0:0:0:
224,240,3125,2,0,L|160:240,1,50,2|0,0:0|0:0,0:0:0:0:
224,240,3434,1,8,3:0:0:0:
96,64,3744,6,0,L|208:64,1,100,8|8,0:0|0:0,0:0:0:0:
328,64,4362,1,2,0:0:0:0:
376,64,4517,1,0,0:0:0:0:
424,64,4671,1,8,3:0:0:0:
144,288,4981,6,0,P|96:304|48:288,1,100,8|8,3:1|0:0,0:0:0:0:
176,208,5599,2,0,L|248:208,1,50,2|0,0:0|0:0,0:0:0:0:
272,208,5909,1,8,0:0:0:0:
432,112,6218,5,2,0:0:0:0:
272,112,6527,1,8,0:0:0:0:
432,112,6836,2,0,L|482:112,2,50,0|0|8,0:0|0:0|0:0,0:0:0:0:
160,112,7455,6,0,L|60:112,1,100,8|8,3:1|0:0,0:0:0:0:
224,192,8074,2,0,L|274:192,1,50,2|0,0:0|0:0,0:0:0:0:
224,192,8383,1,8,0:0:0:0:
400,112,8692,6,0,L|300:112,1,100,8|8,3:0|0:0,0:0:0:0:
112,288,9311,2,0,L|212:288,1,100,0|8,0:0|0:0,0:0:0:0:
480,192,9929,6,0,L|368:192,1,100,8|8,3:1|0:0,0:0:0:0:
224,144,10548,1,8,0:0:0:0:
160,144,10702,1,0,0:0:0:0:
96,144,10857,1,2,0:0:0:0:
256,144,11166,6,0,L|345:144,1,75,8|8,0:0|0:0,0:0:0:0:
448,144,11630,1,8,0:0:0:0:
384,192,11785,2,0,L|334:192,1,50,2|0,0:0|0:0,0:0:0:0:
406,288,12094,2,0,L|447:315,1,50,8|0,0:0|0:0,0:0:0:0:
272,288,12403,6,0,L|160:288,1,100,12|0,1:0|0:0,0:0:0:0:
64,288,13022,1,2,0:0:0:0:
208,288,13331,1,0,0:0:0:0:
352,288,13641,6,0,B|464:288,1,100,8|0,3:0|0:0,0:0:0:0:
384,144,14259,1,2,0:0:0:0:
328,144,14414,1,0,0:0:0:0:
264,144,14568,1,8,0:2:0:0:
16,144,14878,6,0,L|116:144,1,100,8|0,0:1|0:0,0:0:0:0:
368,144,15496,2,0,L|268:144,1,100,8|0,0:3|0:0,0:0:0:0:
16,224,16115,6,0,L|116:224,1,100,8|0,0:1|0:2,0:0:0:0:
256,224,16733,1,8,0:2:0:0:
116,224,17043,1,0,0:0:0:0:
368,128,17352,6,0,L|468:128,1,100,12|0,0:1|0:0,0:0:0:0:
352,128,17970,1,0,3:0:0:0:
496,128,18280,1,8,0:0:0:0:
320,128,18589,6,0,L|420:128,1,100,8|0,3:0|0:0,0:0:0:0:
320,192,19208,1,2,0:0:0:0:
392,192,19362,1,0,0:0:0:0:
320,192,19517,1,8,0:0:0:0:
160,128,19826,5,8,0:1:0:0:
76,128,20135,1,0,0:0:0:0:
336,256,20445,1,8,0:3:0:0:
416,256,20754,1,0,0:0:0:0:
160,320,21063,5,8,3:0:0:0:
288,320,21372,1,8,3:0:0:0:
416,320,21682,5,8,0:1:0:0:
480,304,21836,1,8,0:1:0:0:
496,240,21991,1,8,0:1:0:0:
448,192,22146,1,8,0:1:0:0:
256,144,22300,6,0,L|160:64,1,119.999996337891,12|8,3:0|0:0,0:0:0:0:
336,64,22919,2,0,L|416:64,2,59.9999981689454,2|0|8,3:0|3:0|3:0,3:0:0:0:
176,64,23537,1,8,0:0:0:0:
336,128,23847,6,0,L|456:128,1,119.999996337891,8|2,3:0|0:0,0:0:0:0:
384,128,24311,2,0,L|324:128,1,59.9999981689454,0|8,0:0|0:0,0:0:0:0:
64,128,24775,6,0,L|184:128,1,119.999996337891,12|8,3:1|0:0,0:0:0:0:
272,208,25393,1,0,0:0:0:0:
208,208,25548,2,0,L|268:208,1,59.9999981689454,0|8,0:0|0:0,0:0:0:0:
160,288,26012,6,0,L|296:288,1,119.999996337891,8|0,3:0|0:0,0:0:0:0:
112,288,26630,1,2,0:0:0:0:
48,288,26785,1,0,0:0:0:0:
112,288,26939,1,8,0:0:0:0:
384,208,27249,6,0,L|512:160,1,119.999996337891,12|0,1:0|0:0,0:0:0:0:
352,304,27867,2,0,L|240:256,1,119.999996337891,8|0,0:3|0:0,0:0:0:0:
128,80,28486,2,0,L|256:80,1,119.999996337891,8|0,0:1|0:0,0:0:0:0:
416,208,29104,2,0,L|288:160,1,119.999996337891,8|0,0:3|0:0,0:0:0:0:
32,192,29723,5,12,0:1:0:0:
192,224,30032,1,2,0:0:0:0:
352,176,30342,1,0,0:0:0:0:
192,128,30651,1,8,0:0:0:0:
352,144,30960,6,0,L|448:144,1,89.9999972534181,8|8,0:0|0:0,0:0:0:0:
400,192,31424,1,0,0:0:0:0:
320,192,31579,2,0,L|246:192,1,59.9999981689454,2|0,0:0|0:0,0:0:0:0:
342,288,31888,2,0,L|406:320,1,59.9999981689454,8|0,0:0|0:0,0:0:0:0:
218,320,32197,6,0,L|106:320,1,100,12|0,3:0|0:0,0:0:0:0:
272,320,32816,1,2,0:0:0:0:
416,320,33125,1,8,0:0:0:0:
240,224,33434,6,0,L|340:224,1,100,8|0,3:0|0:0,0:0:0:0:
192,160,34053,1,8,0:3:0:0:
128,160,34208,1,0,0:0:0:0:
192,160,34362,1,2,0:0:0:0:
448,128,34671,6,0,P|480:96|432:64,1,100,8|0,3:1|0:0,0:0:0:0:
176,144,35290,2,0,L|64:144,1,100,8|0,0:3|0:0,0:0:0:0:
336,256,35909,2,0,L|448:256,1,100,8|10,0:1|0:0,0:0:0:0:
304,144,36527,1,0,0:0:0:0:
445,143,36836,1,8,0:0:0:0:
160,144,37146,6,0,L|64:112,1,100,12|8,0:1|0:0,0:0:0:0:
208,80,37764,1,0,3:0:0:0:
352,80,38074,1,8,0:0:0:0:
160,176,38383,6,0,L|260:176,1,100,8|0,3:1|0:0,0:0:0:0:
384,176,39001,1,2,0:0:0:0:
320,176,39156,1,0,0:0:0:0:
260,176,39311,1,8,0:0:0:0:
88,176,39620,5,8,3:1:0:0:
216,176,39929,1,0,0:0:0:0:
472,176,40238,1,8,3:0:0:0:
328,176,40548,1,0,0:0:0:0:
80,176,40857,1,8,3:0:0:0:
240,176,41166,1,8,0:0:0:0:
80,192,41476,5,8,0:0:0:0:
32,128,41630,1,8,0:0:0:0:
64,64,41785,1,8,0:0:0:0:
144,48,41939,1,8,0:0:0:0:
336,176,42094,6,0,L|432:96,1,119.999996337891,12|0,3:0|0:0,0:0:0:0:
240,96,42713,2,0,L|176:96,1,59.9999981689454,2|0,0:0|0:0,0:0:0:0:
240,96,43022,1,8,0:0:0:0:
400,96,43331,1,8,3:0:0:0:
240,160,43641,2,0,L|112:160,1,119.999996337891,8|2,0:0|0:0,0:0:0:0:
48,160,44104,2,0,L|128:160,1,59.9999981689454,0|10,0:0|0:0,0:0:0:0:
352,160,44568,6,0,L|232:160,1,119.999996337891,12|8,0:0|0:0,0:0:0:0:
144,112,45187,1,2,0:0:0:0:
224,112,45342,2,0,L|304:112,1,59.9999981689454,0|8,0:0|0:0,0:0:0:0:
144,192,45805,2,0,L|280:192,1,119.999996337891,8|0,3:1|0:0,0:0:0:0:
432,192,46424,2,0,L|512:192,1,59.9999981689454,2|0,0:0|0:0,0:0:0:0:
432,192,46733,1,8,0:0:0:0:
160,112,47043,6,0,L|40:112,1,119.999996337891,12|0,3:1|0:0,0:0:0:0:
160,288,47661,2,0,L|280:288,1,119.999996337891,8|0,3:3|0:0,0:0:0:0:
384,144,48280,2,0,L|256:144,1,119.999996337891,8|0,3:1|0:0,0:0:0:0:
112,64,48898,2,0,L|232:64,1,119.999996337891,8|0,3:3|0:0,0:0:0:0:
480,64,49517,5,12,0:0:0:0:
320,64,49826,1,8,0:0:0:0:
176,64,50135,1,2,0:0:0:0:
320,64,50445,1,8,0:0:0:0:
144,64,50754,6,0,L|54:64,1,89.9999972534181,8|8,0:0|0:0,0:0:0:0:
176,96,51218,1,0,0:0:0:0:
256,96,51372,1,2,0:0:0:0:
176,96,51527,1,0,0:0:0:0:
256,96,51682,1,8,0:0:0:0:
336,96,51836,1,0,0:0:0:0:
496,96,51991,6,0,L|376:96,1,119.999996337891,12|0,3:1|0:0,0:0:0:0:
256,256,52610,2,0,L|176:256,1,59.9999981689454,2|0,0:0|0:0,0:0:0:0:
128,256,52919,1,8,3:0:0:0:
320,176,53228,1,8,0:1:0:0:
188,96,53537,2,0,L|308:96,1,119.999996337891,8|2,0:0|0:0,0:0:0:0:
384,96,54001,2,0,L|320:96,1,59.9999981689454,0|8,0:0|0:3,0:0:0:0:
64,96,54465,5,12,0:1:0:0:
224,96,54775,2,0,L|344:96,1,119.999996337891,8|2,0:0|0:0,0:0:0:0:
256,96,55238,2,0,L|192:96,1,59.9999981689454,0|8,0:0|0:0,0:0:0:0:
368,96,55702,2,0,L|248:96,1,119.999996337891,8|8,3:1|0:0,0:0:0:0:
80,96,56321,1,2,0:0:0:0:
144,96,56476,1,0,0:0:0:0:
208,96,56630,1,8,0:3:0:0:
464,96,56939,5,12,3:1:0:0:
32,128,58177,1,8,0:0:0:0:
192,128,58795,1,0,0:0:0:0:
480,128,59414,5,8,3:0:0:0:
336,224,59723,1,8,0:0:0:0:
192,224,60032,1,10,0:0:0:0:
336,224,60342,1,8,0:0:0:0:
208,160,60651,6,0,L|283:160,1,75,8|8,0:0|0:0,0:0:0:0:
384,160,61115,1,0,0:0:0:0:
432,176,61269,1,2,0:0:0:0:
448,240,61424,1,0,0:0:0:0:
416,288,61579,1,8,0:0:0:0:
352,288,61733,1,0,0:0:0:0:
168,288,61888,6,0,L|56:240,1,119.999996337891,12|8,0:0|0:3,3:0:0:0:
240,208,62507,1,0,0:1:0:0:
304,192,62661,1,0,0:0:0:0:
240,208,62816,1,8,0:3:0:0:
176,144,62970,6,0,L|304:96,1,119.999996337891,0|0,0:0|0:0,0:0:0:0:
240,208,63434,2,0,L|128:256,1,119.999996337891,8|0,0:3|0:0,0:0:0:0:
32,224,63898,2,0,L|96:192,1,59.9999981689454,0|8,0:0|0:0,0:0:0:0:
336,80,64362,6,0,L|448:128,1,119.999996337891,8|0,0:1|0:0,0:0:0:0:
272,192,64981,1,0,0:0:0:0:
208,160,65135,1,0,0:0:0:0:
272,192,65290,1,8,3:0:0:0:
352,160,65445,6,0,L|240:96,1,119.999996337891,0|0,0:0|0:0,0:0:0:0:
160,224,65909,2,0,L|288:224,1,119.999996337891,8|0,0:3|0:0,0:0:0:0:
336,224,66372,1,0,0:0:0:0:
400,224,66527,1,8,0:3:0:0:
128,128,66836,6,0,L|0:64,1,119.999996337891,12|0,0:1|0:0,0:0:0:0:
160,192,67455,1,0,0:0:0:0:
224,192,67610,1,0,0:0:0:0:
288,192,67764,1,8,0:3:0:0:
352,128,67919,6,0,L|224:128,1,119.999996337891,0|0,0:0|0:0,0:0:0:0:
176,192,68383,2,0,L|304:192,1,119.999996337891,8|0,0:3|0:0,0:0:0:0:
368,192,68847,1,0,0:0:0:0:
288,192,69001,1,8,0:3:0:0:
32,192,69311,5,12,0:1:0:0:
208,192,69620,1,0,0:0:0:0:
80,96,69929,1,0,0:0:0:0:
16,96,70084,1,0,0:0:0:0:
80,96,70238,1,8,0:1:0:0:
144,96,70393,6,0,L|272:96,1,119.999996337891,0|0,0:0|0:0,0:0:0:0:
368,160,70857,2,0,L|240:160,1,119.999996337891,8|8,0:3|0:3,0:0:0:0:
176,160,71321,1,8,0:3:0:0:
112,208,71476,1,8,0:3:0:0:
176,256,71630,1,8,0:3:0:0:
352,256,71785,6,0,L|496:256,1,119.999996337891,12|0,0:1|0:0,0:0:0:0:
304,176,72403,1,0,0:0:0:0:
368,176,72558,1,0,0:0:0:0:
432,176,72713,1,8,0:3:0:0:
352,96,72867,6,0,L|208:96,1,119.999996337891
336,96,73331,2,0,L|480:96,1,119.999996337891,8|0,0:3|0:0,0:0:0:0:
416,176,73795,2,0,L|352:176,1,59.9999981689454,0|8,0:0|0:3,0:0:0:0:
80,288,74259,6,0,P|32:256|32:176,2,119.999996337891,12|0|0,0:1|0:0|0:0,0:0:0:0:
144,336,75032,1,0,0:0:0:0:
208,288,75187,1,8,0:0:0:0:
272,288,75342,6,0,L|400:288,1,119.999996337891,0|0,0:0|0:0,0:0:0:0:
288,288,75805,2,0,L|168:288,1,119.999996337891,8|0,0:3|0:0,0:0:0:0:
224,224,76269,1,0,0:0:0:0:
160,224,76424,1,8,0:3:0:0:
416,208,76733,6,0,P|448:192|480:112,1,119.999996337891,12|0,0:1|0:0,0:0:0:0:
320,144,77352,1,8,0:0:0:0:
240,144,77507,1,0,0:0:0:0:
320,144,77661,1,8,0:3:0:0:
240,144,77816,6,0,L|112:144,1,119.999996337891,0|0,0:0|0:0,0:0:0:0:
208,144,78280,2,0,L|336:144,1,119.999996337891,8|8,0:3|0:3,0:0:0:0:
240,144,78744,1,0,0:0:0:0:
160,144,78898,1,8,0:3:0:0:
432,144,79208,2,0,P|480:112|464:32,2,119.999996337891,12|8|0,0:1|0:3|0:0,0:0:0:0:
336,184,79981,1,8,0:2:0:0:
264,216,80135,1,8,0:3:0:0:
208,168,80290,1,0,0:0:0:0:
224,96,80445,5,8,0:3:0:0:
288,72,80599,1,0,0:0:0:0:
360,80,80754,1,8,0:3:0:0:
416,120,80909,1,0,0:0:0:0:
440,192,81063,1,8,0:3:0:0:
408,256,81218,1,0,0:0:0:0:
352,288,81372,1,8,0:3:0:0:
80,272,81682,5,12,0:1:0:0:
352,48,90960,5,8,0:3:0:0:
416,52,91114,1,8,0:3:0:0:
460,108,91269,1,8,0:3:0:0:
400,160,91423,1,8,0:3:0:0:
224,208,91578,6,0,L|112:160,1,100,12|0,0:1|0:0,0:0:0:0:
288,128,92197,2,0,L|352:128,1,59.9999981689454,2|0,0:0|0:0,0:0:0:0:
416,128,92507,1,8,0:3:0:0:
256,128,92815,1,8,0:1:0:0:
432,192,93125,2,0,L|312:192,1,119.999996337891,0|2,0:0|0:0,0:0:0:0:
384,192,93589,2,0,L|444:192,1,59.9999981689454,0|8,0:0|0:3,0:0:0:0:
160,192,94052,6,0,L|32:192,1,119.999996337891,12|0,0:1|0:0,0:0:0:0:
160,112,94671,1,2,0:0:0:0:
240,112,94826,2,0,L|304:112,1,59.9999981689454,0|8,0:0|0:3,0:0:0:0:
432,112,95289,2,0,L|312:112,1,119.999996337891,8|0,0:1|0:0,0:0:0:0:
160,112,95908,1,2,0:0:0:0:
96,112,96063,1,0,0:0:0:0:
160,112,96218,1,8,0:1:0:0:
432,192,96527,6,0,P|480:160|480:96,1,119.999996337891,12|0,0:1|0:0,0:0:0:0:
320,64,97145,2,0,L|200:64,1,119.999996337891,8|0,0:0|0:0,0:0:0:0:
64,176,97764,2,0,P|33:223|67:268,1,119.999996337891,8|0,0:1|0:0,0:0:0:0:
240,320,98382,2,0,P|288:288|272:208,1,119.999996337891,8|0,0:0|0:0,0:0:0:0:
32,64,99001,5,8,0:1:0:0:
192,64,99310,1,0,0:0:0:0:
336,64,99620,1,2,0:0:0:0:
192,64,99929,1,0,0:0:0:0:
352,64,100238,6,0,L|262:64,1,89.9999972534181,8|8,0:0|0:0,0:0:0:0:
128,64,100702,1,0,0:0:0:0:
192,112,100857,2,0,L|256:160,1,59.9999981689454,10|0,0:0|0:0,0:0:0:0:
176,192,101166,2,0,L|112:240,1,59.9999981689454,8|0,0:0|0:0,0:0:0:0:
304,288,101476,6,0,L|416:208,1,119.999996337891,12|0,0:1|0:0,0:0:0:0:
272,80,102095,2,0,L|336:80,1,59.9999981689454,2|0,0:0|0:0,0:0:0:0:
400,80,102403,1,8,0:0:0:0:
288,320,102713,1,8,0:0:0:0:
160,208,103023,2,0,L|280:208,1,119.999996337891,0|2,0:0|0:0,0:0:0:0:
208,208,103487,2,0,L|148:208,1,59.9999981689454,0|8,0:0|0:3,0:0:0:0:
416,128,103950,6,0,L|296:128,1,119.999996337891,12|0,0:1|0:0,0:0:0:0:
160,176,104569,1,2,0:0:0:0:
240,176,104724,2,0,L|180:176,1,59.9999981689454,0|8,0:0|0:0,0:0:0:0:
16,96,105187,2,0,L|136:96,1,119.999996337891,8|0,0:1|0:0,0:0:0:0:
304,96,105806,1,2,0:0:0:0:
368,96,105961,1,0,0:0:0:0:
304,96,106115,1,8,0:1:0:0:
48,224,106424,6,0,L|192:224,1,119.999996337891,12|0,0:1|0:0,0:0:0:0:
352,272,107043,2,0,L|244:325,1,119.999996337891,8|0,0:3|0:0,0:0:0:0:
80,112,107662,2,0,L|184:171,1,119.999996337891,8|0,0:1|0:0,0:0:0:0:
64,336,108280,2,0,P|64:288|128:256,1,119.999996337891,2|8,0:0|0:3,0:0:0:0:
384,96,108899,5,12,0:1:0:0:
480,96,109208,1,0,0:0:0:0:
320,176,109517,1,2,0:0:0:0:
176,176,109827,1,0,0:0:0:0:
48,80,110136,6,0,L|138:80,1,89.9999972534181,8|8,0:0|0:0,0:0:0:0:
272,80,110600,1,0,0:0:0:0:
352,112,110754,2,0,L|304:160,1,59.9999981689454,10|0,0:0|0:0,0:0:0:0:
240,208,111063,2,0,L|304:240,1,59.9999981689454,8|0,0:0|0:0,0:0:0:0:
464,320,111372,6,0,L|344:320,1,119.999996337891,12|0,0:1|0:0,0:0:0:0:
176,288,111990,2,0,P|144:240|176:192,1,119.999996337891,2|8,0:0|0:3,0:0:0:0:
352,112,112609,2,0,L|232:112,1,119.999996337891,8|0,0:1|0:0,0:0:0:0:
64,96,113228,2,0,P|32:144|80:192,1,119.999996337891,0|0,3:0|0:0,0:0:0:0:
256,192,113847,12,0,121269,0:2:0:0:
