osu file format v14

[General]
AudioFilename: audio.mp3
AudioLeadIn: 0
PreviewTime: 22300
Countdown: 0
SampleSet: Soft
StackLeniency: 0.7
Mode: 2
LetterboxInBreaks: 0
WidescreenStoryboard: 0

[Editor]
Bookmarks: 81682,90960
DistanceSpacing: 1.4
BeatDivisor: 4
GridSize: 8
TimelineZoom: 2.3

[Metadata]
Title:Chichavino
TitleUnicode:Chichavino
Artist:TRONIC
ArtistUnicode:TRONIC
Creator:Ponchiwi
Version:Jusen's Rain
Source:
Tags:Ke Patine La Risa Jusenkyo
BeatmapID:1357095
BeatmapSetID:594658

[Difficulty]
HPDrainRate:6
CircleSize:3.8
OverallDifficulty:8.8
ApproachRate:8.8
SliderMultiplier:1.8
SliderTickRate:2

[Events]
//Background and Video events
0,0,"tronic.jpg",0,0
//Break Periods
2,81882,90331
//Storyboard Layer 0 (Background)
//Storyboard Layer 1 (Fail)
//Storyboard Layer 2 (Pass)
//Storyboard Layer 3 (Foreground)
//Storyboard Sound Samples

[TimingPoints]
2507,309.278350515464,4,2,1,75,1,0
12403,-100,4,2,1,70,0,0
21682,-100,4,2,1,80,0,0
22300,-100,4,2,1,85,0,1
32197,-100,4,2,1,70,0,0
41476,-100,4,2,1,80,0,0
42094,-100,4,2,1,85,0,1
51372,-100,4,2,1,80,0,0
51991,-100,4,2,1,85,0,1
59414,-100,4,2,1,80,0,0
91579,-100,4,2,1,85,0,1
100857,-100,4,2,1,75,0,0
101476,-100,4,2,1,85,0,1
110754,-100,4,2,1,75,0,0
111372,-100,4,2,1,85,0,1
113847,-100,4,2,1,75,0,0
115084,-100,4,2,1,65,0,0
116321,-100,4,2,1,55,0,0
117558,-100,4,2,1,45,0,0
118795,-100,4,2,1,35,0,0
120032,-100,4,2,1,25,0,0
120342,-100,4,2,1,15,0,0
120651,-100,4,2,1,10,0,0
120960,-100,4,2,1,5,0,0

[Colours]
Combo1 : 217,61,4
Combo2 : 242,93,7
Combo3 : 242,191,128
Combo4 : 242,145,2

[HitObjects]
176,192,2507,6,0,P|104:216|104:328,1,180,8|8,3:0|0:0,0:0:0:0:
288,264,3125,2,0,L|192:264,1,90,2|0,0:0|0:0,0:0:0:0:
320,208,3434,1,8,3:0:0:0:
104,192,3744,6,0,P|152:120|256:120,1,180,8|8,0:0|0:0,0:0:0:0:
464,232,4362,2,0,L|448:352,1,90,2|0,0:0|0:0,0:0:0:0:
328,328,4671,1,8,3:0:0:0:
40,224,4981,6,0,P|64:272|184:272,1,180,8|8,3:1|0:0,0:0:0:0:
376,240,5599,2,0,L|472:240,1,90,2|0,0:0|0:0,0:0:0:0:
344,192,5909,1,8,0:0:0:0:
104,232,6218,6,0,P|108:285|232:321,1,180,2|8,0:0|0:0,0:0:0:0:
376,272,6836,2,0,L|248:272,1,90
112,272,7146,1,8,0:0:0:0:
488,272,7455,6,0,P|464:216|344:168,1,180,8|8,3:1|0:0,0:0:0:0:
160,208,8074,2,0,L|232:288,1,90,2|0,0:0|0:0,0:0:0:0:
344,288,8383,1,8,0:0:0:0:
128,272,8692,6,0,P|65:235|135:197,1,180,8|8,3:0|0:0,0:0:0:0:
328,240,9311,2,0,L|216:240,1,90,0|0,0:0|0:0,0:0:0:0:
120,240,9620,1,8,0:0:0:0:
488,232,9929,6,0,P|480:184|368:184,1,180,8|8,3:1|0:0,0:0:0:0:
184,200,10548,2,0,L|312:200,1,90,8|0,0:0|0:0,0:0:0:0:
152,280,10857,1,2,0:0:0:0:
440,280,11166,6,0,L|488:256,1,45,8|0,0:0|0:0,0:0:0:0:
374,208,11398,2,0,L|336:232,1,45,8|0,0:0|0:0,0:0:0:0:
232,192,11630,1,8,0:0:0:0:
256,280,11785,5,2,0:0:0:0:
318,336,11939,1,0,0:0:0:0:
472,272,12094,1,8,0:0:0:0:
393,313,12249,1,0,0:0:0:0:
168,200,12403,6,0,P|106:246|169:291,1,180,12|0,1:0|0:0,0:0:0:0:
400,192,13022,1,2,0:0:0:0:
184,192,13331,1,0,0:0:0:0:
472,200,13641,2,0,P|456:272|352:304,1,180,8|0,3:0|0:0,0:0:0:0:
184,240,14259,5,2,0:0:0:0:
274,240,14414,1,0,0:0:0:0:
416,240,14568,1,8,0:2:0:0:
40,240,14878,6,0,P|8:208|40:88,1,180,8|0,0:1|0:0,0:0:0:0:
248,192,15496,2,0,P|312:240|304:352,1,180,8|0,0:3|0:0,0:0:0:0:
80,192,16115,1,8,0:1:0:0:
280,192,16424,1,0,0:2:0:0:
488,192,16733,2,0,P|480:144|384:56,1,180,8|0,0:2|0:0,0:0:0:0:
16,200,17352,5,12,0:1:0:0:
216,240,17661,2,0,P|328:232|400:176,1,180,0|0,0:0|3:0,0:0:0:0:
176,192,18280,1,8,0:0:0:0:
464,192,18589,6,0,P|464:144|352:96,1,180,8|0,3:0|0:0,0:0:0:0:
200,192,19208,1,2,0:0:0:0:
110,192,19362,1,0,0:0:0:0:
16,192,19517,1,8,0:0:0:0:
392,192,19826,6,0,P|432:240|432:360,1,180,8|0,0:1|0:0,0:0:0:0:
176,192,20445,2,0,P|136:144|144:32,1,180,8|0,0:3|0:0,0:0:0:0:
384,192,21063,1,8,3:0:0:0:
200,192,21372,1,8,3:0:0:0:
363,195,21682,5,8,0:1:0:0:
405,205,21759,1,0,0:1:0:0:
425,243,21836,1,8,0:1:0:0:
409,284,21914,1,0,0:1:0:0:
375,253,21991,5,8,0:1:0:0:
359,212,22068,1,0,0:1:0:0:
379,174,22146,1,8,0:1:0:0:
421,164,22223,1,0,0:0:0:0:
253,189,22300,6,0,L|69:189,1,180,12|8,3:0|0:0,0:0:0:0:
271,221,22919,1,2,0:0:0:0:
181,221,23074,1,0,0:0:0:0:
55,222,23228,1,8,3:0:0:0:
430,219,23537,6,0,P|487:180|415:124,1,180,8|8,0:0|3:0,0:0:0:0:
225,211,24156,2,0,L|119:246,1,90,2|0,0:0|0:0,0:0:0:0:
260,293,24465,2,0,L|353:331,1,90,8|0,0:0|0:0,0:0:0:0:
98,297,24775,6,0,P|60:266|74:135,1,180,12|8,3:1|0:0,0:0:0:0:
262,193,25393,1,0,0:0:0:0:
351,192,25548,1,0,0:0:0:0:
480,192,25702,1,8,0:0:0:0:
96,272,26012,6,0,P|40:216|112:160,1,180,8|0,3:0|0:0,0:0:0:0:
296,208,26630,2,0,L|200:264,1,90,2|0,0:0|0:0,0:0:0:0:
336,272,26939,2,0,L|416:328,1,90,8|0,0:0|0:0,0:0:0:0:
160,304,27249,6,0,P|104:264|120:160,1,180,12|0,1:0|0:0,0:0:0:0:
368,184,27867,2,0,P|424:216|448:336,1,180,8|0,0:3|0:0,0:0:0:0:
72,304,28486,2,0,P|24:256|48:136,1,180,8|0,0:1|0:0,0:0:0:0:
232,192,29104,2,0,L|48:192,1,180,8|0,0:3|0:0,0:0:0:0:
440,192,29723,5,12,0:1:0:0:
256,192,30032,1,2,0:0:0:0:
16,264,30342,2,0,P|48:184|152:184,1,180,0|8,0:0|0:0,0:0:0:0:
336,192,30960,6,0,L|328:248,1,45,8|8,0:0|0:0,0:0:0:0:
208,192,31192,2,0,L|192:256,1,45,8|8,0:0|0:0,0:0:0:0:
128,344,31424,1,0,0:0:0:0:
59,289,31579,5,2,0:0:0:0:
43,202,31733,1,0,0:0:0:0:
172,99,31888,1,8,0:0:0:0:
88,126,32043,1,0,0:0:0:0:
392,200,32197,6,0,P|456:256|384:304,1,180,12|0,3:0|0:0,0:0:0:0:
200,264,32816,2,0,L|96:264,2,90,2|0|8,0:0|0:0|0:0,0:0:0:0:
268,264,33280,1,0,0:0:0:0:
488,264,33434,6,0,P|456:200|360:160,1,180,8|0,3:0|0:0,0:0:0:0:
160,184,34053,2,0,L|288:184,1,90,8|0,0:3|0:0,0:0:0:0:
400,184,34362,1,2,0:0:0:0:
32,192,34671,6,0,P|8:232|32:360,1,180,8|0,3:1|0:0,0:0:0:0:
280,240,35290,2,0,P|328:200|336:88,1,180,8|0,0:3|0:0,0:0:0:0:
88,192,35909,1,8,0:1:0:0:
64,278,36063,1,0,0:0:0:0:
184,192,36218,1,10,0:0:0:0:
384,192,36527,2,0,P|448:192|408:288,1,180,0|8,0:0|0:0,0:0:0:0:
40,192,37146,5,12,0:1:0:0:
224,248,37455,2,0,L|40:248,1,180,8|0,0:0|3:0,0:0:0:0:
144,248,37919,1,0,0:0:0:0:
32,248,38074,1,8,0:0:0:0:
416,248,38383,6,0,P|464:208|472:88,1,180,8|0,3:1|0:0,0:0:0:0:
272,192,39001,2,0,L|344:256,1,90,2|0,0:0|0:0,0:0:0:0:
464,184,39311,1,8,0:0:0:0:
96,192,39620,6,0,P|40:248|120:304,1,180,8|0,3:1|0:0,0:0:0:0:
320,192,40238,2,0,P|376:248|320:312,1,180,8|0,3:0|0:0,0:0:0:0:
136,192,40857,1,8,3:0:0:0:
288,192,41166,1,8,0:0:0:0:
452,320,41476,5,8,0:0:0:0:
483,287,41553,1,0,0:0:0:0:
500,246,41630,1,8,0:0:0:0:
502,201,41708,1,0,0:0:0:0:
487,159,41785,1,8,0:0:0:0:
458,125,41862,1,0,0:0:0:0:
419,103,41939,1,8,0:0:0:0:
380,96,42017,1,0,0:0:0:0:
184,192,42094,6,0,P|144:152|232:96,1,180,12|0,3:0|0:0,0:0:0:0:
424,192,42713,2,0,L|504:256,1,90,2|0,0:0|0:0,0:0:0:0:
368,240,43022,2,0,L|304:312,1,90,8|0,0:0|0:0,0:0:0:0:
64,304,43331,6,0,P|104:248|224:248,1,180,8|8,3:0|0:0,0:0:0:0:
392,232,43950,1,2,0:0:0:0:
284,232,44104,1,0,0:0:0:0:
176,232,44259,1,10,0:0:0:0:
64,232,44414,1,0,0:0:0:0:
312,240,44568,6,0,P|320:168|264:72,1,180,12|8,0:0|0:0,0:0:0:0:
72,184,45187,2,0,L|16:256,1,90,2|0,0:0|0:0,0:0:0:0:
144,272,45496,2,0,L|192:352,1,90,8|0,0:0|0:0,0:0:0:0:
440,320,45805,6,0,P|416:240|320:200,1,180,8|0,3:1|0:0,0:0:0:0:
136,280,46424,1,2,0:0:0:0:
226,280,46579,1,0,0:0:0:0:
336,280,46733,1,8,0:0:0:0:
448,280,46888,1,0,0:0:0:0:
192,280,47043,6,0,P|136:240|144:136,1,180,12|0,3:1|0:0,0:0:0:0:
416,192,47661,2,0,P|464:240|472:360,1,180,8|0,3:3|0:0,0:0:0:0:
80,304,48280,2,0,P|32:272|40:152,1,180,8|0,3:1|0:0,0:0:0:0:
240,192,48898,2,0,L|48:192,1,180,8|0,3:3|0:0,0:0:0:0:
448,192,49517,5,12,0:0:0:0:
304,192,49826,1,8,0:0:0:0:
80,200,50135,2,0,L|144:368,1,180,2|8,0:0|0:0,0:0:0:0:
328,288,50754,6,0,L|312:336,1,45,8|8,0:0|0:0,0:0:0:0:
408,256,50986,2,0,L|424:200,1,45,8|8,0:0|0:0,0:0:0:0:
296,240,51218,1,0,0:0:0:0:
249,164,51372,5,2,0:0:0:0:
273,80,51527,1,0,0:0:0:0:
351,40,51682,1,8,0:0:0:0:
442,53,51836,1,0,0:0:0:0:
144,200,51991,6,0,P|112:232|144:352,1,180,12|0,3:1|0:0,0:0:0:0:
344,296,52610,2,0,L|248:248,1,90,2|0,0:0|0:0,0:0:0:0:
392,240,52919,2,0,L|496:208,1,90,8|0,3:0|0:0,0:0:0:0:
176,232,53228,6,0,P|112:224|88:112,1,180,8|8,0:1|0:0,0:0:0:0:
320,192,53847,1,2,0:0:0:0:
407,185,54001,1,0,0:0:0:0:
469,122,54156,1,8,0:3:0:0:
472,34,54311,1,0,0:0:0:0:
192,192,54465,6,0,P|144:240|168:352,1,180,12|8,0:1|0:0,0:0:0:0:
368,320,55084,2,0,L|464:272,1,90,2|0,0:0|0:0,0:0:0:0:
320,240,55393,2,0,L|240:200,1,90,8|0,0:0|0:0,0:0:0:0:
24,200,55702,6,0,P|72:144|176:144,1,180,8|8,3:1|0:0,0:0:0:0:
368,200,56321,2,0,L|344:304,1,90,2|0,0:0|0:0,0:0:0:0:
184,192,56630,2,0,L|144:288,1,90,8|0,0:3|0:0,0:0:0:0:
376,104,56939,6,0,P|360:336|368:104,1,720,12|8,3:1|0:0,0:0:0:0:
208,200,58486,1,0,0:0:0:0:
64,192,58795,2,0,L|8:368,1,180,0|8,0:0|0:0,0:0:0:0:
488,200,59414,5,8,3:0:0:0:
272,200,59723,1,8,0:0:0:0:
64,200,60032,2,0,L|8:288,2,90,10|0|8,0:0|0:0|0:0,0:0:0:0:
488,192,60651,6,0,L|456:256,1,45,8|8,0:0|0:0,0:0:0:0:
360,192,60883,2,0,L|312:248,1,45,8|8,0:0|0:0,0:0:0:0:
224,192,61115,2,0,L|160:288,1,90,0|2,0:0|0:0,0:0:0:0:
296,280,61424,2,0,L|360:368,1,90,0|8,0:0|0:0,0:0:0:0:
456,352,61733,1,0,0:0:0:0:
104,320,61888,6,0,P|48:304|64:184,1,180,12|8,0:0|0:3,0:0:0:0:
224,200,62507,2,0,L|120:224,1,90,0|0,0:1|0:0,0:0:0:0:
256,192,62816,1,8,0:3:0:0:
488,200,62970,6,0,P|472:272|352:280,1,180
256,224,63434,2,0,L|352:256,1,90,8|0,0:3|0:0,0:0:0:0:
248,224,63744,2,0,L|216:320,1,90
96,312,64053,2,0,L|128:224,1,90,8|0,0:0|0:0,0:0:0:0:
384,224,64362,6,0,P|424:184|400:56,1,180,8|0,0:1|0:0,0:0:0:0:
248,192,64981,2,0,L|352:192,1,90
216,192,65290,1,8,3:0:0:0:
488,208,65445,6,0,B|496:112|400:56,1,180
288,184,65909,2,0,L|384:216,2,90,8|0|0,0:3|0:0|0:0,0:0:0:0:
200,192,66372,1,0,0:0:0:0:
80,200,66527,2,0,L|144:272,1,90,8|0,0:3|0:0,0:0:0:0:
392,256,66836,6,0,P|448:208|368:168,1,180,12|0,0:1|0:0,0:0:0:0:
216,248,67455,2,0,L|152:320,1,90
280,248,67764,1,8,0:3:0:0:
16,248,67919,6,0,P|32:200|152:144,1,180
264,192,68383,2,0,L|368:224,1,90,8|0,0:3|0:0,0:0:0:0:
240,248,68692,2,0,L|152:280,1,90
280,240,69001,2,0,L|376:240,1,90,8|0,0:3|0:0,0:0:0:0:
120,224,69311,6,0,P|56:264|128:312,1,180,12|0,0:1|0:0,0:0:0:0:
296,264,69929,2,0,L|408:264,2,90,0|0|8,0:0|0:0|0:1,0:0:0:0:
168,272,70393,2,0,P|104:240|176:192,1,180
288,192,70857,6,0,L|184:192,1,90,8|0,0:3|0:0,0:0:0:0:
288,184,71166,1,8,0:3:0:0:
329,200,71243,1,0,0:0:0:0:
357,234,71320,1,8,0:3:0:0:
364,278,71397,5,0,0:0:0:0:
348,319,71475,1,8,0:3:0:0:
314,348,71552,1,0,0:0:0:0:
270,355,71629,1,8,0:3:0:0:
228,339,71707,1,0,0:0:0:0:
72,160,71785,6,0,P|47:241|112:295,1,180,12|0,0:1|0:0,0:0:0:0:
320,208,72403,2,0,L|232:240,1,90
120,232,72713,1,8,0:3:0:0:
384,232,72867,2,0,P|384:280|272:336,1,180
160,272,73331,6,0,L|128:184,1,90,8|0,0:3|0:0,0:0:0:0:
240,192,73641,1,0,0:0:0:0:
360,200,73795,1,0,0:0:0:0:
274,227,73949,1,8,0:3:0:0:
188,254,74104,1,0,0:0:0:0:
432,208,74259,6,0,P|480:240|448:352,1,180,12|0,0:1|0:0,0:0:0:0:
288,240,74878,2,0,L|248:336,1,90
136,256,75187,1,8,0:0:0:0:
368,256,75342,6,0,P|424:208|352:152,1,180
240,176,75805,2,0,L|336:176,1,90,8|0,0:3|0:0,0:0:0:0:
224,240,76115,2,0,L|160:328,1,90
48,240,76424,1,8,0:3:0:0:
136,240,76579,1,0,0:0:0:0:
360,248,76733,6,0,P|424:200|352:160,1,180,12|0,0:1|0:0,0:0:0:0:
256,184,77197,1,0,0:0:0:0:
112,288,77352,2,0,P|48:248|120:192,1,180,8|8,0:0|0:3,0:0:0:0:
216,184,77816,1,0,0:0:0:0:
320,192,77970,6,0,L|360:288,1,90
232,280,78280,2,0,L|336:280,1,90,8|0,0:3|0:0,0:0:0:0:
216,256,78589,2,0,L|184:160,1,90,8|0,0:3|0:0,0:0:0:0:
64,192,78898,2,0,L|176:192,1,90,8|0,0:3|0:0,0:0:0:0:
376,192,79208,6,0,L|480:192,1,90,12|0,0:1|0:0,0:0:0:0:
344,272,79517,2,0,L|240:272,2,90,8|0|0,0:3|0:0|0:0,0:0:0:0:
256,216,79981,1,8,0:2:0:0:
136,216,80135,2,0,L|96:304,1,90,8|0,0:3|0:0,0:0:0:0:
376,240,80445,6,0,L|328:344,1,90,8|0,0:3|0:0,0:0:0:0:
216,240,80754,2,0,L|144:328,1,90,8|0,0:3|0:0,0:0:0:0:
288,216,81063,2,0,L|392:216,1,90,8|0,0:3|0:0,0:0:0:0:
144,176,81372,2,0,L|40:176,1,90,8|0,0:3|0:0,0:0:0:0:
304,184,81682,5,12,0:1:0:0:
112,312,90960,5,8,0:3:0:0:
73,289,91037,1,0,0:0:0:0:
47,252,91114,1,8,0:3:0:0:
38,209,91191,1,0,0:0:0:0:
48,165,91269,1,8,0:3:0:0:
75,129,91346,1,0,0:0:0:0:
114,107,91423,1,8,0:3:0:0:
158,103,91501,1,0,0:0:0:0:
328,192,91579,6,0,P|368:240|304:336,1,180,12|0,0:1|0:0,0:0:0:0:
112,200,92197,2,0,L|72:296,1,90,2|0,0:0|0:0,0:0:0:0:
16,192,92507,1,8,0:3:0:0:
400,208,92816,6,0,P|440:232|408:352,1,180,8|0,0:1|0:0,0:0:0:0:
240,232,93434,1,2,0:0:0:0:
150,232,93588,1,0,0:0:0:0:
40,232,93743,1,8,0:3:0:0:
150,232,93898,1,0,0:0:0:0:
368,240,94053,6,0,P|424:200|352:128,1,180,12|0,0:1|0:0,0:0:0:0:
208,192,94671,2,0,L|232:288,1,90,2|0,0:0|0:0,0:0:0:0:
384,288,94981,1,8,0:3:0:0:
16,224,95290,6,0,P|-8:176|40:64,1,180,8|0,0:1|0:0,0:0:0:0:
232,192,95909,2,0,L|320:240,1,90,2|0,0:0|0:0,0:0:0:0:
184,248,96218,2,0,L|96:288,1,90,8|0,0:1|0:0,0:0:0:0:
440,256,96527,6,0,P|472:224|400:136,1,180,12|0,0:1|0:0,0:0:0:0:
168,200,97146,2,0,P|128:224|168:336,1,180,8|0,0:0|0:0,0:0:0:0:
488,216,97764,2,0,L|432:40,1,180,8|0,0:1|0:0,0:0:0:0:
200,192,98383,2,0,P|144:224|64:320,1,180,8|0,0:0|0:0,0:0:0:0:
448,200,99001,6,0,P|504:232|448:336,1,180,12|0,0:1|0:0,0:0:0:0:
296,248,99620,2,0,L|488:248,1,180,2|0,0:0|0:0,0:0:0:0:
256,184,100238,2,0,L|232:232,1,45,8|0,0:0|0:0,0:0:0:0:
144,192,100470,2,0,L|120:232,1,45,8|0,0:0|0:0,0:0:0:0:
24,256,100702,1,0,0:0:0:0:
40,168,100857,5,10,0:0:0:0:
92,95,101011,1,0,0:0:0:0:
240,112,101166,2,0,L|144:168,1,90,8|0,0:0|0:0,0:0:0:0:
488,192,101476,6,0,P|496:240|392:296,1,180,12|0,0:1|0:0,0:0:0:0:
216,232,102094,2,0,L|272:344,1,90,2|0,0:0|0:0,0:0:0:0:
392,320,102403,1,8,0:3:0:0:
16,248,102713,6,0,P|8:192|96:112,1,180,8|0,0:1|0:0,0:0:0:0:
272,208,103331,2,0,L|240:320,1,90,2|0,0:0|0:0,0:0:0:0:
120,296,103641,1,8,0:3:0:0:
16,296,103795,1,0,0:0:0:0:
352,280,103950,6,0,P|408:224|344:160,1,180,12|0,0:1|0:0,0:0:0:0:
208,208,104568,1,2,0:0:0:0:
118,208,104722,1,0,0:0:0:0:
24,208,104877,1,8,0:3:0:0:
464,192,105187,6,0,P|464:248|360:288,1,180,8|0,0:1|0:0,0:0:0:0:
224,208,105805,2,0,L|256:320,1,90,2|0,0:0|0:0,0:0:0:0:
384,296,106115,1,8,0:1:0:0:
16,264,106424,6,0,P|8:208|40:88,1,180,12|0,0:1|0:0,0:0:0:0:
256,184,107043,2,0,P|288:224|280:352,1,180,8|0,0:3|0:0,0:0:0:0:
16,248,107661,2,0,P|24:192|120:112,1,180,8|0,0:1|0:0,0:0:0:0:
320,192,108280,1,2,0:0:0:0:
104,192,108589,1,8,0:3:0:0:
488,192,108898,5,12,0:1:0:0:
272,192,109208,1,0,0:0:0:0:
88,192,109517,2,0,L|16:360,1,180,2|0,0:0|0:0,0:0:0:0:
192,304,110135,6,0,L|216:264,1,45,8|0,0:0|0:0,0:0:0:0:
328,256,110367,2,0,L|352:200,1,45,8|0,0:0|0:0,0:0:0:0:
472,184,110599,2,0,L|424:272,1,90,0|10,0:0|0:0,0:0:0:0:
352,312,110909,1,0,0:0:0:0:
372,225,111063,1,8,0:0:0:0:
432,159,111218,1,0,0:0:0:0:
96,192,111372,6,0,P|56:232|72:352,1,180,12|0,0:1|0:0,0:0:0:0:
272,200,111991,2,0,L|216:320,1,90,2|0,0:0|0:0,0:0:0:0:
80,280,112300,1,8,0:3:0:0:
464,160,112610,6,0,P|276:305|446:139,1,720,8|12,0:1|0:2,0:0:0:0:
256,192,114001,12,0,121269,0:0:0:0:
