osu file format v14

[General]
AudioFilename: audio.mp3
AudioLeadIn: 0
PreviewTime: 22300
Countdown: 0
SampleSet: Soft
StackLeniency: 0.7
Mode: 2
LetterboxInBreaks: 0
WidescreenStoryboard: 0

[Editor]
DistanceSpacing: 1.4
BeatDivisor: 4
GridSize: 16
TimelineZoom: 3.799998

[Metadata]
Title:Chichavino
TitleUnicode:Chichavino
Artist:TRONIC
ArtistUnicode:TRONIC
Creator:Ponchiwi
Version:Platter
Source:
Tags:Ke Patine La Risa Jusenkyo
BeatmapID:1257748
BeatmapSetID:594658

[Difficulty]
HPDrainRate:5
CircleSize:3.5
OverallDifficulty:8
ApproachRate:8
SliderMultiplier:1.4
SliderTickRate:2

[Events]
//Background and Video events
0,0,"tronic.jpg",0,0
//Break Periods
2,81882,90210
//Storyboard Layer 0 (Background)
//Storyboard Layer 1 (Fail)
//Storyboard Layer 2 (Pass)
//Storyboard Layer 3 (Foreground)
//Storyboard Sound Samples

[TimingPoints]
2507,309.278350515464,4,2,1,75,1,0
12403,-100,4,2,1,70,0,0
21682,-100,4,2,1,80,0,0
22300,-83.3333333333333,4,2,1,85,0,1
32197,-100,4,2,1,70,0,0
41476,-100,4,2,1,80,0,0
42094,-83.3333333333333,4,2,1,85,0,1
51372,-83.3333333333333,4,2,1,80,0,0
51991,-83.3333333333333,4,2,1,85,0,1
56939,-111.111111111111,4,2,1,75,0,0
58177,-111.111111111111,4,2,1,75,0,0
59414,-100,4,2,1,80,0,0
61888,-83.3333333333333,4,2,1,75,0,0
81682,-100,4,2,1,75,0,0
90960,-100,4,2,1,75,0,0
91579,-83.3333333333333,4,2,1,75,0,1
100857,-83.3333333333333,4,2,1,75,0,0
101476,-83.3333333333333,4,2,1,75,0,1
110754,-83.3333333333333,4,2,1,75,0,0
111372,-83.3333333333333,4,2,1,75,0,1
113847,-100,4,2,1,75,0,0
115084,-100,4,2,1,65,0,0
116321,-100,4,2,1,55,0,0
117558,-100,4,2,1,45,0,0
118795,-100,4,2,1,35,0,0
120032,-100,4,2,1,25,0,0
120342,-100,4,2,1,15,0,0
120651,-100,4,2,1,10,0,0
120960,-100,4,2,1,5,0,0

[Colours]
Combo1 : 217,61,4
Combo2 : 242,93,7
Combo3 : 242,191,128
Combo4 : 242,145,2

[HitObjects]
416,320,2507,6,0,L|272:272,1,140,8|8,3:0|0:0,0:0:0:0:
208,128,3125,1,2,0:0:0:0:
288,176,3280,2,0,L|224:224,1,70,0|8,0:0|3:0,0:0:0:0:
480,144,3744,6,0,P|464:80|384:64,1,140,8|8,0:0|0:0,0:0:0:0:
240,80,4362,1,2,0:0:0:0:
320,128,4517,2,0,L|384:176,1,70,0|8,0:0|3:0,0:0:0:0:
112,320,4981,6,0,P|97:273|177:257,1,140,8|8,3:1|0:0,0:0:0:0:
320,176,5599,2,0,L|224:176,2,70,2|0|8,0:0|0:0|0:0,0:0:0:0:
80,176,6218,5,2,0:0:0:0:
256,96,6527,1,8,0:0:0:0:
96,80,6836,2,0,L|48:144,1,70
80,256,7146,1,8,0:0:0:0:
464,320,7455,6,0,P|464:272|368:256,1,140,8|8,3:1|0:0,0:0:0:0:
256,176,8074,2,0,L|336:176,2,70,2|0|8,0:0|0:0|0:0,0:0:0:0:
16,320,8692,6,0,L|144:256,1,140,8|8,3:0|0:0,0:0:0:0:
272,208,9311,1,0,0:0:0:0:
96,144,9620,1,8,0:0:0:0:
352,64,9929,6,0,P|332:128|268:145,1,140,8|8,3:1|0:0,0:0:0:0:
96,256,10548,1,8,0:0:0:0:
192,240,10702,1,0,0:0:0:0:
288,224,10857,1,2,0:0:0:0:
144,160,11166,6,0,L|96:176,1,35,8|0,0:0|0:0,0:0:0:0:
240,272,11398,2,0,L|272:288,1,35,8|0,0:0|0:0,0:0:0:0:
128,336,11630,1,8,0:0:0:0:
48,304,11785,5,2,0:0:0:0:
16,224,11939,1,0,0:0:0:0:
48,144,12094,1,8,0:0:0:0:
128,96,12249,1,0,0:0:0:0:
384,256,12403,6,0,P|448:240|464:160,1,140,12|0,1:0|0:0,0:0:0:0:
480,80,13022,1,2,0:0:0:0:
400,32,13331,1,0,0:0:0:0:
128,48,13641,6,0,P|48:64|48:128,1,140,8|0,3:0|0:0,0:0:0:0:
192,144,14259,2,0,L|272:144,1,70,2|0,0:0|0:0,0:0:0:0:
352,144,14568,1,8,0:2:0:0:
64,320,14878,6,0,P|16:272|64:240,1,140,8|0,0:1|0:0,0:0:0:0:
288,176,15496,2,0,L|148:176,1,140,8|0,0:3|0:0,0:0:0:0:
400,288,16115,6,0,P|448:256|384:224,1,140,8|0,0:1|0:2,0:0:0:0:
224,224,16733,1,8,0:2:0:0:
48,320,17043,1,0,0:0:0:0:
432,240,17352,6,0,P|480:208|464:128,1,140,12|0,0:1|0:0,0:0:0:0:
304,128,17970,1,0,3:0:0:0:
416,64,18280,1,8,0:0:0:0:
128,256,18589,6,0,L|256:176,1,140,8|0,3:0|0:0,0:0:0:0:
384,272,19208,1,2,0:0:0:0:
432,224,19362,1,0,0:0:0:0:
464,160,19517,1,8,0:0:0:0:
48,208,19826,5,8,0:1:0:0:
192,128,20135,1,0,0:0:0:0:
480,256,20445,1,8,0:3:0:0:
304,320,20754,1,0,0:0:0:0:
32,176,21063,1,8,3:0:0:0:
208,240,21372,1,8,3:0:0:0:
432,208,21682,5,8,0:1:0:0:
463,222,21759,1,0,0:1:0:0:
480,251,21836,1,8,0:1:0:0:
478,286,21914,1,0,0:1:0:0:
456,313,21991,1,8,0:1:0:0:
423,322,22068,1,0,0:1:0:0:
391,311,22146,1,8,0:1:0:0:
160,336,22300,6,0,P|112:288|176:208,1,167.999994873047,12|8,3:0|0:0,0:0:0:0:
304,80,22919,2,0,L|229:43,1,83.9999974365235,2|0,0:0|0:0,0:0:0:0:
112,64,23228,2,0,P|138:137|216:134,1,167.999994873047,8|8,3:0|0:0,0:0:0:0:
464,96,23847,5,8,3:0:0:0:
304,64,24156,1,2,0:0:0:0:
400,64,24311,2,0,L|512:64,1,83.9999974365235,0|8,0:0|0:0,0:0:0:0:
112,192,24775,5,12,3:1:0:0:
272,112,25084,2,0,P|352:128|320:224,1,167.999994873047,8|0,0:0|0:0,0:0:0:0:
416,288,25548,2,0,L|332:288,1,83.9999974365235,0|8,0:0|0:0,0:0:0:0:
80,288,26012,6,0,P|96:224|192:224,1,167.999994873047,8|0,3:0|0:0,0:0:0:0:
80,160,26630,2,0,L|0:96,2,83.9999974365235,2|0|8,0:0|0:0|0:0,0:0:0:0:
472,192,27249,6,0,P|456:104|368:96,1,167.999994873047,12|0,1:0|0:0,0:0:0:0:
176,288,27867,2,0,P|192:200|280:192,1,167.999994873047,8|0,0:3|0:0,0:0:0:0:
32,192,28486,2,0,P|48:104|136:96,1,167.999994873047,8|0,0:1|0:0,0:0:0:0:
256,272,29104,2,0,L|96:328,1,167.999994873047,8|0,0:3|0:0,0:0:0:0:
480,64,29723,5,12,0:1:0:0:
320,144,30032,1,2,0:0:0:0:
80,112,30342,1,0,0:0:0:0:
240,224,30651,1,8,0:0:0:0:
464,304,30960,5,8,0:0:0:0:
432,304,31037,1,8,0:0:0:0:
312,304,31192,1,8,0:0:0:0:
272,304,31269,1,8,0:0:0:0:
384,240,31424,1,0,0:0:0:0:
448,208,31579,1,2,0:0:0:0:
480,144,31733,1,0,0:0:0:0:
448,80,31888,1,8,0:0:0:0:
384,48,32043,1,0,0:0:0:0:
112,320,32197,6,0,P|48:304|32:224,1,140,12|0,3:0|0:0,0:0:0:0:
16,160,32816,1,2,0:0:0:0:
80,80,33125,1,8,0:0:0:0:
320,128,33434,6,0,L|192:64,1,140,8|0,3:0|0:0,0:0:0:0:
224,224,34053,2,0,L|144:192,2,70,2|0|8,0:0|0:0|0:0,0:0:0:0:
480,256,34671,6,0,P|480:192|400:176,1,140,8|0,3:1|0:0,0:0:0:0:
176,320,35290,1,8,0:3:0:0:
368,320,35599,1,0,0:0:0:0:
112,144,35909,6,0,P|160:208|224:224,1,140,8|10,0:1|0:0,0:0:0:0:
384,224,36527,2,0,P|448:208|480:128,1,140,0|8,0:0|0:0,0:0:0:0:
96,320,37146,6,0,P|51:288|48:192,1,140,12|8,0:1|0:0,0:0:0:0:
224,224,37764,1,0,3:0:0:0:
96,160,38074,1,8,0:0:0:0:
384,112,38383,6,0,B|304:112|304:112|224:64,1,140,8|0,3:1|0:0,0:0:0:0:
160,272,39001,2,0,L|240:272,2,70,2|0|8,0:0|0:0|0:0,0:0:0:0:
416,112,39620,6,0,P|464:160|448:224,1,140,8|0,3:1|0:0,0:0:0:0:
160,96,40238,2,0,P|160:144|240:192,1,140,8|0,3:0|0:0,0:0:0:0:
480,64,40857,1,8,3:0:0:0:
304,64,41166,1,8,0:0:0:0:
112,80,41476,5,8,0:0:0:0:
80,69,41553,1,0,0:0:0:0:
47,78,41630,1,8,0:0:0:0:
25,105,41708,1,0,0:0:0:0:
23,140,41785,1,8,0:0:0:0:
40,169,41862,1,0,0:0:0:0:
71,183,41939,1,8,0:0:0:0:
360,208,42094,6,0,P|432:192|448:96,1,167.999994873047,12|0,3:0|0:0,0:0:0:0:
304,272,42713,2,0,L|392:328,1,83.9999974365235,2|0,0:0|0:0,0:0:0:0:
464,272,43022,1,8,0:0:0:0:
208,112,43331,5,8,3:0:0:0:
368,144,43641,2,0,P|320:48|256:80,1,167.999994873047,8|2,0:0|0:0,0:0:0:0:
384,224,44104,2,0,L|480:224,1,83.9999974365235,0|10,0:0|0:0,0:0:0:0:
96,112,44568,5,12,0:0:0:0:
240,224,44878,2,0,P|240:288|144:304,1,167.999994873047,8|2,0:0|0:0,0:0:0:0:
80,224,45342,2,0,L|164:224,1,83.9999974365235,0|8,0:0|0:0,0:0:0:0:
400,160,45805,6,0,P|384:96|288:112,1,167.999994873047,8|0,3:1|0:0,0:0:0:0:
464,144,46424,2,0,L|480:240,1,83.9999974365235,2|0,0:0|0:0,0:0:0:0:
432,304,46733,1,8,0:0:0:0:
48,336,47043,6,0,P|32:272|128:256,1,167.999994873047,12|0,3:1|0:0,0:0:0:0:
352,176,47661,2,0,B|304:224|304:224|208:176,1,167.999994873047,8|0,3:3|0:0,0:0:0:0:
128,128,48280,2,0,P|128:64|224:64,1,167.999994873047,8|0,3:1|0:0,0:0:0:0:
496,304,48898,2,0,P|496:256|400:208,1,167.999994873047,8|0,3:3|0:0,0:0:0:0:
16,64,49517,5,12,0:0:0:0:
192,128,49826,1,8,0:0:0:0:
80,224,50135,1,2,0:0:0:0:
288,320,50445,1,8,0:0:0:0:
56,288,50754,5,8,0:0:0:0:
88,288,50831,1,8,0:0:0:0:
216,296,50986,1,8,0:0:0:0:
256,296,51063,1,8,0:0:0:0:
368,272,51218,1,0,0:0:0:0:
447,284,51372,1,2,0:0:0:0:
495,220,51527,1,0,0:0:0:0:
462,147,51682,1,8,0:0:0:0:
382,141,51836,1,0,0:0:0:0:
96,240,51991,6,0,P|48:208|96:128,1,167.999994873047,12|0,3:1|0:0,0:0:0:0:
256,96,52610,2,0,P|218:62|176:64,1,83.9999974365235,2|0,0:0|0:0,0:0:0:0:
112,160,52919,2,0,P|80:208|176:256,1,167.999994873047,8|8,3:0|0:1,0:0:0:0:
384,304,53537,2,0,B|288:336|288:336|224:288,1,167.999994873047,8|2,0:0|0:0,0:0:0:0:
336,224,54001,2,0,L|420:224,1,83.9999974365235,0|8,0:0|0:3,0:0:0:0:
48,144,54465,5,12,0:1:0:0:
208,176,54775,2,0,P|176:96|96:80,1,167.999994873047,8|2,0:0|0:0,0:0:0:0:
16,224,55238,2,0,L|88:267,1,83.9999974365235,0|8,0:0|0:0,0:0:0:0:
464,80,55702,5,8,3:1:0:0:
304,64,56012,1,8,0:0:0:0:
32,176,56321,1,2,0:0:0:0:
32,272,56476,1,0,0:0:0:0:
80,336,56630,1,8,0:3:0:0:
496,320,56939,5,12,3:1:0:0:
56,136,58177,1,8,0:0:0:0:
336,120,58795,1,0,0:0:0:0:
456,184,59104,1,8,0:0:0:0:
64,288,59414,5,8,3:0:0:0:
208,208,59723,1,8,0:0:0:0:
368,144,60032,1,10,0:0:0:0:
192,96,60342,1,8,0:0:0:0:
408,112,60651,5,8,0:0:0:0:
360,112,60728,1,8,0:0:0:0:
264,104,60883,1,8,0:0:0:0:
216,104,60960,1,8,0:0:0:0:
112,128,61115,1,0,0:0:0:0:
56,167,61269,1,2,0:0:0:0:
47,235,61424,1,0,0:0:0:0:
89,288,61579,1,8,0:0:0:0:
152,304,61733,1,0,0:0:0:0:
400,304,61888,6,0,P|480:224|464:176,1,167.999994873047,12|8,0:0|0:3,0:0:0:0:
304,80,62507,2,0,L|224:48,2,83.9999974365235,0|0|8,0:0|0:0|0:0,0:0:0:0:
400,96,62970,6,0,P|448:96|416:192,1,167.999994873047
288,224,63434,2,0,P|288:304|384:304,1,167.999994873047,8|0,0:3|0:0,0:0:0:0:
480,304,63898,2,0,L|400:256,1,83.9999974365235,0|8,0:0|0:0,0:0:0:0:
16,320,64362,6,0,P|16:272|128:256,1,167.999994873047,8|0,0:1|0:0,0:0:0:0:
240,336,64981,2,0,L|336:288,1,83.9999974365235
224,256,65290,1,8,3:0:0:0:
96,240,65445,6,0,P|70:309|143:320,1,167.999994873047
288,64,65909,2,0,L|112:64,1,167.999994873047,8|0,0:3|0:0,0:0:0:0:
16,176,66372,2,0,L|96:128,1,83.9999974365235,0|8,0:0|0:0,0:0:0:0:
464,256,66836,6,0,P|480:208|400:144,1,167.999994873047,12|0,0:1|0:0,0:0:0:0:
256,224,67455,2,0,L|176:192,2,83.9999974365235,0|0|8,0:0|0:0|0:0,0:0:0:0:
352,256,67919,6,0,P|416:240|368:160,1,167.999994873047
224,256,68383,2,0,P|224:304|336:304,1,167.999994873047,8|0,0:3|0:0,0:0:0:0:
416,288,68847,1,0,0:0:0:0:
496,224,69001,1,8,0:3:0:0:
96,80,69311,5,12,0:1:0:0:
272,48,69620,1,0,0:0:0:0:
144,144,69929,1,0,0:0:0:0:
224,144,70084,1,0,0:0:0:0:
288,192,70238,1,8,0:1:0:0:
176,224,70393,6,0,P|128:272|208:320,1,167.999994873047,0|0,0:0|0:0,0:0:0:0:
352,208,70857,2,0,P|400:160|336:96,1,167.999994873047,8|8,0:3|0:3,0:0:0:0:
288,64,71244,5,0,0:0:0:0:
240,48,71321,1,8,0:3:0:0:
192,48,71398,1,0,0:0:0:0:
144,80,71476,1,8,0:3:0:0:
128,128,71553,1,0,0:0:0:0:
144,176,71630,1,8,0:3:0:0:
384,320,71785,6,0,P|448:288|416:208,1,167.999994873047,12|0,0:1|0:0,0:0:0:0:
256,144,72403,2,0,L|160:144,1,83.9999974365235
256,144,72713,1,8,0:3:0:0:
352,80,72867,6,0,B|288:48|288:48|160:48,1,167.999994873047
336,160,73331,1,0,0:0:0:0:
400,224,73486,2,0,B|352:304,1,83.9999974365235
432,336,73795,2,0,L|480:256,1,83.9999974365235,0|8,0:0|0:0,0:0:0:0:
48,272,74259,6,0,P|16:224|96:176,1,167.999994873047,12|0,0:1|0:0,0:0:0:0:
240,128,74878,1,0,0:0:0:0:
160,256,75032,2,0,L|240:224,1,83.9999974365235,0|8,0:0|0:0,0:0:0:0:
400,288,75342,6,0,B|384:336|384:336|256:304,1,167.999994873047
192,160,75805,2,0,B|176:112|176:112|304:128,1,167.999994873047,8|0,0:3|0:0,0:0:0:0:
400,144,76269,2,0,L|512:160,1,83.9999974365235,0|8,0:0|0:0,0:0:0:0:
96,320,76733,6,0,P|32:288|32:192,1,167.999994873047,12|0,0:1|0:0,0:0:0:0:
208,192,77352,1,8,0:0:0:0:
144,144,77507,1,0,0:0:0:0:
80,96,77661,1,8,0:3:0:0:
208,192,77816,6,0,B|252:235|252:235|368:256,1,167.999994873047
272,128,78280,2,0,P|288:64|208:64,1,167.999994873047,8|8,0:3|0:3,0:0:0:0:
112,96,78744,2,0,L|16:128,1,83.9999974365235,0|8,0:0|0:0,0:0:0:0:
432,304,79208,6,0,P|464:288|480:160,1,167.999994873047,12|8,0:1|0:3,0:0:0:0:
352,240,79826,2,0,L|240:240,1,83.9999974365235,0|8,0:0|0:2,0:0:0:0:
176,160,80135,2,0,L|260:160,1,83.9999974365235,8|0,0:3|0:0,0:0:0:0:
352,160,80445,5,8,0:3:0:0:
272,112,80599,1,0,0:0:0:0:
304,32,80754,1,8,0:3:0:0:
384,16,80909,1,0,0:0:0:0:
464,48,81063,1,8,0:3:0:0:
496,128,81218,1,0,0:0:0:0:
448,208,81372,1,8,0:3:0:0:
32,144,81682,5,12,0:1:0:0:
400,304,90960,5,8,0:3:0:0:
432,315,91037,1,0,0:0:0:0:
465,306,91114,1,8,0:3:0:0:
487,279,91192,1,0,0:0:0:0:
489,244,91269,1,8,0:3:0:0:
472,215,91346,1,0,0:0:0:0:
441,201,91423,1,8,0:3:0:0:
144,192,91578,6,0,P|96:192|64:96,1,140,12|0,0:1|0:0,0:0:0:0:
224,96,92197,2,0,L|312:152,2,83.9999974365235,2|0|8,0:0|0:0|0:0,0:0:0:0:
464,64,92815,5,8,0:1:0:0:
336,128,93125,2,0,P|304:192|384:208,1,167.999994873047,0|2,0:0|0:0,0:0:0:0:
496,256,93589,2,0,L|424:300,1,83.9999974365235,0|8,0:0|0:3,0:0:0:0:
48,160,94052,5,12,0:1:0:0:
192,112,94362,2,0,L|32:64,1,167.999994873047,0|2,0:0|0:0,0:0:0:0:
112,160,94826,2,0,L|208:192,1,83.9999974365235,0|8,0:0|0:3,0:0:0:0:
448,240,95289,6,0,L|288:320,1,167.999994873047,8|0,0:1|0:0,0:0:0:0:
176,320,95908,1,2,0:0:0:0:
96,288,96063,2,0,L|16:240,1,83.9999974365235,0|8,0:0|0:0,0:0:0:0:
464,240,96527,6,0,P|457:160|382:133,1,167.999994873047,12|0,0:1|0:0,0:0:0:0:
304,320,97145,2,0,P|384:304|352:224,1,167.999994873047,8|0,0:0|0:0,0:0:0:0:
160,304,97764,2,0,P|96:304|80:208,1,167.999994873047,8|0,0:1|0:0,0:0:0:0:
352,96,98382,2,0,P|429:114|448:191,1,167.999994873047,8|0,0:0|0:0,0:0:0:0:
16,64,99001,5,12,0:1:0:0:
144,64,99310,1,0,0:0:0:0:
384,64,99619,1,2,0:0:0:0:
240,64,99929,1,0,0:0:0:0:
56,288,100238,5,8,0:0:0:0:
96,288,100315,1,0,0:0:0:0:
240,288,100470,1,8,0:0:0:0:
200,288,100547,1,0,0:0:0:0:
112,320,100702,1,0,0:0:0:0:
32,272,100856,1,10,0:0:0:0:
16,192,101011,1,0,0:0:0:0:
48,112,101166,1,8,0:0:0:0:
112,64,101320,1,0,0:0:0:0:
400,224,101476,6,0,P|464:192|480:96,1,167.999994873047,12|0,0:1|0:0,0:0:0:0:
304,80,102095,2,0,L|208:48,1,83.9999974365235,2|0,0:0|0:0,0:0:0:0:
144,240,102404,2,0,L|304:304,1,167.999994873047,8|8,0:3|0:1,0:0:0:0:
80,128,103022,5,8,0:0:0:0:
192,80,103332,1,2,0:0:0:0:
96,80,103487,2,0,L|0:80,1,83.9999974365235,0|8,0:0|0:3,0:0:0:0:
400,320,103951,5,12,0:1:0:0:
224,224,104260,2,0,P|224:160|336:128,1,167.999994873047,0|2,0:0|0:0,0:0:0:0:
224,224,104724,2,0,L|151:267,1,83.9999974365235,0|8,0:0|0:0,0:0:0:0:
384,240,105188,6,0,P|448:224|480:112,1,167.999994873047,8|0,0:1|0:0,0:0:0:0:
304,128,105805,2,0,L|416:80,1,83.9999974365235,2|0,0:0|0:0,0:0:0:0:
464,64,106115,1,8,0:1:0:0:
32,320,106425,6,0,P|48:232|136:224,1,167.999994873047,12|0,0:1|0:0,0:0:0:0:
368,288,107043,2,0,P|336:192|256:192,1,167.999994873047,8|0,0:3|0:0,0:0:0:0:
48,160,107662,2,0,P|64:96|160:64,1,167.999994873047,8|0,0:1|0:0,0:0:0:0:
400,48,108280,2,0,P|480:80|448:144,1,167.999994873047,2|8,0:0|0:3,0:0:0:0:
48,320,108898,5,12,0:1:0:0:
176,288,109208,1,0,0:0:0:0:
448,288,109518,1,2,0:0:0:0:
288,256,109827,1,0,0:0:0:0:
144,128,110136,5,8,0:0:0:0:
112,128,110213,1,0,0:0:0:0:
224,128,110368,1,8,0:0:0:0:
264,128,110445,1,0,0:0:0:0:
384,240,110600,1,0,0:0:0:0:
448,208,110755,1,10,0:0:0:0:
480,144,110909,1,0,0:0:0:0:
448,80,111064,1,8,0:0:0:0:
384,48,111219,1,0,0:0:0:0:
128,304,111372,6,0,P|32:256|32:208,1,167.999994873047,12|0,0:1|0:0,0:0:0:0:
272,176,111990,2,0,P|240:80|160:80,1,167.999994873047,2|8,0:0|0:3,0:0:0:0:
464,256,112610,1,8,0:1:0:0:
304,192,112919,1,0,0:0:0:0:
128,304,113228,2,0,P|48:272|48:192,1,167.999994873047,0|0,3:0|0:0,0:0:0:0:
480,64,113847,5,12,0:2:0:0:
256,192,114001,12,0,121269,0:0:0:0:
