osu file format v14

[General]
AudioFilename: audio.mp3
AudioLeadIn: 0
PreviewTime: 22300
Countdown: 0
SampleSet: Soft
StackLeniency: 0.7
Mode: 2
LetterboxInBreaks: 0
WidescreenStoryboard: 0

[Editor]
DistanceSpacing: 1.5
BeatDivisor: 2
GridSize: 16
TimelineZoom: 5.199997

[Metadata]
Title:Chichavino
TitleUnicode:Chichavino
Artist:TRONIC
ArtistUnicode:TRONIC
Creator:Ponchiwi
Version:Cup
Source:
Tags:Ke Patine La Risa Jusenkyo
BeatmapID:1257747
BeatmapSetID:594658

[Difficulty]
HPDrainRate:3
CircleSize:2.5
OverallDifficulty:6
ApproachRate:6
SliderMultiplier:0.8
SliderTickRate:1

[Events]
//Background and Video events
0,0,"tronic.jpg",0,0
//Break Periods
2,81882,89910
//Storyboard Layer 0 (Background)
//Storyboard Layer 1 (Fail)
//Storyboard Layer 2 (Pass)
//Storyboard Layer 3 (Foreground)
//Storyboard Sound Samples

[TimingPoints]
2507,309.278350515464,4,2,1,75,1,0
12403,-100,4,2,1,70,0,0
21682,-100,4,2,1,80,0,0
22300,-90.9090909090909,4,2,1,85,0,1
32197,-100,4,2,1,70,0,0
41476,-100,4,2,1,80,0,0
42094,-90.9090909090909,4,2,1,85,0,1
51372,-90.9090909090909,4,2,1,80,0,0
51991,-90.9090909090909,4,2,1,85,0,1
56939,-111.111111111111,4,2,1,75,0,0
58177,-111.111111111111,4,2,1,75,0,0
59414,-100,4,2,1,80,0,0
61888,-90.9090909090909,4,2,1,75,0,0
81682,-100,4,2,1,75,0,0
90960,-100,4,2,1,75,0,0
91579,-90.9090909090909,4,2,1,75,0,1
100857,-90.9090909090909,4,2,1,75,0,0
101476,-90.9090909090909,4,2,1,75,0,1
110754,-90.9090909090909,4,2,1,75,0,0
111372,-90.9090909090909,4,2,1,75,0,1
113847,-100,4,2,1,75,0,0
115084,-100,4,2,1,65,0,0
116321,-100,4,2,1,55,0,0
117558,-100,4,2,1,45,0,0
118795,-100,4,2,1,35,0,0
120032,-100,4,2,1,25,0,0
120342,-100,4,2,1,15,0,0
120651,-100,4,2,1,10,0,0
120960,-100,4,2,1,5,0,0

[Colours]
Combo1 : 217,61,4
Combo2 : 242,93,7
Combo3 : 242,191,128
Combo4 : 242,145,2

[HitObjects]
192,208,2507,5,8,3:0:0:0:
288,208,2816,1,8,0:0:0:0:
384,208,3125,2,0,L|304:208,1,80,2|8,0:0|3:0,0:0:0:0:
176,208,3744,5,8,0:0:0:0:
304,208,4053,1,8,0:0:0:0:
432,208,4362,2,0,L|352:208,1,80,2|8,0:0|3:0,0:0:0:0:
224,208,4981,6,0,B|304:208,1,80,8|8,3:1|0:0,0:0:0:0:
432,208,5599,1,2,0:0:0:0:
304,208,5909,1,8,0:0:0:0:
192,208,6218,5,2,0:0:0:0:
304,208,6527,2,0,L|384:208,2,80,8|0|8,0:0|0:0|0:0,0:0:0:0:
176,208,7455,5,8,3:1:0:0:
48,208,7764,1,8,0:0:0:0:
176,208,8074,2,0,L|96:208,1,80,2|8,0:0|0:0,0:0:0:0:
224,208,8692,6,0,L|304:208,1,80,8|8,3:0|0:0,0:0:0:0:
416,208,9311,1,0,0:0:0:0:
304,208,9620,1,8,0:0:0:0:
176,208,9929,5,8,3:1:0:0:
176,208,10238,1,8,0:0:0:0:
304,208,10548,1,8,0:0:0:0:
329,178,10702,1,0,0:0:0:0:
339,139,10857,1,2,0:0:0:0:
192,96,11166,6,0,P|72:152|128:240,1,240,8|8,0:0|0:0,0:0:0:0:
240,288,12403,6,0,L|344:288,1,80,12|0,1:0|0:0,0:0:0:0:
224,288,13022,1,2,0:0:0:0:
352,288,13331,1,0,0:0:0:0:
224,256,13641,6,0,L|144:256,1,80,8|0,3:0|0:0,0:0:0:0:
256,192,14259,1,2,0:0:0:0:
384,192,14568,1,8,0:2:0:0:
256,112,14878,5,8,0:1:0:0:
32,112,15496,1,8,0:3:0:0:
272,112,16115,1,8,0:1:0:0:
48,288,16733,1,8,0:2:0:0:
160,288,17043,1,0,0:0:0:0:
288,288,17352,6,0,L|208:288,1,80,12|0,0:1|0:0,0:0:0:0:
304,288,17970,1,0,3:0:0:0:
192,288,18280,1,8,0:0:0:0:
320,256,18589,6,0,L|400:256,1,80,8|0,3:0|0:0,0:0:0:0:
288,256,19208,1,2,0:0:0:0:
64,256,19826,5,8,0:1:0:0:
320,256,20445,1,8,0:3:0:0:
96,256,21063,1,8,3:0:0:0:
32,160,21372,1,8,3:0:0:0:
80,64,21682,1,8,0:1:0:0:
176,32,21991,1,8,0:1:0:0:
320,32,22300,6,0,L|416:32,1,88.000002685547,12|8,3:0|0:0,0:0:0:0:
304,112,22919,1,2,0:0:0:0:
176,112,23228,2,0,L|80:112,2,88.000002685547,8|8|8,3:0|0:0|3:0,0:0:0:0:
304,112,24156,1,2,0:0:0:0:
208,192,24465,1,8,0:0:0:0:
352,192,24775,6,0,L|448:192,1,88.000002685547,12|8,3:1|0:0,0:0:0:0:
320,256,25393,1,0,0:0:0:0:
448,256,25702,1,8,0:0:0:0:
320,256,26012,6,0,L|224:256,1,88.000002685547,8|0,3:0|0:0,0:0:0:0:
128,256,26630,1,2,0:0:0:0:
240,256,26939,1,8,0:0:0:0:
96,256,27249,6,0,L|-16:256,2,88.000002685547,12|0|8,1:0|0:0|0:3,0:0:0:0:
224,256,28177,2,0,L|336:256,2,88.000002685547,0|8|0,0:0|0:1|0:0,0:0:0:0:
96,256,29104,1,8,0:3:0:0:
224,256,29414,1,0,0:0:0:0:
384,256,29723,6,0,P|448:128|336:96,1,264.000008056641,12|8,0:1|0:0,0:0:0:0:
224,48,30960,5,8,0:0:0:0:
112,64,31269,1,8,0:0:0:0:
48,144,31579,1,2,0:0:0:0:
96,240,31888,1,8,0:0:0:0:
240,288,32197,6,0,L|288:224,1,80,12|0,3:0|0:0,0:0:0:0:
192,128,32816,1,2,0:0:0:0:
96,128,33125,1,8,0:0:0:0:
224,128,33434,6,0,B|304:128,1,80,8|0,3:0|0:0,0:0:0:0:
192,128,34053,1,8,0:3:0:0:
64,128,34362,1,2,0:0:0:0:
192,128,34671,5,8,3:1:0:0:
416,128,35290,1,8,0:3:0:0:
192,224,35909,1,8,0:1:0:0:
432,128,36527,1,0,0:0:0:0:
320,128,36836,1,8,0:0:0:0:
192,128,37146,6,0,L|112:128,1,80,12|8,0:1|0:0,0:0:0:0:
224,128,37764,1,0,3:0:0:0:
96,128,38074,1,8,0:0:0:0:
224,128,38383,6,0,L|144:128,1,80,8|0,3:1|0:0,0:0:0:0:
32,128,39001,1,2,0:0:0:0:
256,128,39620,5,8,3:1:0:0:
480,128,40238,1,8,3:0:0:0:
240,112,40857,1,8,3:0:0:0:
352,160,41166,1,8,0:0:0:0:
240,112,41476,1,8,0:0:0:0:
352,48,41785,1,8,0:0:0:0:
208,48,42094,6,0,L|96:48,1,88.000002685547,12|0,3:0|0:0,0:0:0:0:
32,48,42713,1,2,0:0:0:0:
160,160,43022,2,0,L|272:160,2,88.000002685547,8|8|8,0:0|3:0|0:0,0:0:0:0:
288,64,43950,1,2,0:0:0:0:
176,64,44259,1,10,0:0:0:0:
336,176,44568,6,0,L|448:176,1,88.000002685547,12|8,0:0|0:0,0:0:0:0:
288,64,45187,2,0,L|176:64,1,88.000002685547,2|8,0:0|0:0,0:0:0:0:
32,144,45805,5,8,3:1:0:0:
160,144,46115,1,0,0:0:0:0:
272,144,46424,1,2,0:0:0:0:
160,240,46733,1,8,0:0:0:0:
304,240,47043,6,0,L|416:240,1,88.000002685547,12|0,3:1|0:0,0:0:0:0:
256,288,47661,2,0,L|160:288,1,88.000002685547,8|0,3:3|0:0,0:0:0:0:
256,80,48280,6,0,L|368:80,1,88.000002685547,8|0,3:1|0:0,0:0:0:0:
464,160,48898,2,0,L|352:160,1,88.000002685547,8|0,3:3|0:0,0:0:0:0:
208,224,49517,6,0,P|64:176|96:96,1,264.000008056641,12|8,0:0|0:0,0:0:0:0:
224,64,50754,5,8,0:0:0:0:
352,64,51063,1,8,0:0:0:0:
224,64,51372,1,2,0:0:0:0:
112,64,51682,1,8,0:0:0:0:
272,80,51991,6,0,L|384:80,1,88.000002685547,12|0,3:1|0:0,0:0:0:0:
240,80,52610,2,0,L|128:80,1,88.000002685547,2|8,0:0|3:0,0:0:0:0:
272,80,53228,1,8,0:1:0:0:
144,80,53537,2,0,L|16:80,2,88.000002685547,8|2|8,0:0|0:0|0:3,0:0:0:0:
288,80,54465,6,0,L|400:80,1,88.000002685547,12|8,0:1|0:0,0:0:0:0:
240,80,55084,1,2,0:0:0:0:
112,80,55393,1,8,0:0:0:0:
240,80,55702,6,0,L|352:80,1,88.000002685547,8|8,3:1|0:0,0:0:0:0:
224,160,56321,2,0,L|112:160,1,88.000002685547,2|8,0:0|0:3,0:0:0:0:
288,160,56939,5,12,3:1:0:0:
464,144,58177,5,8,0:0:0:0:
224,144,58795,1,0,0:0:0:0:
448,224,59414,5,8,3:0:0:0:
336,224,59723,1,8,0:0:0:0:
224,224,60032,1,10,0:0:0:0:
336,224,60342,1,8,0:0:0:0:
448,224,60651,6,0,P|480:128|352:80,1,240,8|8,0:0|0:0,0:0:0:0:
224,64,61888,6,0,L|112:64,1,88.000002685547,12|8,0:0|0:3,0:0:0:0:
272,128,62507,2,0,L|384:128,2,88.000002685547,0|8|0,0:1|0:3|0:0,0:0:0:0:
384,64,63434,1,8,0:3:0:0:
256,64,63744,2,0,L|144:64,1,88.000002685547,0|8,0:0|0:0,0:0:0:0:
48,64,64362,5,8,0:1:0:0:
176,64,64671,1,0,0:0:0:0:
288,64,64981,2,0,L|416:64,2,88.000002685547,0|8|0,0:0|3:0|0:0,0:0:0:0:
416,64,65909,1,8,0:3:0:0:
288,64,66218,2,0,L|176:64,1,88.000002685547,0|8,0:0|0:3,0:0:0:0:
320,128,66836,6,0,L|432:128,1,88.000002685547,12|0,0:1|0:0,0:0:0:0:
288,128,67455,2,0,L|160:128,2,88.000002685547,0|8|0,0:0|0:3|0:0,0:0:0:0:
160,128,68383,2,0,L|48:128,2,88.000002685547,8|0|8,0:3|0:0|0:3,0:0:0:0:
288,128,69311,5,12,0:1:0:0:
160,144,69620,1,0,0:0:0:0:
288,144,69929,2,0,L|400:144,2,88.000002685547,0|8|0,0:0|0:1|0:0,0:0:0:0:
160,144,70857,1,8,0:3:0:0:
48,144,71166,1,8,0:3:0:0:
160,144,71476,1,8,0:3:0:0:
304,96,71785,6,0,L|432:96,1,88.000002685547,12|0,0:1|0:0,0:0:0:0:
272,128,72403,1,0,0:0:0:0:
160,192,72713,2,0,L|288:192,2,88.000002685547,8|0|8,0:3|0:0|0:3,0:0:0:0:
272,112,73641,2,0,L|400:112,1,88.000002685547,0|8,0:0|0:3,0:0:0:0:
240,160,74259,5,12,0:1:0:0:
368,160,74568,1,0,0:0:0:0:
240,160,74878,2,0,L|112:160,2,88.000002685547,0|8|0,0:0|0:0|0:0,0:0:0:0:
368,160,75805,1,8,0:3:0:0:
496,160,76115,1,0,0:0:0:0:
496,160,76424,1,8,0:3:0:0:
368,160,76733,6,0,L|240:160,2,88.000002685547,12|0|8,0:1|0:0|0:0,0:0:0:0:
240,160,77661,1,8,0:3:0:0:
112,160,77970,2,0,L|224:160,2,88.000002685547,0|8|8,0:0|0:3|0:3,0:0:0:0:
240,160,78898,1,8,0:3:0:0:
112,160,79208,6,0,L|0:160,1,88.000002685547,12|8,0:1|0:3,0:0:0:0:
144,128,79826,2,0,L|272:128,1,88.000002685547,0|8,0:0|0:3,0:0:0:0:
352,128,80445,2,0,L|480:128,2,88.000002685547,8|8|8,0:3|0:3|0:3,0:0:0:0:
224,128,81372,1,8,0:3:0:0:
368,128,81682,5,12,0:1:0:0:
352,160,90960,5,8,0:3:0:0:
464,160,91269,1,8,0:3:0:0:
336,160,91578,6,0,L|256:160,1,80,12|0,0:1|0:0,0:0:0:0:
128,160,92197,1,2,0:0:0:0:
256,160,92506,2,0,L|368:160,2,88.000002685547,8|8|0,0:3|0:1|0:0,0:0:0:0:
128,160,93434,1,2,0:0:0:0:
256,160,93743,1,8,0:3:0:0:
384,160,94052,6,0,L|272:160,1,88.000002685547,12|0,0:1|0:0,0:0:0:0:
160,160,94671,2,0,L|256:160,1,88.000002685547,2|8,0:0|0:3,0:0:0:0:
384,160,95289,5,8,0:1:0:0:
256,160,95599,1,0,0:0:0:0:
144,160,95908,1,2,0:0:0:0:
256,160,96217,1,8,0:1:0:0:
112,160,96527,6,0,L|0:160,1,88.000002685547,12|0,0:1|0:0,0:0:0:0:
144,160,97145,2,0,L|256:160,1,88.000002685547,8|0,0:0|0:0,0:0:0:0:
368,160,97764,6,0,L|256:160,1,88.000002685547,8|0,0:1|0:0,0:0:0:0:
144,176,98382,2,0,L|256:176,1,88.000002685547,8|0,0:0|0:0,0:0:0:0:
384,192,99001,6,0,P|405:65|288:48,1,264.000008056641,12|0,0:1|0:0,0:0:0:0:
144,96,100238,5,8,0:0:0:0:
64,160,100547,1,8,0:0:0:0:
80,256,100856,1,10,0:0:0:0:
176,304,101166,1,8,0:0:0:0:
320,304,101475,6,0,L|432:304,1,88.000002685547,12|0,0:1|0:0,0:0:0:0:
288,240,102094,2,0,L|176:240,1,88.000002685547,2|0,0:0|0:0,0:0:0:0:
320,240,102712,1,8,0:1:0:0:
192,240,103022,2,0,L|64:240,2,88.000002685547,0|0|0,0:0|0:0|0:0,0:0:0:0:
336,240,103949,6,0,L|448:240,1,88.000002685547,12|0,0:1|0:0,0:0:0:0:
304,240,104568,1,2,0:0:0:0:
192,240,104877,1,8,0:0:0:0:
304,240,105187,6,0,L|192:240,1,88.000002685547,8|0,0:1|0:0,0:0:0:0:
80,240,105805,1,2,0:0:0:0:
192,240,106115,1,8,0:1:0:0:
336,240,106424,6,0,L|448:240,1,88.000002685547,12|0,0:1|0:0,0:0:0:0:
304,272,107042,2,0,L|192:272,1,88.000002685547,8|0,0:3|0:0,0:0:0:0:
80,224,107661,6,0,L|192:224,1,88.000002685547,8|0,0:1|0:0,0:0:0:0:
272,160,108279,2,0,L|160:160,1,88.000002685547,2|8,0:0|0:3,0:0:0:0:
32,160,108898,6,0,P|48:288|192:304,1,264.000008056641,12|0,0:1|0:0,0:0:0:0:
304,304,110135,5,8,0:0:0:0:
416,272,110444,1,8,0:0:0:0:
432,144,110753,1,10,0:0:0:0:
336,80,111063,1,8,0:0:0:0:
176,80,111372,6,0,L|64:80,1,88.000002685547,12|0,0:1|0:0,0:0:0:0:
192,64,111991,1,2,0:0:0:0:
80,64,112300,1,8,0:3:0:0:
224,64,112610,6,0,L|336:64,1,88.000002685547,8|0,0:1|0:0,0:0:0:0:
432,64,113228,1,0,3:0:0:0:
304,64,113537,1,0,0:0:0:0:
256,192,113847,12,0,121269,0:2:0:0:
