osu file format v14

[General]
AudioFilename: audio.mp3
AudioLeadIn: 0
PreviewTime: 47197
Countdown: 0
SampleSet: Soft
StackLeniency: 0.7
Mode: 0
LetterboxInBreaks: 0
WidescreenStoryboard: 1

[Editor]
DistanceSpacing: 1.3
BeatDivisor: 4
GridSize: 4
TimelineZoom: 0.8000009

[Metadata]
Title:Cresc.Heart
TitleUnicode:Cresc.Heart
Artist:TROISANGES
ArtistUnicode:トロワアンジュ
Creator:Hinsvar
Version:Easy
Source:Re:ステージ!プリズムステップ
Tags:Re:Stage! Prism step Restage RST CAMPANELLA 白鳥天葉 Shiratori Amaha 日岡なつみ Hioka Natsumi 帆風奏 Hokaze Kanade 阿部里果 Abe Rika 緋村那岐咲 Himura Nagisa 長妻樹里 Nagatsuma Juri Video Game Japanese
BeatmapID:2184837
BeatmapSetID:1043685

[Difficulty]
HPDrainRate:3
CircleSize:3
OverallDifficulty:3
ApproachRate:3.5
SliderMultiplier:0.96
SliderTickRate:1

[Events]
//Background and Video events
0,0,"kanade.jpg",0,0
//Break Periods
2,73474,77475
2,171148,176545
//Storyboard Layer 0 (Background)
//Storyboard Layer 1 (Fail)
//Storyboard Layer 2 (Pass)
//Storyboard Layer 3 (Foreground)
//Storyboard Layer 4 (Overlay)
//Storyboard Sound Samples

[TimingPoints]
716,348.837209302326,4,2,1,50,1,0
9088,-100,4,2,1,50,0,0
18681,-100,4,2,1,60,0,0
20250,-100,4,2,1,70,0,0
31413,-100,4,2,1,60,0,0
35599,-100,4,2,1,65,0,0
36471,-100,4,2,1,70,0,0
36995,-100,4,2,1,40,0,0
39262,-100,4,2,1,60,0,0
39785,-100,4,2,1,70,0,0
48157,-100,4,2,1,80,0,1
58971,-100,4,2,1,80,0,0
59320,-100,4,2,1,80,0,1
68390,-100,4,2,1,80,0,0
68739,-100,4,2,1,90,0,1
70483,-100,4,2,1,80,0,1
72402,-100,4,2,1,70,0,1
73274,-100,4,2,1,60,0,0
81646,-100,4,2,1,55,0,0
91239,-100,4,2,1,60,0,0
92809,-100,4,2,1,70,0,0
103971,-100,4,2,1,60,0,0
108157,-100,4,2,1,65,0,0
109029,-100,4,2,1,70,0,0
109553,-100,4,2,1,40,0,0
111820,-100,4,2,1,60,0,0
112343,-100,4,2,1,70,0,0
120716,-100,4,2,1,80,0,1
131529,-100,4,2,1,80,0,0
131878,-100,4,2,1,80,0,1
140948,-100,4,2,1,80,0,0
141297,-100,4,2,1,90,0,1
143041,-100,4,2,1,80,0,1
145832,-100,4,2,1,70,0,0
162576,-100,4,2,1,80,0,0
170425,-100,4,2,1,60,0,0
170948,-100,4,2,1,50,0,0
177925,-100,4,2,1,60,0,0
178274,-100,4,2,1,70,0,0
178622,-100,4,2,1,80,0,1
180192,-100,4,2,1,80,0,0
180541,-100,4,2,1,80,0,1
181762,-100,4,2,1,80,0,0
182111,-100,4,2,1,80,0,1
185163,-100,4,2,1,5,0,1
185250,-100,4,2,1,80,0,1
191181,-100,4,2,1,80,0,0
191529,400,4,2,1,90,1,1
192054,348.837209302326,4,2,1,90,1,1
192751,333.333333333333,4,2,1,90,1,1
193084,422.535211267606,4,2,1,90,1,1
193295,348.837209302326,4,2,1,60,1,0

[Colours]
Combo1 : 51,255,102
Combo2 : 223,147,249
Combo3 : 49,236,251
Combo4 : 247,235,15

[HitObjects]
103,183,9088,6,0,P|129:265|225:339,2,192,2|0|2,3:2|3:0|3:2,0:0:0:0:
235,40,11181,2,0,P|281:30|329:32,1,96
408,86,11878,2,0,P|428:165|397:273,1,192,2|0,3:2|3:0,0:0:0:0:
236,171,13274,1,2,3:2:0:0:
128,334,13971,1,0,3:0:0:0:
66,259,14320,1,0,3:0:0:0:
48,164,14669,6,0,P|97:85|187:26,2,192,2|2|2,3:2|3:2|3:2,0:0:0:0:
164,316,16762,1,0,0:0:0:0:
254,347,17111,1,0,0:0:0:0:
283,255,17460,2,0,P|371:208|471:215,1,192,2|0,3:2|3:0,0:0:0:0:
501,124,18506,2,0,L|487:65,1,48,0|2,3:0|3:2,0:0:0:0:
489,77,19902,1,8,0:0:0:0:
428,151,20250,6,0,P|356:198|249:189,1,192,6|2,3:2|0:0,0:0:0:0:
187,120,21297,1,8,0:0:0:0:
104,168,21646,2,0,P|92:212|91:272,1,96,2|8,3:2|0:0,0:0:0:0:
148,338,22343,2,0,P|192:350|252:351,1,96,0|8,0:0|0:0,0:0:0:0:
260,257,23041,6,0,P|312:207|392:206,1,144,2|0,3:2|3:0,0:0:0:0:
451,267,23913,1,0,3:0:0:0:
499,184,24262,2,0,P|496:84|425:20,1,192,0|2,0:0|3:2,0:0:0:0:
353,76,25309,2,0,L|301:86,1,48,0|8,3:0|0:0,0:0:0:0:
229,26,25832,6,0,B|162:12|162:12|82:62,1,144,6|0,3:2|3:0,0:0:0:0:
36,126,26704,1,0,3:0:0:0:
79,211,27053,2,0,P|123:230|185:232,1,96,2|2,3:2|3:2,0:0:0:0:
254,187,27750,2,0,P|313:205|329:281,1,144,2|8,3:2|0:0,0:0:0:0:
275,357,28622,6,0,P|228:325|144:333,1,144,2|0,3:2|3:0,0:0:0:0:
54,367,29495,1,2,3:2:0:0:
8,282,29843,2,0,P|1:217|28:140,1,144,4|8,3:2|3:0,0:0:0:0:
81,64,30716,1,0,3:0:0:0:
267,20,31413,6,0,P|357:50|442:113,1,192,6|10,3:3|0:0,0:0:0:0:
468,295,32809,2,0,P|427:323|377:338,1,96,2|2,3:2|0:0,0:0:0:0:
321,264,33506,1,10,0:0:0:0:
230,231,33855,1,0,0:0:0:0:
150,282,34204,6,0,P|70:272|67:166,1,192,2|10,3:2|0:0,0:0:0:0:
219,69,35599,2,0,P|238:139|251:221,1,144,10|10,0:0|0:0,0:0:0:0:
232,303,36471,1,14,0:0:0:0:
400,338,36995,6,0,P|464:272|456:168,2,192,6|6|6,3:2|3:2|3:2,0:0:0:0:
260,205,39088,2,0,P|215:203|170:225,1,96,4|0,3:2|3:0,0:0:0:0:
97,161,39785,6,0,P|98:116|111:66,1,96,6|8,3:2|0:0,0:0:0:0:
196,23,40483,1,0,0:0:0:0:
279,70,40832,1,10,0:0:0:0:
349,135,41181,2,0,P|397:123|436:89,2,96,2|8|0,3:2|0:0|0:0,0:0:0:0:
300,218,42227,1,8,0:0:0:0:
229,283,42576,6,0,P|132:270|116:185,1,192,2|0,3:2|3:0,0:0:0:0:
162,105,43622,1,8,0:0:0:0:
249,144,43971,2,0,P|318:132|379:91,1,144,2|2,3:2|3:2,0:0:0:0:
449,26,44843,1,0,3:0:0:0:
504,104,45192,6,0,P|511:181|471:237,1,144,6|10,3:2|0:0,0:0:0:0:
379,221,46064,2,2,P|331:220|292:255,1,96,0|0,3:0|3:0,0:0:0:0:
225,316,46762,2,0,L|237:380,2,48,2|2|2,3:2|3:2|3:2,0:0:0:0:
225,316,48157,6,0,P|165:235|155:130,1,192,6|0,3:2|3:0,0:0:0:0:
197,61,49204,1,8,0:0:0:0:
282,104,49553,2,0,P|330:103|378:85,1,96,2|8,3:2|0:0,0:0:0:0:
451,29,50250,1,2,0:0:0:0:
509,105,50599,1,8,0:0:0:0:
454,184,50948,6,0,P|438:232|434:284,1,96,2|8,3:2|0:0,0:0:0:0:
362,342,51646,2,0,P|295:333|231:294,1,144,0|2,3:0|0:0,0:0:0:0:
199,203,52518,1,0,0:0:0:0:
117,152,52867,2,0,P|58:171|14:238,1,144,2|8,3:2|0:0,0:0:0:0:
75,310,53739,5,2,3:2:0:0:
163,273,54088,2,0,P|209:272|262:301,2,96,8|0|8,0:0|3:0|0:0,0:0:0:0:
115,189,55134,2,0,P|99:146|98:94,1,96,2|8,3:2|0:0,0:0:0:0:
165,27,55832,1,2,3:2:0:0:
251,68,56181,1,8,0:0:0:0:
338,27,56529,6,0,P|388:26|441:42,1,96,6|8,3:2|0:0,0:0:0:0:
474,123,57227,2,0,P|400:150|333:201,1,144,0|2,3:0|3:2,0:0:0:0:
159,228,58448,2,0,P|129:176|134:81,1,144,6|10,3:2|0:0,0:0:0:0:
204,33,59320,6,0,P|296:63|392:109,1,192,6|2,3:2|3:2,0:0:0:0:
443,177,60367,1,8,0:0:0:0:
370,242,60716,2,0,P|351:285|342:337,1,96,2|8,3:2|0:0,0:0:0:0:
249,356,61413,2,0,P|210:323|185:279,1,96,0|10,0:0|0:0,0:0:0:0:
140,200,62111,6,0,P|97:185|38:183,2,96,2|8|0,3:2|0:0|0:0,0:0:0:0:
235,184,63157,2,0,P|296:131|286:27,1,192,14|8,0:0|0:0,0:0:0:0:
191,11,64204,1,0,3:0:0:0:
96,178,64902,6,0,P|49:171|-6:153,2,96,14|8|10,0:0|0:0|0:0,0:0:0:0:
165,111,65948,1,14,0:0:0:0:
248,63,66297,2,0,P|267:99|281:164,1,96,8|10,0:0|0:0,0:0:0:0:
270,248,66995,1,8,0:0:0:0:
115,361,67692,6,0,P|73:340|22:336,2,96,14|10|10,0:0|0:0|0:0,0:0:0:0:
210,352,68739,2,0,P|302:257|294:148,1,240,6|14,0:0|0:0,0:0:0:0:
221,99,69960,2,0,L|168:109,1,48,0|2,0:0|3:2,0:0:0:0:
103,173,70483,6,0,P|103:224|133:323,2,144,6|0|10,3:2|3:0|0:0,0:3:0:0:
173,107,71878,2,0,L|222:121,1,48,2|2,3:2|3:2,0:0:0:0:
300,172,72402,2,0,P|348:126|349:47,1,144,2|2,3:2|3:2,0:0:0:0:
267,6,73274,5,6,3:2:0:0:
355,34,78855,6,0,P|413:110|443:221,1,192,2|2,3:2|0:0,0:0:0:0:
387,280,79902,1,2,3:2:0:0:
320,349,80250,2,0,B|275:374|231:327|240:317|195:271|145:301,1,192,6|0,3:2|0:0,0:0:0:0:
20,155,81646,6,0,P|47:64|139:56,1,192,2|0,3:2|0:0,0:0:0:0:
201,119,82692,1,0,3:0:0:0:
283,168,83041,2,0,L|332:153,1,48,0|2,0:0|3:2,0:0:0:0:
480,237,83739,2,0,P|477:289|461:344,1,96,0|8,0:0|0:0,0:0:0:0:
375,362,84436,6,0,P|315:321|235:323,2,144,2|2|8,0:0|3:2|0:0,0:0:0:0:
427,281,85832,2,0,P|466:251|516:237,2,96,2|2|2,0:0|0:0|0:0,0:0:0:0:
427,88,87227,6,0,P|374:49|288:34,2,144,2|10|2,3:2|3:0|3:2,0:0:0:0:
419,183,88622,2,0,L|361:200,1,48,0|0,0:0|3:0,0:0:0:0:
269,335,89320,1,0,0:0:0:0:
174,351,89669,1,8,0:0:0:0:
116,274,90018,2,0,P|108:178|156:91,1,192,2|10,3:2|0:0,0:0:0:0:
238,135,91064,2,0,L|249:185,1,48,2|2,3:2|3:2,0:0:0:0:
248,181,92460,1,8,0:0:0:0:
317,255,92809,6,0,P|369:209|394:87,1,192,6|2,3:2|0:0,0:0:0:0:
327,24,93855,1,8,0:0:0:0:
236,55,94204,2,0,P|187:49|137:30,1,96,2|8,3:2|0:0,0:0:0:0:
49,13,94902,2,0,P|29:56|19:103,1,96,0|10,0:0|0:0,0:0:0:0:
109,136,95599,6,0,P|144:198|160:278,1,144,2|0,3:2|3:0,0:0:0:0:
213,347,96471,1,2,3:2:0:0:
305,372,96820,2,0,B|359:385|398:350|386:335|430:296|479:311,1,192,0|2,0:0|3:2,0:0:0:0:
503,218,97867,2,0,L|492:165,1,48,0|8,3:0|0:0,0:0:0:0:
462,79,98390,6,0,P|404:29|340:12,1,144,6|0,3:2|3:0,0:0:0:0:
260,66,99262,1,0,3:0:0:0:
175,20,99611,2,0,P|146:59|133:111,1,96,2|0,3:2|3:0,0:0:0:0:
180,188,100309,2,0,P|256:198|314:237,1,144,2|10,3:2|0:0,0:0:0:0:
293,328,101181,6,0,P|220:346|146:357,1,144,2|0,3:2|3:0,0:0:0:0:
66,313,102053,1,2,3:2:0:0:
35,221,102402,2,0,P|36:151|90:87,1,144,4|10,3:2|3:0,3:0:0:0:
172,71,103274,1,0,0:0:0:0:
342,158,103971,6,0,B|378:115|392:76|392:76|367:41|325:5,1,192,6|10,3:2|0:0,0:0:0:0:
136,31,105367,2,0,P|122:78|116:127,1,96,2|2,3:2|0:0,0:0:0:0:
194,180,106064,1,8,0:0:0:0:
228,269,106413,1,0,0:0:0:0:
171,346,106762,5,2,3:2:0:0:
363,364,107460,2,0,P|407:356|456:333,1,96,10|0,0:0|0:0,0:0:0:0:
479,242,108157,2,0,P|404:230|332:201,1,144,10|10,0:2|0:0,0:0:0:0:
290,123,109029,1,14,0:0:0:0:
181,257,109553,6,0,P|84:259|37:170,2,192,2|2|2,0:0|0:0|0:0,0:0:0:0:
344,156,111646,2,0,P|341:109|324:59,1,96,2|2,0:0|3:2,0:0:0:0:
230,77,112343,6,0,P|180:75|127:54,1,96,6|8,3:2|0:0,0:0:0:0:
50,18,113041,1,2,3:2:0:0:
3,102,113390,1,8,0:0:0:0:
81,157,113739,2,0,P|96:201|97:255,2,96,2|8|2,3:2|0:0|0:0,0:0:0:0:
154,95,114785,1,8,0:0:0:0:
232,39,115134,6,0,P|322:22|412:73,1,192,2|2,3:2|0:0,0:0:0:0:
452,152,116181,1,8,0:0:0:0:
434,246,116529,2,0,P|376:285|297:308,1,144,6|2,3:2|3:2,0:0:0:0:
227,252,117402,1,2,3:2:0:0:
175,171,117750,6,0,P|159:101|149:8,2,144,6|12|12,3:2|0:0|0:0,0:0:0:0:
252,325,119320,2,0,L|316:347,2,48,2|2|2,3:2|3:2|3:2,0:0:0:0:
252,325,120716,6,0,P|150:336|101:270,1,192,6|2,3:2|3:2,0:0:0:0:
153,191,121762,1,8,0:0:0:0:
228,132,122111,2,0,P|230:79|221:37,2,96,2|8|2,3:2|0:0|0:0,0:0:0:0:
314,174,123157,1,8,0:0:0:0:
395,224,123506,6,0,P|459:181|450:59,1,192,2|0,3:2|0:0,0:0:0:0:
386,12,124553,1,8,0:0:0:0:
294,41,124902,2,0,P|278:88|272:139,1,96,0|8,3:0|0:0,0:0:0:0:
189,182,125599,2,0,P|216:223|235:270,1,96,0|10,0:0|0:0,0:0:0:0:
203,357,126297,6,0,P|122:317|18:296,1,192,2|0,3:2|3:0,0:0:0:0:
4,202,127343,1,8,0:0:0:0:
84,150,127692,2,0,P|98:105|102:55,1,96,2|8,3:2|0:0,0:0:0:0:
191,17,128390,1,2,0:0:0:0:
263,80,128739,1,8,0:0:0:0:
350,39,129088,6,0,P|397:27|462:22,1,96,6|8,3:2|0:0,0:0:0:0:
478,111,129785,2,0,P|449:179|435:257,1,144,2|2,3:2|3:2,0:0:0:0:
293,376,131006,2,0,P|224:374|159:325,1,144,6|10,3:2|0:0,0:0:0:0:
165,236,131878,6,0,P|228:166|329:180,1,192,4|2,3:2|3:2,0:0:0:0:
391,110,132925,1,8,0:0:0:0:
324,41,133274,2,0,P|279:25|222:15,1,96,2|8,3:2|0:0,0:0:0:0:
214,110,133971,2,0,P|172:133|118:153,1,96,0|10,3:0|0:0,0:0:0:0:
35,120,134669,6,0,P|15:154|4:218,2,96,2|8|2,3:2|0:0|3:2,0:0:0:0:
59,26,135716,2,0,P|145:66|253:72,1,192,14|8,0:0|0:0,0:0:0:0:
328,33,136762,1,0,3:0:0:0:
462,170,137460,6,0,P|450:220|424:270,2,96,14|8|10,0:0|0:0|0:0,0:0:0:0:
388,108,138506,2,0,P|342:124|302:149,1,96,12|8,0:0|0:0,0:0:0:0:
272,240,139204,1,10,0:0:0:0:
188,286,139553,1,8,0:0:0:0:
85,123,140250,6,0,P|70:75|70:22,2,96,14|8|10,0:0|0:0|0:0,0:0:0:0:
166,174,141297,2,0,B|222:198|283:140|272:133|340:75|386:98,1,240,6|14,0:0|0:0,0:0:0:0:
462,146,142518,2,0,L|467:198,1,48,0|2,0:0|3:2,0:0:0:0:
384,243,143041,6,0,P|334:299|313:385,2,144,6|2|14,3:2|3:2|0:0,0:0:0:0:
272,86,144785,1,2,3:2:0:0:
186,125,145134,2,0,P|158:166|152:216,1,96,0|2,3:0|3:2,0:0:0:0:
194,297,145832,6,0,P|281:309|378:361,1,192,14|8,0:0|0:0,0:0:0:0:
439,287,146878,1,10,0:0:0:0:
446,191,147227,2,0,P|433:146|411:99,1,96,8|10,0:0|0:0,0:0:0:0:
334,45,147925,2,0,P|289:58|242:80,1,96,8|10,0:0|0:0,0:0:0:0:
156,122,148622,6,0,P|140:80|111:34,2,96,8|10|8,0:0|0:0|0:0,0:0:0:0:
169,217,149669,1,10,0:0:0:0:
116,297,150018,1,8,0:0:0:0:
189,357,150367,2,0,P|238:353|273:311,2,96,10|10|8,0:0|0:0|0:0,0:0:0:0:
116,297,151413,6,0,P|93:253|78:205,1,96,14|10,0:0|0:0,0:0:0:0:
73,112,152111,1,8,0:0:0:0:
145,48,152460,1,10,0:0:0:0:
227,97,152809,2,0,P|302:88|371:64,1,144,14|2,0:0|3:2,0:0:0:0:
456,32,153681,1,10,0:0:0:0:
493,120,154029,6,0,P|488:189|471:271,1,144,6|8,0:0|0:0,0:0:0:0:
406,331,154902,2,0,P|360:332|307:350,1,96,0|8,0:0|0:0,0:0:0:0:
256,269,155599,2,0,P|300:218|289:137,1,144,6|2,3:2|3:2,0:0:0:0:
247,61,156471,1,10,0:0:0:0:
152,78,156820,1,8,0:0:0:0:
68,229,157343,6,0,P|95:317|196:351,1,192,14|10,0:0|0:0,0:0:0:0:
271,317,158390,2,0,P|286:278|292:223,1,96,0|8,3:0|0:0,0:0:0:0:
226,153,159088,1,2,0:0:0:0:
257,62,159436,1,10,0:0:0:0:
346,26,159785,6,0,P|436:64|436:149,1,192,2|2,3:2|3:2,0:0:0:0:
391,232,160832,1,8,0:0:0:0:
297,254,161181,2,0,P|253:248|202:227,1,96,2|8,3:2|0:0,0:0:0:0:
152,149,161878,2,0,P|157:105|178:54,1,96,2|8,3:2|0:0,0:0:0:0:
263,17,162576,5,14,0:0:0:0:
453,43,163274,1,8,0:0:0:0:
495,129,163622,1,10,0:0:0:0:
493,225,163971,2,0,P|484:274|461:323,1,96,10|10,0:0|0:0,0:0:0:0:
373,345,164669,2,0,P|327:331|285:307,1,96,10|10,0:0|0:0,0:0:0:0:
246,217,165367,6,0,P|240:168|226:114,2,96,14|8|8,0:0|0:0|0:0,0:0:0:0:
173,280,166413,1,10,0:0:0:0:
80,253,166762,1,10,0:0:0:0:
27,172,167111,2,0,P|35:123|56:67,1,96,4|2,0:0|3:2,0:0:0:0:
220,81,167983,6,0,P|226:152|204:220,1,144,6|14,3:2|0:0,0:0:0:0:
356,336,169204,1,12,0:0:0:0:
436,283,169553,2,0,L|493:294,2,48,2|2|2,3:2|3:2|3:2,0:0:0:0:
338,117,170599,1,2,3:2:0:0:
398,42,170948,5,6,3:2:0:0:
351,333,177925,5,10,0:0:0:0:
416,262,178274,1,10,0:0:0:0:
398,167,178622,6,0,P|358:139|304:127,1,96,14|14,0:0|0:0,0:0:0:0:
249,200,179320,2,0,P|191:274|48:275,1,240,2|10,3:2|0:0,0:0:0:0:
7,193,180541,1,2,3:2:0:0:
122,40,181239,2,0,P|191:52|262:87,1,144,6|8,3:2|0:0,0:0:0:0:
292,174,182111,6,0,P|386:172|435:88,1,192,6|2,3:2|3:2,0:0:0:0:
379,16,183157,1,8,0:0:0:0:
283,7,183506,2,0,P|241:19|192:42,1,96,2|8,3:2|0:0,0:0:0:0:
145,123,184204,2,0,P|164:163|174:221,1,96,0|10,0:0|0:0,0:0:0:0:
139,303,184902,5,2,3:2:0:0:
212,365,185250,2,0,P|258:358|304:329,1,96,8|2,0:0|3:2,0:0:0:0:
283,237,185948,2,0,P|319:161|431:131,1,192,14|4,0:0|0:0,0:0:0:0:
490,189,186995,1,0,3:0:0:0:
466,282,187343,1,8,0:0:0:0:
381,327,187692,6,0,P|334:333|282:314,2,96,14|8|10,0:0|0:0|0:0,3:0:0:0:
344,238,188739,2,0,P|332:190|328:141,1,96,6|0,0:0|0:0,0:0:0:0:
239,104,189436,2,0,P|211:143|190:186,1,96,2|10,0:0|0:0,0:0:0:0:
93,347,190483,6,0,P|46:325|11:296,2,96,4|8|10,3:2|0:0|0:0,0:0:0:0:
187,374,191529,1,14,0:0:0:0:
340,328,192054,1,2,0:0:0:0:
287,248,192402,2,0,P|292:202|322:159,1,96,0|0,3:0|0:0,0:0:0:0:
367,84,193084,2,0,P|360:58|347:36,1,48,0|6,3:0|3:2,0:0:0:0:
256,192,193469,12,2,196085,3:2:0:0:
