osu file format v14

[General]
AudioFilename: audio.ogg
AudioLeadIn: 0
PreviewTime: 22082
Countdown: 0
SampleSet: Soft
StackLeniency: 0.4
Mode: 0
LetterboxInBreaks: 0
WidescreenStoryboard: 1

[Editor]
Bookmarks: 11318,22612,45200,90376,135553,158847,180729,203318,248494,271082,293671
DistanceSpacing: 2
BeatDivisor: 4
GridSize: 16
TimelineZoom: 2.1

[Metadata]
Title:GENESIS
TitleUnicode:GENESIS
Artist:TRIVENT
ArtistUnicode:TRIVENT
Creator:IntegerTempest
Version:LastWorld
Source:
Tags:dubstep bass neuro thorjn dystopian futuresok instrumental electronic aye1337
BeatmapID:2753523
BeatmapSetID:1312618

[Difficulty]
HPDrainRate:5
CircleSize:5
OverallDifficulty:9
ApproachRate:9.4
SliderMultiplier:2.8
SliderTickRate:1

[Events]
//Background and Video events
0,0,"9504714212de11d136928d9daa438a0e.jpg",0,0
//Break Periods
2,88259,89759
2,182141,190223
//Storyboard Layer 0 (Background)
//Storyboard Layer 1 (Fail)
//Storyboard Layer 2 (Pass)
//Storyboard Layer 3 (Foreground)
//Storyboard Layer 4 (Overlay)
//Storyboard Sound Samples

[TimingPoints]
24,352.941176470588,4,2,1,80,1,0
11318,-377.358490566038,4,2,1,35,0,0
22612,-200,4,2,1,40,0,0
22965,-333.333333333333,4,2,1,40,0,0
23318,-166.666666666667,4,2,1,40,0,0
23671,-500,4,2,1,40,0,0
24023,-166.666666666667,4,2,1,40,0,0
25082,-333.333333333333,4,2,1,40,0,0
25435,-166.666666666667,4,2,1,40,0,0
26671,-333.333333333334,4,2,1,40,0,0
27553,-166.666666666667,4,2,1,40,0,0
27906,-90.909090909091,4,2,1,40,0,0
28259,-166.666666666667,4,2,1,40,0,0
28965,-111.111111111111,4,2,1,40,0,0
29671,-333.333333333332,4,2,1,40,0,0
30023,-166.666666666666,4,2,1,40,0,0
31435,-111.111111111111,4,2,1,40,0,0
32141,-333.333333333331,4,2,1,40,0,0
33906,-199.999999999999,4,2,1,40,0,0
34259,-333.333333333331,4,2,1,40,0,0
34612,-166.666666666666,4,2,1,40,0,0
34965,-499.999999999995,4,2,1,40,0,0
35318,-166.666666666666,4,2,1,40,0,0
36376,-499.999999999995,4,2,1,40,0,0
36729,-166.666666666666,4,2,1,40,0,0
36994,-111.111111111111,4,2,1,40,0,0
37435,-232.558139534884,4,2,1,40,0,0
37965,-200,4,2,1,40,0,0
38494,-500,4,2,1,40,0,0
38847,-166.666666666667,4,2,1,40,0,0
39023,-111.111111111111,4,2,1,40,0,0
39553,-166.666666666667,4,2,1,40,0,0
40259,-111.111111111111,4,2,1,40,0,0
40965,-166.666666666667,4,2,1,40,0,0
42729,-125,4,2,1,40,0,0
43082,-200,4,2,1,40,0,0
45200,-333.333333333333,4,2,1,40,0,0
90376,-100,4,2,1,85,0,0
91082,-250,4,2,1,85,0,0
92494,-83.3333333333333,4,2,1,85,0,0
93200,-66.6666666666667,4,2,1,85,0,0
93553,-250,4,2,1,85,0,0
93906,-83.3333333333333,4,2,1,85,0,0
94376,-250,4,2,1,85,0,0
94612,-100,4,2,1,85,0,0
94965,-66.6666666666667,4,2,1,85,0,0
95318,-100,4,2,1,85,0,0
97876,-125,4,2,1,85,0,0
98847,-188.679245283019,4,2,1,85,0,0
99200,-66.6666666666667,4,2,1,85,0,0
99553,-100,4,2,1,85,0,0
100259,-285.714285714286,4,2,1,85,0,0
100400,-222.222222222222,4,2,1,85,0,0
100700,-303.030303030303,4,2,1,85,0,0
100965,-100,4,2,1,85,0,0
101671,-250,4,2,1,85,0,0
104318,-66.6666666666667,4,2,1,85,0,0
104494,-100,4,2,1,85,0,0
104935,-142.857142857143,4,2,1,85,0,0
105200,-83.3333333333334,4,2,1,85,0,0
105641,-250,4,2,1,85,0,0
105906,-100,4,2,1,85,0,0
106259,-66.6666666666667,4,2,1,85,0,0
106612,-100,4,2,1,85,0,0
107671,-285.714285714286,4,2,1,85,0,0
108023,-100,4,2,1,85,0,0
109171,-125,4,2,1,85,0,0
110847,-100,4,2,1,85,0,0
111553,-200,4,2,1,85,0,0
111818,-333.333333333333,4,2,1,85,0,0
112259,-100,4,2,1,85,0,0
113406,-333.333333333333,4,2,1,85,0,0
113671,-100,4,2,1,85,0,0
114023,-333.333333333333,4,2,1,85,0,0
114376,-166.666666666667,4,2,1,85,0,0
114729,-111.111111111111,4,2,1,85,0,0
116229,-200,4,2,1,85,0,0
116494,-83.3333333333333,4,2,1,85,0,0
116935,-250,4,2,1,85,0,0
117200,-100,4,2,1,85,0,0
117553,-66.6666666666667,4,2,1,85,0,0
117906,-100,4,2,1,85,0,0
120465,-125,4,2,1,85,0,0
121435,-71.4285714285714,4,2,1,85,0,0
121876,-83.3333333333333,4,2,1,85,0,0
122141,-100,4,2,1,85,0,0
123059,-142.857142857143,4,2,1,85,0,0
123288,-333.333333333333,4,2,1,85,0,0
123553,-100,4,2,1,85,0,0
124259,-333.333333333333,4,2,1,85,0,0
124965,-250,4,2,1,85,0,0
126641,-125,4,2,1,85,0,0
127082,-100,4,2,1,85,0,0
127523,-142.857142857143,4,2,1,85,0,0
127788,-83.3333333333333,4,2,1,85,0,0
128229,-333.333333333333,4,2,1,85,0,0
128494,-100,4,2,1,85,0,0
128847,-66.6666666666667,4,2,1,85,0,0
129200,-100,4,2,1,85,0,0
129465,-125,4,2,1,85,0,0
130612,-83.3333333333333,4,2,1,85,0,0
131759,-125,4,2,1,85,0,0
132729,-76.9230769230769,4,2,1,85,0,0
132994,-71.4285714285714,4,2,1,85,0,0
133171,-476.190476190476,4,2,1,85,0,0
134141,-769.230769230769,4,2,1,85,0,0
135553,-66.6666666666667,4,2,1,85,0,0
135994,-200,4,2,1,85,0,0
136259,-62.5,4,2,1,85,0,0
136700,-333.333333333333,4,2,1,85,0,0
136965,-66.6666666666667,4,2,1,85,0,0
137406,-76.9230769230769,4,2,1,85,0,0
137671,-117.647058823529,4,2,1,85,0,0
138112,-333.333333333333,4,2,1,85,0,0
138376,-71.4285714285714,4,2,1,85,0,0
138818,-166.666666666667,4,2,1,85,0,0
139082,-66.6666666666667,4,2,1,85,0,0
139788,-58.8235294117647,4,2,1,85,0,0
140759,-100,4,2,1,85,0,0
141200,-83.3333333333333,4,2,1,85,0,0
141641,-100,4,2,1,85,0,0
141906,-66.6666666666667,4,2,1,85,0,0
142259,-250,4,2,1,85,0,0
142612,-66.6666666666667,4,2,1,85,0,0
143053,-250,4,2,1,85,0,0
144023,-83.3333333333333,4,2,1,85,0,0
144465,-166.666666666667,4,2,1,85,0,0
144729,-66.6666666666667,4,2,1,85,0,0
145435,-58.8235294117647,4,2,1,85,0,0
145876,-333.333333333333,4,2,1,85,0,0
146141,-66.6666666666667,4,2,1,85,0,0
146406,-100,4,2,1,85,0,0
146847,-66.6666666666667,4,2,1,85,0,0
147288,-200,4,2,1,85,0,0
147553,-66.6666666666667,4,2,1,85,0,0
147994,-200,4,2,1,85,0,0
148259,-66.6666666666667,4,2,1,85,0,0
148700,-125,4,2,1,85,0,0
148965,-90.9090909090909,4,2,1,85,0,0
150112,-333.333333333333,4,2,1,85,0,0
150376,-66.6666666666667,4,2,1,85,0,0
151082,-58.8235294117647,4,2,1,85,0,0
152494,-66.6666666666667,4,2,1,85,0,0
152935,-250,4,2,1,85,0,0
153200,-66.6666666666667,4,2,1,85,0,0
153553,-200,4,2,1,85,0,0
153906,-66.6666666666667,4,2,1,85,0,0
154347,-333.333333333333,4,2,1,85,0,0
154612,-142.857142857143,4,2,1,85,0,0
155406,-250,4,2,1,85,0,0
155759,-200,4,2,1,85,0,0
156023,-66.6666666666667,4,2,1,85,0,0
156729,-58.8235294117647,4,2,1,85,0,0
158847,-76.9230769230769,4,2,2,85,0,0
159200,-111.111111111111,4,2,2,85,0,0
159553,-200,4,2,2,85,0,0
160259,-76.9230769230769,4,2,2,85,0,0
160612,-166.666666666667,4,2,2,85,0,0
160965,-76.9230769230769,4,2,2,85,0,0
162906,-125,4,2,2,85,0,0
163082,-76.9230769230769,4,2,2,85,0,0
164847,-66.6666666666667,4,2,2,85,0,0
165200,-166.666666666667,4,2,2,85,0,0
165553,-66.6666666666667,4,2,2,85,0,0
166171,-68.9655172413793,4,2,2,85,0,0
166612,-76.9230769230769,4,2,2,85,0,0
168023,-66.6666666666667,4,2,2,85,0,0
168465,-90.9090909090909,4,2,2,85,0,0
168729,-66.6666666666667,4,2,2,85,0,0
168994,-100,4,2,2,85,0,0
169171,-66.6666666666667,4,2,2,85,0,0
169435,-76.9230769230769,4,2,2,85,0,0
170494,-166.666666666667,4,2,2,85,0,0
170847,-76.9230769230769,4,2,2,85,0,0
171288,-66.6666666666667,4,2,2,85,0,0
172259,-76.9230769230769,4,2,2,85,0,0
174200,-125,4,2,2,85,0,0
174376,-76.9230769230769,4,2,2,85,0,0
176141,-166.666666666667,4,2,2,85,0,0
176494,-76.923076923077,4,2,2,85,0,0
176847,-66.6666666666667,4,2,2,85,0,0
177906,-200,4,2,2,85,0,0
203318,-500,4,2,1,45,0,0
204729,-333.333333333333,4,2,1,45,0,0
207553,-100,4,2,0,45,0,0
207906,-125,4,2,0,45,0,0
208141,-153.846153846154,4,2,0,45,0,0
208337,-222.222222222222,4,2,0,45,0,0
208965,-500,4,2,1,45,0,0
210376,-333.333333333333,4,2,1,45,0,0
213200,-333.333333333333,4,2,0,45,0,0
214612,-500,4,2,1,45,0,0
216023,-333.333333333333,4,2,1,45,0,0
218847,-100,4,2,0,45,0,0
219200,-125,4,2,0,45,0,0
219435,-153.846153846154,4,2,0,45,0,0
219631,-222.222222222222,4,2,0,45,0,0
220259,-333.333333333333,4,2,1,45,0,0
220612,-333.333333333333,4,2,0,45,0,0
221674,-333.333333333333,4,2,1,45,0,0
223082,-500,4,2,1,45,0,0
225906,-333.333333333333,4,2,1,45,0,0
228023,-333.333333333333,4,2,1,45,0,0
248494,-83.3333333333333,4,2,1,85,0,0
249200,-100,4,2,1,85,0,0
250612,-90.9090909090909,4,2,1,85,0,0
251318,-66.6666666666667,4,2,1,85,0,0
251671,-250,4,2,1,85,0,0
252023,-100,4,2,1,85,0,0
255641,-90.9090909090909,4,2,1,85,0,0
255994,-125,4,2,1,85,0,0
256965,-181.818181818182,4,2,1,85,0,0
257318,-66.6666666666667,4,2,1,85,0,0
257671,-100,4,2,1,85,0,0
258588,-166.666666666667,4,2,1,85,0,0
258818,-333.333333333334,4,2,1,85,0,0
259082,-83.3333333333334,4,2,1,85,0,0
259788,-333.333333333333,4,2,1,85,0,0
260494,-100,4,2,1,85,0,0
262435,-66.6666666666667,4,2,1,85,0,0
262612,-100,4,2,1,85,0,0
263053,-142.857142857143,4,2,1,85,0,0
263318,-100,4,2,1,85,0,0
264376,-76.9230769230769,4,2,1,85,0,0
264729,-100,4,2,1,85,0,0
266935,-90.9090909090909,4,2,1,85,0,0
267288,-125,4,2,1,85,0,0
267553,-500,4,2,1,85,0,0
267906,-125,4,2,1,85,0,0
268965,-100,4,2,1,85,0,0
269935,-333.333333333333,4,2,1,85,0,0
270376,-100,4,2,1,85,0,0
271523,-250,4,2,1,85,0,0
271788,-71.4285714285714,4,2,1,85,0,0
274347,-142.857142857143,4,2,1,85,0,0
274612,-71.4285714285715,4,2,1,85,0,0
275053,-250,4,2,1,85,0,0
275318,-83.3333333333333,4,2,1,85,0,0
275671,-60.6060606060606,4,2,1,85,0,0
276023,-100,4,2,1,85,0,0
276729,-83.3333333333333,4,2,1,85,0,0
277435,-71.4285714285714,4,2,1,85,0,0
278582,-125,4,2,1,85,0,0
279553,-76.9230769230769,4,2,1,85,0,0
279994,-125,4,2,1,85,0,0
280259,-80,4,2,1,85,0,0
281141,-200,4,2,1,85,0,0
281406,-166.666666666667,4,2,1,85,0,0
281671,-83.3333333333333,4,2,1,85,0,0
282376,-166.666666666667,4,2,1,85,0,0
283082,-71.4285714285714,4,2,1,85,0,0
284759,-111.111111111111,4,2,1,85,0,0
285200,-76.9230769230769,4,2,1,85,0,0
285641,-90.9090909090909,4,2,1,85,0,0
285906,-71.4285714285714,4,2,1,85,0,0
286347,-333.333333333333,4,2,1,85,0,0
286612,-83.3333333333333,4,2,1,85,0,0
286965,-60.6060606060606,4,2,1,85,0,0
287318,-100,4,2,1,85,0,0
288729,-71.4285714285714,4,2,1,85,0,0
289876,-200,4,2,1,85,0,0
290847,-76.9230769230769,4,2,1,85,0,0
291112,-71.4285714285714,4,2,1,85,0,0
291288,-312.5,4,2,1,85,0,0
291553,-142.857142857143,4,2,1,85,0,0
292259,-500,4,2,1,85,0,0
292876,-666.666666666667,4,2,1,85,0,0

[Colours]
Combo1 : 198,185,170
Combo2 : 105,224,245
Combo3 : 129,91,238
Combo4 : 136,151,166
Combo5 : 187,166,177
Combo6 : 253,51,51
Combo7 : 255,162,68

[HitObjects]
153,236,24,69,0,1:2:0:0:
256,192,112,12,0,11141,0:2:0:0:
345,28,11318,38,0,B|370:80|370:80|455:60|455:60|492:113|492:113|461:169|461:169|377:158|377:158|363:185|363:185|267:198|267:198|304:120|304:120|269:50|269:50|157:40|157:40|148:44|148:44|40:35|40:35|112:174|112:174|142:117|142:117|219:123|219:123|156:248|156:248|15:237|15:237|47:314|47:314|201:326|201:326|229:278|229:278|408:255|408:255|417:237|417:237|475:246|475:246|487:366|487:366|427:360|427:360|421:356|421:356|316:345,1,2300.20000350983,0|0,1:2|0:2,0:2:0:0:
213,384,22435,21,0,0:2:0:0:
213,384,22523,1,0,0:2:0:0:
213,384,22612,2,0,L|185:281,1,105,0|0,1:2|0:2,0:2:0:0:
195,193,22965,2,0,L|134:208,1,62.9999980773926,0|0,0:2|0:2,0:2:0:0:
68,266,23318,70,0,B|9:250|9:250|24:186,1,125.999996154785,0|0,0:2|0:2,0:2:0:0:
42,104,23671,2,0,L|52:62,1,42,0|0,0:2|0:2,0:2:0:0:
3,8,24023,22,0,L|137:43,1,125.999996154785,2|0,0:2|0:2,0:2:0:0:
184,103,24376,2,0,B|266:81|266:81|245:-8,1,167.999994873047,0|0,0:2|0:2,0:2:0:0:
247,1,25171,70,0,L|260:50,1,41.9999987182618,0|0,0:2|0:2,0:2:0:0:
289,147,25435,2,0,B|353:161|353:161|368:103,1,125.999996154785,0|0,1:2|0:2,0:2:0:0:
379,19,25788,6,0,B|500:-12|500:-12|512:29,1,167.999994873047,0|0,0:2|0:2,0:2:0:0:
464,112,26318,5,0,0:2:0:0:
464,112,26406,1,0,0:2:0:0:
464,112,26494,1,0,0:2:0:0:
464,112,26582,1,0,0:2:0:0:
464,112,26671,2,0,L|450:163,1,41.9999987182618,0|0,0:2|0:2,0:2:0:0:
400,340,27288,70,0,L|413:291,1,41.9999987182618,0|0,0:2|0:2,0:2:0:0:
411,219,27553,6,0,L|460:232,2,41.9999987182618,0|0|0,0:2|0:2|0:2,0:2:0:0:
353,161,27818,5,0,0:2:0:0:
353,161,27906,2,0,B|234:186|234:186|258:293,1,231.000007049561,0|0,0:2|0:2,0:2:0:0:
274,384,28259,70,0,B|148:355|148:355|162:306,1,167.999994873047,0|0,1:2|0:2,0:2:0:0:
162,153,28788,21,0,0:2:0:0:
28,260,28965,2,0,B|243:217|243:217|268:156|268:156|436:122,1,440.999986541748,0|0,0:2|0:2,0:2:0:0:
485,204,29671,70,0,L|419:218,1,62.9999980773926,0|0,0:2|0:2,0:2:0:0:
413,306,30023,22,0,B|309:271|309:271|330:213,1,167.999994873047,0|0,1:2|0:2,0:2:0:0:
390,56,30729,69,0,0:2:0:0:
390,56,30818,1,0,0:2:0:0:
390,56,30906,1,0,0:2:0:0:
390,56,30994,1,0,0:2:0:0:
390,56,31082,2,0,L|257:85,1,125.999996154785,0|0,1:2|0:2,0:2:0:0:
225,155,31435,22,0,B|127:134|127:134|147:47,1,188.999994232178,0|0,0:2|0:2,0:2:0:0:
253,21,31788,69,0,0:2:0:0:
253,21,31876,1,0,0:2:0:0:
253,21,31965,1,0,0:2:0:0:
253,21,32053,1,0,0:2:0:0:
253,21,32141,2,0,L|267:87,1,62.9999980773926,0|0,0:2|0:2,0:2:0:0:
280,298,32494,22,0,L|266:232,1,62.9999980773926,0|0,0:2|0:2,0:2:0:0:
307,167,32847,70,0,L|245:153,1,62.9999980773926,0|0,0:2|0:2,0:2:0:0:
88,20,33906,22,0,L|116:123,1,105,0|0,1:2|0:2,0:2:0:0:
105,202,34259,2,0,L|166:187,1,62.9999980773926,0|0,0:2|0:2,0:2:0:0:
229,140,34612,70,0,B|288:156|288:156|273:220,1,125.999996154785,0|0,0:2|0:2,0:2:0:0:
255,302,34965,2,0,L|245:344,1,42,0|0,0:2|0:2,0:2:0:0:
143,341,35318,21,0,0:2:0:0:
143,341,35406,1,0,0:2:0:0:
143,341,35494,2,0,L|128:287,1,41.9999987182618,0|0,0:2|0:2,0:2:0:0:
43,291,35671,70,0,L|208:249,1,167.999994873047,0|0,1:2|0:2,0:2:0:0:
361,208,36200,21,0,1:2:0:0:
423,376,36376,2,0,L|438:322,1,41.9999987182618,0|0,0:2|0:2,0:2:0:0:
505,276,36729,70,0,L|424:252,1,83.9999974365235,0|0,1:2|0:2,0:2:0:0:
361,208,36994,2,0,B|243:237|243:237|275:363,1,251.999992309571,0|0,1:2|0:2,0:2:0:0:
351,325,37435,2,0,L|361:286,3,40.1333339457194,0|0|0|0,0:2|0:2|0:2|0:2,0:2:0:0:
200,358,37965,22,0,L|162:213,1,140,0|0,1:2|0:2,0:2:0:0:
116,34,38494,70,0,L|129:83,1,41.9999987182618,0|0,0:2|0:2,0:2:0:0:
116,157,38847,22,0,L|156:146,1,41.9999987182618,0|0,0:2|0:2,0:2:0:0:
202,89,39023,70,0,B|267:108|267:108|249:171,1,125.999996154785,0|0,0:2|0:2,0:2:0:0:
233,236,39288,2,0,L|198:363,1,125.999996154785
121,327,39553,22,0,B|122:330|96:246,2,83.9999974365235,0|0|0,1:2|0:2|0:2,0:2:0:0:
23,194,40082,69,0,1:2:0:0:
163,220,40259,2,0,B|403:143|403:143|470:339,1,440.999986541748,0|0,0:2|0:2,0:2:0:0:
380,375,40965,22,0,L|290:347,1,83.9999974365235,0|0,0:2|0:2,0:2:0:0:
121,327,41318,70,0,B|123:334|68:156,1,167.999994873047,0|0,1:2|0:2,0:2:0:0:
100,86,41847,22,0,B|196:115|196:115|162:219,1,209.999993591309,0|0,1:2|0:2,0:2:0:0:
121,327,42376,70,0,L|211:299,1,83.9999974365235,0|0,1:2|0:2,0:2:0:0:
242,232,42641,5,0,1:2:0:0:
242,232,42729,2,0,L|407:283,1,168,0|0,0:2|0:2,0:2:0:0:
481,285,43082,2,0,L|466:329,2,46.6666666666667,0|0|0,0:2|0:2|0:2,0:2:0:0:
439,220,43435,5,0,0:2:0:0:
439,220,43523,1,0,0:2:0:0:
439,220,43612,2,0,B|422:164|422:164|467:150,1,105,0|0,1:2|0:2,0:2:0:0:
487,66,43965,70,0,L|419:47,1,70,0|0,0:2|0:2,0:2:0:0:
360,102,44318,21,0,0:2:0:0:
360,102,44406,1,0,0:2:0:0:
360,102,44494,2,0,B|317:114|317:114|300:47,1,105,0|0,0:2|0:2,0:2:0:0:
223,11,45200,86,0,B|176:4|176:4|157:122,1,167.999994873047,0|0,1:2|0:2,0:2:0:0:
63,238,46259,2,0,L|240:208,1,167.999994873047,0|0,0:2|0:2,0:2:0:0:
360,102,47318,2,0,B|396:107|396:107|377:225,1,146.999995513916,0|0,0:2|0:2,0:2:0:0:
366,286,48023,86,0,L|189:316,1,167.999994873047,0|0,1:2|0:2,0:2:0:0:
112,282,49082,6,0,L|127:365,2,83.9999974365235,0|0|0,0:2|0:2|0:2,0:2:0:0:
100,212,49876,1,0,1:2:0:0:
28,111,50141,85,0,0:2:0:0:
28,111,50318,2,0,L|140:92,1,104.999996795654,0|0,1:2|0:2,0:2:0:0:
181,36,50847,6,0,B|263:51|263:51|250:135,1,167.999994873047,0|0,1:2|0:2,0:2:0:0:
190,239,51906,86,0,L|272:224,2,83.9999974365235,0|0|0,0:2|0:2|0:2,0:2:0:0:
346,315,52965,6,0,L|374:149,1,167.999994873047,0|0,0:2|1:2,0:2:0:0:
451,95,54376,86,0,B|436:13|436:13|352:26,1,167.999994873047,0|0,1:2|0:2,0:2:0:0:
245,44,55523,5,0,1:2:0:0:
134,58,56053,1,0,1:2:0:0:
32,72,56494,86,0,L|3:237,1,167.999994873047,0|0,1:2|1:2,0:2:0:0:
61,328,57553,6,0,B|143:313|143:313|130:229,1,167.999994873047,0|0,0:2|0:2,0:2:0:0:
94,152,58612,86,0,L|259:180,1,167.999994873047,0|0,0:2|1:2,0:2:0:0:
399,200,59671,2,0,L|499:217,1,83.9999974365235,0|0,0:2|0:2,0:2:0:0:
345,98,60376,5,0,0:2:0:0:
319,275,60729,1,0,0:2:0:0:
259,180,61082,86,0,L|176:165,2,83.9999974365235,0|0|0,0:2|0:2|0:2,0:2:0:0:
345,98,62141,6,0,B|330:16|330:16|246:29,1,167.999994873047,0|0,1:2|1:2,0:2:0:0:
193,97,63200,2,0,L|130:87,1,62.9999980773926,0|0,0:2|0:2,0:2:0:0:
70,36,63553,86,0,L|56:125,1,83.9999974365235,0|0,0:2|0:2,0:2:0:0:
0,209,64523,6,0,L|87:192,1,83.9999974365235,0|0,1:2|0:2,0:2:0:0:
183,173,64965,85,0,1:2:0:0:
256,192,65053,12,0,67700,0:2:0:0:
345,255,67788,22,0,B|330:337|330:337|246:324,1,167.999994873047,0|0,1:2|0:2,0:2:0:0:
140,374,68847,2,0,L|111:208,1,167.999994873047,0|0,0:2|0:2,0:2:0:0:
14,128,69906,2,0,B|29:46|29:46|113:59,1,167.999994873047,0|0,0:2|0:2,0:2:0:0:
178,129,73435,70,0,L|260:114,2,83.9999974365235,0|0|0,1:2|0:2|0:2,0:2:0:0:
30,152,75465,21,0,0:2:0:0:
146,305,79082,70,0,L|311:276,1,167.999994873047,0|0,1:2|0:2,0:2:0:0:
447,261,80141,2,0,B|460:177|460:177|378:162,1,167.999994873047,0|0,0:2|0:2,0:2:0:0:
255,138,81465,22,0,L|169:123,1,83.9999974365235,0|0,0:2|0:2,0:2:0:0:
112,163,81906,70,0,B|59:171|59:171|50:119,1,104.999996795654,0|0,1:2|0:2,0:2:0:0:
28,6,82612,22,0,L|193:34,1,167.999994873047,0|0,0:2|0:2,0:2:0:0:
309,51,84729,69,0,1:2:0:0:
427,75,85523,22,0,B|462:278|462:278|374:293,1,293.999991027832,0|0,0:2|0:2,0:2:0:0:
321,233,86847,2,0,B|237:220|237:220|222:302,1,167.999994873047,0|0,0:2|0:2,0:2:0:0:
27,239,90376,22,0,B|278:282|278:282|340:364|340:364|493:388,1,490,0|0,1:2|0:2,0:2:0:0:
490,274,91082,86,0,L|406:286,1,84,10|0,0:2|0:2,0:2:0:0:
400,205,91435,2,0,L|483:192,1,84,2|0,0:2|0:2,0:2:0:0:
335,112,91788,38,0,L|251:99,1,84,2|0,0:2|0:2,0:2:0:0:
239,180,92141,2,0,L|322:192,1,84,2|0,0:2|0:2,0:2:0:0:
433,126,92494,70,0,B|419:27|419:27|193:-5|193:-5|119:142|119:142|20:160,1,587.999982055665,10|0,0:2|0:2,0:2:0:0:
13,256,93200,6,0,L|322:199,1,315.000012016297,0|0,1:2|0:2,0:2:0:0:
335,112,93553,70,0,L|251:99,1,84,2|0,0:2|0:2,0:2:0:0:
200,0,93906,6,0,B|34:39|34:39|75:204,1,335.999989746094,10|2,0:2|0:2,0:2:0:0:
98,286,94376,22,0,L|108:331,1,46.6666666666667,0|0,0:2|0:2,0:2:0:0:
239,345,94612,70,0,B|253:236|253:236|146:221,1,210,0|0,1:2|0:2,0:2:0:0:
74,200,94965,6,0,B|83:135|83:135|339:170,1,315.000012016297,2|0,0:2|0:2,0:2:0:0:
395,107,95318,86,0,B|464:95|464:95|475:167,2,140,10|0|2,0:2|0:2|0:2,0:2:0:0:
178,147,95847,1,0,1:2:0:0:
360,330,96023,2,0,B|425:319|425:319|402:152,1,210,0|0,1:2|0:2,0:2:0:0:
111,0,96729,6,0,B|34:11|34:11|55:158|55:158|133:204|133:204|161:396,1,490,10|0,0:2|0:2,0:2:0:0:
57,311,97435,2,0,L|15:29,1,280,2|0,0:2|0:2,0:2:0:0:
140,105,97876,6,0,L|156:222,1,112,0|0,1:2|0:2,0:2:0:0:
112,318,98141,70,2,L|56:310,2,56,10|2|2,0:2|0:2|0:2,0:2:0:0:
224,384,98406,2,0,L|279:376,1,56,0|2,1:2|0:2,0:2:0:0:
344,278,98582,2,2,L|399:285,2,56,2|2|2,0:2|0:2|0:2,0:2:0:0:
264,200,98847,86,0,L|146:216,1,111.30000016983,0|0,1:2|0:2,0:2:0:0:
40,153,99200,22,0,L|351:107,1,315.000012016297,2|0,0:2|0:2,0:2:0:0:
443,138,99553,86,0,B|457:33|457:33|353:18,1,210.000008010865,10|0,0:2|0:2,0:2:0:0:
271,76,99906,2,0,B|256:180|256:180|360:195,1,210.000008010865,2|0,0:2|0:2,0:2:0:0:
447,227,100259,21,0,0:0:0:0:
447,227,100471,2,0,L|459:289,1,50.3999984619141,8|2,1:2|0:2,0:2:0:0:
382,384,100700,54,0,L|392:338,1,46.1999998590088,0|0,1:2|0:2,0:2:0:0:
375,268,100965,6,0,B|198:244|198:244|157:330|157:330|39:348|39:348|23:247,1,490,10|0,0:2|0:2,0:2:0:0:
11,164,101671,22,0,L|139:185,1,112,0|0,1:2|0:2,0:2:0:0:
250,33,102200,85,2,0:2:0:0:
250,33,102288,1,2,0:2:0:0:
250,33,102376,2,0,L|340:18,1,84,10|0,0:2|0:2,0:2:0:0:
460,100,102729,2,0,L|369:85,1,84,2|0,0:2|0:2,0:2:0:0:
292,118,103082,70,0,L|285:159,1,28,2|0,0:2|0:2,0:2:0:0:
222,108,103259,2,0,L|218:136,1,28,0|0,0:2|0:2,0:2:0:0:
168,48,103435,2,0,L|86:35,1,84,2|0,0:2|0:2,0:2:0:0:
0,24,103788,5,10,0:2:0:0:
63,171,104141,5,2,0:2:0:0:
63,171,104229,1,2,0:2:0:0:
63,170,104318,2,2,L|7:162,2,52.5000020027161,2|2|2,0:2|0:2|0:2,0:2:0:0:
149,236,104494,86,0,L|431:198,1,280,0|0,1:2|0:2,0:2:0:0:
350,302,104935,86,0,L|237:318,1,97.9999970092774,2|0,1:2|0:2,0:2:0:0:
189,369,105200,22,0,B|23:330|23:330|64:165,1,335.999989746094,10|2,0:2|0:2,0:2:0:0:
87,80,105641,6,0,L|100:24,1,56,0|0,0:2|0:2,0:2:0:0:
227,24,105906,70,0,B|241:133|241:133|134:148,1,210,0|0,1:2|0:2,0:2:0:0:
62,169,106259,6,0,B|71:234|71:234|327:199,1,315.000012016297,2|0,0:2|0:2,0:2:0:0:
382,260,106612,86,0,B|451:272|451:272|462:200,2,140,10|0|2,0:2|0:2|0:2,0:2:0:0:
165,220,107141,1,0,1:2:0:0:
346,31,107317,2,0,B|411:42|411:42|388:209,1,210,0|0,1:2|0:2,0:2:0:0:
437,346,107671,86,0,L|364:334,1,73.4999977569581,2|0,0:2|0:2,0:2:0:0:
294,285,108023,6,0,B|189:296|189:296|172:315|172:315|29:330|29:330|16:203|16:203|39:169|39:169|90:164,1,490,10|0,0:2|0:2,0:2:0:0:
165,220,108729,6,0,B|281:208|281:208|263:40,1,280,2|0,0:2|0:2,0:2:0:0:
174,28,109171,6,0,L|185:145,1,112,0|0,1:2|0:2,0:2:0:0:
165,220,109435,54,2,L|223:214,2,56,10|2|2,0:2|0:2|0:2,0:2:0:0:
116,314,109788,22,0,L|289:296,1,168,2|0,0:2|0:2,0:2:0:0:
341,368,110141,70,0,B|394:372|394:372|401:315,1,112,0|0,1:2|0:2,0:2:0:0:
412,223,110406,2,0,L|418:165,1,56,0|2,0:2|0:2,0:2:0:0:
486,89,110582,38,0,L|374:77,1,112,0|2,1:2|0:2,0:2:0:0:
319,0,110847,70,0,B|218:30|218:30|248:130,1,210.000008010865,10|0,0:2|0:2,0:2:0:0:
330,171,111200,2,0,B|430:140|430:140|400:40,1,210.000008010865,2|0,0:2|0:2,0:2:0:0:
311,19,111553,86,0,L|233:43,1,70,0|0,1:2|0:2,0:2:0:0:
151,73,111818,38,0,L|104:87,1,41.9999987182618,2|0,0:2|0:2,0:2:0:0:
14,49,112082,2,2,L|-3:43,2,10.4999996795654,2|2|2,0:2|0:2|0:2,0:2:0:0:
37,142,112259,70,0,B|4:248|4:248|171:295,1,280,10|0,0:2|0:2,0:2:0:0:
265,361,113406,86,0,L|251:314,1,41.9999987182618,0|0,1:2|0:2,0:2:0:0:
230,238,113671,22,0,B|333:207|333:207|369:307,1,210,8|0,0:2|0:2,0:2:0:0:
368,384,114023,54,0,L|437:364,1,62.9999980773926,0|0,0:2|0:2,0:2:0:0:
428,284,114376,70,0,L|289:327,1,125.999996154785,0|0,0:2|0:2,0:2:0:0:
246,257,114729,6,0,L|432:198,1,188.999994232178,0|0,0:2|0:2,0:2:0:0:
512,67,115082,38,0,B|408:49|408:49|368:139|368:139|142:208|142:208|50:131|50:131|107:28|107:28|189:44,1,755.999976928712,8|0,0:2|0:2,0:2:0:0:
244,98,116229,86,0,L|322:74,1,70,0|0,1:2|0:2,0:2:0:0:
373,27,116494,22,0,B|535:55|535:55|504:223,1,335.999989746094,8|2,0:2|0:2,0:2:0:0:
483,306,116935,6,0,L|470:360,1,56,0|0,0:2|0:2,0:2:0:0:
345,369,117200,70,0,B|331:260|331:260|438:245,1,210,0|0,1:2|0:2,0:2:0:0:
504,223,117553,6,0,B|495:158|495:158|239:193,1,315.000012016297,2|0,0:2|0:2,0:2:0:0:
173,149,117906,86,0,B|104:137|104:137|93:206,1,140,10|2,0:2|0:2,0:2:0:0:
78,315,118259,1,2,0:2:0:0:
9,187,118391,1,0,1:2:0:0:
168,271,118612,22,0,B|376:242,1,210,0|0,1:2|0:2,0:2:0:0:
504,223,118965,54,0,B|518:114|518:114|411:99,1,210,0|0,0:2|0:2,0:2:0:0:
341,173,119318,6,0,B|179:194|179:194|172:144,1,210,8|0,0:2|0:2,0:2:0:0:
158,60,119671,2,0,B|366:31,1,210,0|0,0:2|0:2,0:2:0:0:
418,100,120023,2,0,B|438:254|438:254|305:274,1,280,0|0,0:2|0:2,0:2:0:0:
221,324,120465,22,0,L|232:207,1,112,0|0,1:2|0:2,0:2:0:0:
291,119,120729,70,2,L|346:110,2,56,10|2|2,0:2|0:2|0:2,0:2:0:0:
158,60,120994,2,0,L|150:115,1,56,0|2,1:2|0:2,0:2:0:0:
88,228,121170,2,2,L|33:236,2,56,2|2|2,0:2|0:2|0:2,0:2:0:0:
221,325,121435,6,0,B|508:284|508:284|494:182,1,391.99998803711,0|0,1:2|0:2,0:2:0:0:
512,93,121876,6,0,L|343:68,1,167.999994873047,0|0,1:2|0:2,0:2:0:0:
303,0,122141,70,0,B|407:-15|407:-15|422:88,1,210.000008010865,10|0,0:2|0:2,0:2:0:0:
378,158,122494,2,0,B|273:172|273:172|258:68,1,210.000008010865,2|0,0:2|0:2,0:2:0:0:
194,18,122847,5,0,1:2:0:0:
140,75,123059,2,0,L|126:165,1,78.399997607422,8|2,0:2|0:2,0:2:0:0:
193,220,123288,2,2,L|194:230,5,10.4999996795654,0|2|2|2|2|2,0:2|0:2|0:2|0:2|0:2|0:2,0:2:0:0:
95,241,123553,86,0,B|9:254|9:254|21:349|21:349|152:368|152:368|181:317|181:317|310:298,1,490,10|0,0:2|0:2,0:2:0:0:
381,356,124259,6,0,L|399:274,1,83.9999974365235,0|0,1:2|0:2,0:2:0:0:
361,198,124965,6,0,L|445:186,1,84,10|0,0:2|0:2,0:2:0:0:
438,104,125318,2,0,L|355:117,1,84,2|0,0:2|0:2,0:2:0:0:
277,144,125671,54,0,L|194:132,1,84,2|0,0:2|0:2,0:2:0:0:
206,51,126024,2,0,L|289:63,1,84,2|0,0:2|0:2,0:2:0:0:
370,25,126376,5,10,0:2:0:0:
443,67,126641,86,0,B|450:115|450:115|267:145,1,224,0|0,1:2|0:2,0:2:0:0:
236,236,127082,22,0,L|520:193,1,280,0|0,1:2|0:2,0:2:0:0:
439,297,127523,6,0,L|326:313,1,97.9999970092774,2|0,1:2|0:2,0:2:0:0:
274,379,127788,70,0,B|108:340|108:340|149:175,1,335.999989746094,10|2,0:2|0:2,0:2:0:0:
121,78,128229,70,0,L|169:71,1,41.9999987182618,0|0,0:2|0:2,0:2:0:0:
312,34,128494,22,0,B|326:143|326:143|219:158,1,210,0|0,1:2|0:2,0:2:0:0:
147,179,128847,6,0,B|156:244|156:244|412:209,1,315.000012016297,2|0,0:2|0:2,0:2:0:0:
456,140,129200,86,0,B|525:151|525:151|513:220,1,140,10|2,0:2|0:2,0:2:0:0:
451,300,129465,6,0,L|460:355,2,56,0|0|0,0:2|0:2|0:2,0:2:0:0:
403,210,129729,86,2,L|348:201,1,56,0|2,0:2|0:2,0:2:0:0:
282,140,129906,22,0,B|216:149|216:149|238:308,1,224,0|0,1:2|0:2,0:2:0:0:
361,298,130612,70,0,B|269:283|269:283|241:329|241:329|124:351,1,251.999992309571,10|0,0:2|0:2,0:2:0:0:
28,365,130965,2,0,B|15:279|15:279|190:246,1,251.999992309571,2|0,0:2|0:2,0:2:0:0:
250,188,131318,2,0,B|498:229|498:229|512:132,1,335.999989746094,2|0,0:2|0:2,0:2:0:0:
467,49,131759,6,0,L|347:65,1,112,0|0,1:2|0:2,0:2:0:0:
260,78,132023,5,10,0:2:0:0:
133,9,132288,70,0,L|188:15,1,56,0|0,1:2|0:2,0:2:0:0:
349,93,132465,2,0,L|404:86,2,56,0|0|0,0:2|0:2|0:2,0:2:0:0:
152,170,132729,54,0,B|108:191|108:191|130:233|130:233|173:212|173:212|152:170,1,181.999991668702,0|0,1:2|0:2,0:2:0:0:
55,264,132994,86,0,B|30:266|30:266|31:290|31:290|56:287|56:287|55:264,1,97.9999970092774,0|0,2:2|2:2,2:2:0:0:
20,364,133171,22,0,B|8:369|8:369|14:380|14:380|25:374|25:374|20:364,1,44.0999986541748,0|10,0:2|0:2,0:2:0:0:
121,221,134141,6,0,L|182:206,1,63.6999996112061,0|0,0:2|0:2,0:2:0:0:
141,146,134847,2,0,L|79:160,1,63.6999996112061,0|0,0:2|0:2,0:2:0:0:
0,144,135553,6,0,B|21:45|21:45|339:111,1,420.000016021729,0|0,1:2|0:2,0:2:0:0:
416,195,135994,2,0,L|492:178,1,70,2|0,0:2|0:2,0:2:0:0:
454,16,136259,6,0,B|352:39|352:39|300:257|300:257|163:285,1,448,10|0,0:2|0:2,0:2:0:0:
92,302,136700,2,0,L|42:312,1,41.9999987182618,0|0,0:2|0:2,0:2:0:0:
121,221,136965,86,0,B|278:188|278:188|366:289|366:289|511:260,1,420.000016021729,0|0,1:2|0:2,0:2:0:0:
436,137,137406,2,0,B|390:125|390:125|379:171|379:171|424:182|424:182|436:137|436:137,1,181.999991668702,0|0,1:2|0:2,0:2:0:0:
245,292,137671,6,0,B|65:331|65:331|50:272,1,238.00000453949,10|0,0:2|0:2,0:2:0:0:
31,194,138112,54,0,B|34:205|34:205|22:208|22:208|19:197|19:197|31:194,1,41.9999987182618,0|0,0:2|0:2,0:2:0:0:
81,97,138376,70,0,B|77:120|77:120|52:117|52:117|55:93|55:93|81:97,1,97.9999970092774,0|0,2:2|2:2,2:2:0:0:
208,39,138553,6,0,B|218:85|218:85|169:96|169:96|158:48|158:48|207:38,1,195.999994018555,0|0,0:2|0:2,0:2:0:0:
353,153,138818,70,0,L|437:136,1,83.9999974365235,0|0,1:2|0:2,0:2:0:0:
367,49,139082,2,0,B|300:63|300:63|278:144|278:144|279:153|279:153|257:233|257:233|180:252,1,315.000012016297,10|0,0:2|0:2,0:2:0:0:
133,190,139435,85,2,0:2:0:0:
133,190,139523,2,0,B|29:165|29:165|2:270,1,210.000008010865,2|0,0:2|0:2,0:2:0:0:
99,323,139788,86,0,B|110:386|110:386|354:328|354:328|370:259|370:259|465:237,1,476.00000907898,0|2,1:2|0:2,0:2:0:0:
487,356,140318,5,2,0:2:0:0:
487,356,140406,1,2,0:2:0:0:
487,356,140494,2,0,B|434:342|434:342|473:162,1,238.00000453949,10|0,0:2|0:2,0:2:0:0:
412,23,140759,2,0,L|428:91,1,70,0|0,1:2|0:2,0:2:0:0:
512,79,140935,2,0,L|370:44,1,140,0|0,1:2|0:2,1:2:0:0:
288,22,141200,86,0,B|302:84|302:84|19:155,1,335.999989746094,0|0,1:2|0:2,0:2:0:0:
144,14,141641,2,0,L|212:30,2,70,0|0|0,0:2|0:2|0:2,0:2:0:0:
0,0,141906,6,0,B|78:308,1,315.000012016297,10|0,0:2|0:2,0:2:0:0:
188,384,142259,2,0,L|213:297,1,84,0|0,0:2|0:2,0:2:0:0:
146,266,142612,86,0,B|129:202|129:202|290:162|290:162|296:163|296:163|472:119,1,420.000016021729,0|0,1:2|0:2,0:2:0:0:
512,183,143053,2,0,B|500:224|500:224|456:212,1,84,0|10,1:2|2:2,2:2:0:0:
353,174,143406,53,2,0:2:0:0:
338,138,143494,1,2,0:2:0:0:
295,108,143582,1,2,0:2:0:0:
232,98,143671,1,2,0:2:0:0:
165,126,143759,1,2,0:2:0:0:
130,194,143847,1,2,0:2:0:0:
137,277,143935,2,0,L|155:280,1,14,2|0,0:2|0:2,0:2:0:0:
204,343,144023,38,0,B|461:278|461:278|442:197,1,335.999989746094,2|0,0:2|0:2,0:2:0:0:
479,109,144465,2,0,L|388:87,1,83.9999974365235,0|0,1:2|0:2,0:2:0:0:
334,19,144729,6,0,B|183:55|183:55|223:211,1,315.000012016297,10|2,0:2|0:2,0:2:0:0:
137,277,145082,1,2,0:2:0:0:
137,277,145171,2,0,B|34:251|34:251|59:146,1,210.000008010865,0|0,0:2|0:2,0:2:0:0:
23,64,145435,86,0,B|154:99|154:99|176:69|176:69|417:9|417:9|434:62,1,476.00000907898,0|0,1:2|0:2,0:2:0:0:
475,176,145876,2,0,L|487:222,1,41.9999987182618,0|0,1:2|0:2,0:2:0:0:
452,280,146141,6,0,B|349:254|349:254|374:149,1,210.000008010865,10|0,0:2|0:2,0:2:0:0:
429,38,146406,86,0,L|361:54,1,70,0|0,0:2|0:2,0:2:0:0:
289,132,146582,2,0,L|153:98,1,140,0|0,0:2|0:2,0:2:0:0:
89,23,146847,6,0,B|-10:44|-10:44|56:362,1,420.000016021729,0|0,1:2|0:2,0:2:0:0:
171,384,147288,2,0,L|186:315,1,70,2|2,0:2|0:2,0:2:0:0:
121,263,147553,86,0,B|107:201|107:201|262:237|262:237|303:284|303:284|438:254,1,420.000016021729,10|0,0:2|0:2,0:2:0:0:
512,358,147994,2,0,L|444:342,1,70,0|0,0:2|0:2,0:2:0:0:
346,193,148259,6,0,B|469:167|469:167|182:94,1,420.000016021729,0|0,1:2|0:2,0:2:0:0:
141,21,148700,2,0,B|87:31|87:31|98:86,1,112,0|0,1:2|0:2,0:2:0:0:
51,178,148965,86,0,B|220:140|220:140|253:32|253:32|463:86|463:86|483:200|483:200|330:233|330:233|313:154,1,847.000025848389,10|0,0:2|0:2,0:2:0:0:
382,103,150023,85,2,0:2:0:0:
382,103,150112,2,0,L|392:147,1,41.9999987182618,2|0,1:2|0:2,0:2:0:0:
432,291,150376,6,0,L|107:365,1,315.000012016297,10|2,0:2|0:2,0:2:0:0:
20,349,150729,5,2,0:2:0:0:
20,349,150818,2,0,B|46:246|46:246|151:271,1,210.000008010865,2|0,0:2|0:2,0:2:0:0:
214,369,151082,86,0,B|319:342|319:342|353:219|353:219|351:205|351:205|385:81|385:81|489:59,1,476.00000907898,0|0,1:2|0:2,0:2:0:0:
512,184,151612,5,2,0:2:0:0:
512,184,151700,1,2,0:2:0:0:
512,184,151788,2,0,B|498:131|498:131|279:173|279:173|268:213|268:213|-18:150,1,595.000011348725,10|0,0:2|0:2,0:2:0:0:
101,95,152318,85,2,0:2:0:0:
101,95,152406,1,2,0:2:0:0:
101,95,152494,2,0,L|516:187,1,420.000016021729,0|0,1:2|0:2,0:2:0:0:
459,277,152935,2,0,L|396:293,1,56,0|0,0:2|0:2,0:2:0:0:
350,384,153200,6,0,B|196:345|196:345|233:189,1,315.000012016297,10|0,0:2|0:2,0:2:0:0:
284,76,153553,2,0,L|181:100,1,105,0|0,0:2|0:2,0:2:0:0:
57,19,153906,86,0,B|107:223|107:223|326:171,1,420.000016021729,0|0,1:2|0:2,0:2:0:0:
401,180,154347,2,0,L|388:133,1,41.9999987182618,0|0,0:2|0:2,0:2:0:0:
504,219,154612,22,2,L|448:16,2,195.999994018555,10|2|2,0:2|0:2|0:2,0:2:0:0:
420,292,155406,54,0,L|337:266,1,84,0|0,0:2|0:2,0:2:0:0:
264,258,155759,2,2,L|274:225,2,35,2|2|2,1:2|0:2|0:2,0:2:0:0:
293,325,156023,6,0,B|214:346|214:346|147:97,1,315.000012016297,10|2,0:2|0:2,0:2:0:0:
178,17,156376,5,2,0:2:0:0:
178,17,156465,2,0,B|278:42|278:42|254:144,1,210.000008010865,2|0,0:2|0:2,0:2:0:0:
103,221,156729,86,0,B|121:294|121:294|265:258|265:258|274:225|274:225|492:171,1,476.00000907898,0|0,1:2|0:2,0:2:0:0:
485,172,158847,6,0,L|222:97,1,272.999987503052,10|0,1:2|0:2,0:2:0:0:
130,60,159200,2,0,B|139:104|139:104|92:115|92:115|81:68|81:68|129:59,1,188.999994232178,0|0,0:2|0:2,0:2:0:0:
253,0,159553,6,0,L|221:104,1,105,0|0,1:2|0:2,0:2:0:0:
198,175,159906,5,2,0:2:0:0:
205,208,159994,1,2,0:2:0:0:
183,196,160082,1,2,0:2:0:0:
216,186,160170,1,2,0:2:0:0:
203,192,160259,54,0,B|333:153|333:153|372:287,1,272.999987503052,10|0,1:2|0:2,0:2:0:0:
315,373,160612,86,0,L|193:338,1,125.999996154785,0|0,0:2|0:2,0:2:0:0:
74,315,160965,6,0,B|12:97|12:97|72:81,1,272.999987503052,0|0,1:2|0:2,0:2:0:0:
158,41,161318,53,2,0:2:0:0:
143,72,161406,1,2,0:2:0:0:
134,49,161494,1,2,0:2:0:0:
166,62,161582,1,2,0:2:0:0:
223,114,161671,38,0,B|364:153|364:153|401:26,1,272.999987503052,10|0,1:2|0:2,0:2:0:0:
307,9,162023,2,0,L|264:21,6,45.4999979171754,0|0|0|0|0|0|0,0:2|0:2|0:2|0:2|0:2|0:2|0:2,0:2:0:0:
471,117,162376,6,0,L|419:305,1,181.999991668702,0|0,1:2|0:2,0:2:0:0:
302,329,162641,86,0,L|353:140,1,181.999991668702,0|0,1:2|0:2,0:2:0:0:
222,113,162906,2,0,L|276:98,1,56,0|0,0:2|0:2,0:2:0:0:
385,67,163082,6,0,B|493:35|493:35|418:310|418:310|182:242,1,636.999970840455,10|0,1:2|0:2,0:2:0:0:
112,143,163788,86,0,B|-19:181|-19:181|19:311,1,272.999987503052,0|0,1:2|0:2,0:2:0:0:
140,381,164141,37,2,0:2:0:0:
150,358,164229,1,2,0:2:0:0:
127,348,164318,1,2,0:2:0:0:
118,369,164405,1,2,0:2:0:0:
133,365,164494,54,0,B|148:318|148:318|377:384,1,272.999987503052,10|0,1:2|0:2,0:2:0:0:
512,288,164847,6,0,B|443:47|443:47|382:66,1,315.000012016297,0|0,0:2|0:2,0:2:0:0:
233,177,165200,2,0,L|107:141,1,125.999996154785,0|0,1:2|0:2,0:2:0:0:
97,28,165553,85,0,0:2:0:0:
97,28,165641,2,0,L|312:83,1,210.000008010865,0|0,1:2|0:2,0:2:0:0:
358,256,165906,2,0,B|262:283|262:283|231:173,1,210.000008010865,10|0,1:2|0:2,0:2:0:0:
300,80,166171,6,0,B|376:60|376:60|445:302|445:302|363:326,1,406.000012390137,0|0,1:2|0:2,0:2:0:0:
232,176,166612,86,0,B|18:114|18:114|2:175,1,272.999987503052,0|0,1:2|0:2,0:2:0:0:
50,320,166965,53,2,0:2:0:0:
60,287,167053,1,2,0:2:0:0:
38,296,167141,1,2,0:2:0:0:
70,310,167229,1,2,0:2:0:0:
149,352,167318,38,0,B|270:316|270:316|231:175,1,272.999987503052,10|0,1:2|0:2,0:2:0:0:
130,239,167671,2,0,L|180:254,6,45.4999979171754,0|0|0|0|0|0|0,0:2|0:2|0:2|0:2|0:2|0:2|0:2,0:2:0:0:
0,196,168023,6,0,B|159:153|159:153|181:111|181:111|399:48,1,420.000016021729,0|0,1:2|0:2,0:2:0:0:
483,137,168465,86,0,L|436:302,1,154.000004699707,0|0,1:2|0:2,0:2:0:0:
289,377,168729,6,0,L|230:170,1,210.000008010865,10|0,1:2|0:2,0:2:0:0:
382,348,168994,2,0,L|449:367,1,70,2|0,0:2|0:2,0:2:0:0:
340,224,169171,2,0,B|327:183|327:183|146:234,1,210.000008010865,2|0,0:2|0:2,0:2:0:0:
160,338,169435,86,0,B|29:300|29:300|67:168,1,272.999987503052,0|0,1:2|0:2,0:2:0:0:
50,36,169788,37,2,0:2:0:0:
56,58,169876,1,2,0:2:0:0:
32,66,169964,1,2,0:2:0:0:
25,42,170052,1,2,0:2:0:0:
44,51,170141,54,0,B|244:-5|244:-5|267:58,1,272.999987503052,10|0,0:2|0:2,0:2:0:0:
306,178,170494,2,0,L|427:212,1,125.999996154785,0|0,0:2|0:2,0:2:0:0:
510,142,170847,6,0,B|513:126|513:126|258:54,1,272.999987503052,0|0,1:2|0:2,0:2:0:0:
188,158,171200,85,0,0:2:0:0:
188,158,171288,2,0,B|234:302|234:302|302:282,1,210.000008010865,0|0,1:2|0:2,0:2:0:0:
507,237,171553,2,0,L|296:175,1,210.000008010865,10|0,1:2|0:2,0:2:0:0:
137,270,171818,6,0,B|67:290|67:290|131:57|131:57|234:85,1,420.000016021729,0|0,1:2|0:2,0:2:0:0:
367,23,172259,86,0,L|290:284,1,272.999987503052,0|0,1:2|0:2,0:2:0:0:
201,360,172612,53,2,0:2:0:0:
211,327,172700,1,2,0:2:0:0:
189,336,172788,1,2,0:2:0:0:
221,350,172876,1,2,0:2:0:0:
317,383,172965,38,0,B|438:347|438:347|399:206,1,272.999987503052,10|0,1:2|0:2,0:2:0:0:
303,240,173318,2,0,L|288:290,6,45.4999979171754,0|0|0|0|0|0|0,0:2|0:2|0:2|0:2|0:2|0:2|0:2,0:2:0:0:
228,157,173671,6,0,L|40:105,1,181.999991668702,0|0,1:2|0:2,0:2:0:0:
0,0,173936,2,0,L|189:51,1,181.999991668702,0|0,1:2|0:2,0:2:0:0:
296,75,174201,2,0,L|350:60,1,56,0|0,0:2|0:2,0:2:0:0:
475,0,174376,70,0,L|398:261,2,272.999987503052,10|0|0,1:2|0:2|0:2,0:2:0:0:
347,145,175082,22,0,B|335:184|335:184|97:121,1,272.999987503052,0|0,1:2|0:2,0:2:0:0:
24,44,175435,21,2,0:2:0:0:
43,56,175523,1,2,0:2:0:0:
30,78,175612,1,2,0:2:0:0:
9,64,175699,1,2,0:2:0:0:
30,62,175788,54,0,B|168:23|168:23|205:150,1,272.999987503052,8|0,1:2|0:2,0:2:0:0:
264,256,176141,2,0,L|142:218,1,125.999996154785,0|0,0:2|0:2,0:2:0:0:
0,235,176494,6,0,B|36:359|36:359|174:320,1,272.999987503052,0|0,1:2|0:2,0:2:0:0:
264,256,176847,85,0,0:2:0:0:
264,256,176935,2,0,L|476:318,1,210.000008010865,0|0,1:2|0:2,0:2:0:0:
406,146,177200,2,0,B|308:175|308:175|339:279,1,210.000008010865,10|0,1:2|0:2,0:2:0:0:
418,384,177465,6,0,B|516:91|516:91|406:53,1,420.000016021729,0|0,1:2|0:2,0:2:0:0:
330,84,177906,54,0,B|8:170|8:170|70:45|70:45|144:52|144:52|192:198|192:198|351:249|351:249|321:345|321:345|208:306,1,1085,0|0,1:2|0:2,0:2:0:0:
124,272,180729,5,0,1:2:0:0:
256,192,192023,12,0,203229,0:2:0:0:
16,48,203318,86,0,L|225:72,1,210,0|0,1:2|0:2,0:2:0:0:
298,83,204729,2,0,L|307:84,8,6.99999978637696,0|0|0|0|0|0|0|0|0,0:2|0:2|0:2|0:2|0:2|0:2|0:2|0:2|0:2,0:2:0:0:
469,248,207553,86,0,L|476:204,6,40,0|0|0|0|0|0|0,0:2|0:2|0:2|0:2|0:2|0:2|0:2,0:2:0:0:
401,299,207906,2,0,L|407:343,2,44.8,0|0|0,0:2|0:2|0:2,0:2:0:0:
344,241,208141,2,0,L|350:195,1,40.4444425930448,0|0,0:2|0:2,0:2:0:0:
287,299,208337,2,0,L|294:345,2,41.9999987182618,0|0|0,0:2|0:2|0:2,0:2:0:0:
224,250,208763,85,0,0:2:0:0:
127,384,208965,22,0,L|151:175,1,210,0|0,1:2|0:2,0:2:0:0:
161,93,210376,2,0,L|162:84,8,6.99999978637696,0|0|0|0|0|0|0|0|0,0:2|0:2|0:2|0:2|0:2|0:2|0:2|0:2|0:2,0:2:0:0:
74,134,213200,69,0,0:2:0:0:
150,100,213376,1,0,0:2:0:0:
235,153,213553,1,0,0:2:0:0:
359,89,213818,1,0,0:2:0:0:
477,204,214171,1,0,0:2:0:0:
467,56,214612,22,0,L|443:265,1,210,0|0,1:2|0:2,0:2:0:0:
430,338,216023,2,0,L|429:347,8,6.99999978637696,0|0|0|0|0|0|0|0|0,0:2|0:2|0:2|0:2|0:2|0:2|0:2|0:2|0:2,0:2:0:0:
43,136,218847,86,0,L|36:180,6,40,0|0|0|0|0|0|0,0:2|0:2|0:2|0:2|0:2|0:2|0:2,0:2:0:0:
111,85,219200,2,0,L|105:41,2,44.8,0|0|0,0:2|0:2|0:2,0:2:0:0:
168,143,219435,2,0,L|161:188,1,40.4444425930448,0|0,0:2|0:2,0:2:0:0:
225,85,219631,2,0,L|217:38,2,41.9999987182618,0|0|0,0:2|0:2|0:2,0:2:0:0:
288,134,220057,85,0,0:2:0:0:
341,65,220259,22,0,L|412:56,1,62.9999980773926,0|0,1:2|0:2,0:2:0:0:
475,104,220612,69,0,0:2:0:0:
433,163,220813,1,0,0:2:0:0:
357,225,221015,1,0,0:2:0:0:
255,264,221217,2,0,L|212:258,1,35.9999989013672,0|0,0:2|0:2,0:2:0:0:
113,231,221553,1,0,0:2:0:0:
47,314,221671,2,0,L|56:313,8,6.99999978637696,0|0|0|0|0|0|0|0|0,0:2|0:2|0:2|0:2|0:2|0:2|0:2|0:2|0:2,0:2:0:0:
415,350,223082,22,0,L|439:141,1,210,0|0,1:2|0:2,0:2:0:0:
326,92,224494,2,0,L|337:190,1,98,0|0,1:2|0:2,0:2:0:0:
222,264,225200,2,0,L|233:166,1,98,0|0,1:2|0:2,0:2:0:0:
109,100,225906,70,0,B|127:232,1,125.999996154785,0|0,1:2|0:2,0:2:0:0:
161,328,226612,21,0,0:2:0:0:
265,338,226876,1,0,0:2:0:0:
369,351,227141,1,0,0:2:0:0:
473,365,227406,1,0,0:2:0:0:
473,365,228023,2,0,L|448:197,1,167.999994873047,0|0,0:2|0:2,0:2:0:0:
478,93,229435,69,0,0:2:0:0:
374,107,229700,1,0,0:2:0:0:
273,120,229965,1,0,0:2:0:0:
173,133,230229,2,0,L|148:299,1,167.999994873047,0|0,0:2|0:2,0:2:0:0:
55,353,231553,21,0,1:2:0:0:
0,230,232259,69,0,0:2:0:0:
98,248,232523,1,0,0:2:0:0:
196,267,232788,1,0,0:2:0:0:
295,286,233053,2,0,L|312:154,1,125.999996154785,0|0,0:2|0:2,0:2:0:0:
416,132,235082,21,0,0:2:0:0:
341,64,235347,1,0,0:2:0:0:
240,73,235612,1,0,0:2:0:0:
180,154,235876,2,0,L|106:163,1,73.4999977569581,0|0,0:2|0:2,0:2:0:0:
5,103,237200,69,0,1:2:0:0:
117,58,237906,21,0,0:2:0:0:
107,162,238170,1,0,0:2:0:0:
94,266,238435,1,0,0:2:0:0:
80,370,238700,2,0,L|248:345,1,167.999994873047,0|0,0:2|0:2,0:2:0:0:
335,384,239582,70,0,L|349:293,1,83.9999974365235,0|0,0:2|0:2,0:2:0:0:
361,210,240023,1,0,1:2:0:0:
479,123,240729,21,0,0:2:0:0:
375,113,240993,1,0,0:2:0:0:
271,100,241258,1,0,0:2:0:0:
167,86,241523,2,0,L|192:254,1,167.999994873047,0|0,0:2|0:2,0:2:0:0:
133,334,242847,69,0,1:2:0:0:
87,242,243553,21,0,0:2:0:0:
191,252,243817,1,0,0:2:0:0:
295,265,244082,1,0,0:2:0:0:
399,279,244347,2,0,L|374:111,1,167.999994873047,0|0,0:2|0:2,0:2:0:0:
406,31,245229,70,0,L|315:45,1,83.9999974365235,0|0,0:2|0:2,0:2:0:0:
233,53,245671,21,0,0:2:0:0:
425,359,248494,38,0,B|488:334|488:334|359:299|359:299|352:293|352:293|233:261|233:261|217:298|217:298|56:345|56:345|42:300,1,587.999982055665,0|0,1:2|0:2,0:2:0:0:
73,191,249200,54,0,B|92:260|92:260|158:241,1,140,10|0,0:2|0:2,0:2:0:0:
170,21,249465,86,0,B|235:3|235:3|255:73,1,140,2|0,0:2|0:2,0:2:0:0:
53,125,249729,6,0,B|34:59|34:59|104:40,1,140,2|0,0:2|0:2,0:2:0:0:
163,138,249994,86,0,B|324:178|324:178|330:171|330:171|327:186|327:186|333:181|333:181|500:224|500:224|517:162,1,420,2|0,0:2|0:2,0:2:0:0:
444,25,250612,54,0,B|356:6|356:6|408:224|408:224|421:230|421:230|450:367|450:367|381:383,1,539.000016448975,10|0,0:2|0:2,0:2:0:0:
268,322,251318,6,0,B|141:288|141:288|136:283|136:283|10:249|10:249|-1:294,1,315.000012016297,0|0,1:2|0:2,0:2:0:0:
70,384,251671,2,0,L|154:362,1,84,0|0,0:2|0:2,0:2:0:0:
261,170,252023,38,0,B|242:239|242:239|176:220,1,140,10|0,0:2|0:2,0:2:0:0:
164,0,252288,86,0,B|99:-18|99:-18|79:52,1,140,2|0,0:2|0:2,0:2:0:0:
280,103,252552,6,0,B|299:37|299:37|231:19,1,140,2|0,0:2|1:2,0:2:0:0:
109,203,252818,86,0,B|40:184|40:184|59:118,1,140,2|0,0:2|0:2,0:2:0:0:
204,90,253082,6,0,B|189:139|189:139|138:125|138:125|153:75|153:75|204:90,1,210,2|0,0:2|0:2,0:2:0:0:
347,122,253435,38,0,B|365:55|365:55|434:76,2,140,8|0|0,0:2|0:2|0:2,0:2:0:0:
286,371,253965,1,0,1:2:0:0:
512,260,254141,2,0,B|532:178|532:178|408:139,1,210,0|0,1:2|0:2,0:2:0:0:
260,270,254847,54,0,B|194:289|194:289|176:221,1,140,8|0,0:2|0:2,0:2:0:0:
57,30,255112,86,0,B|123:11|123:11|141:79,1,140,2|0,0:2|0:2,0:2:0:0:
36,256,255376,6,0,B|17:190|17:190|85:172,1,140,2|0,0:2|0:2,0:2:0:0:
232,131,255641,86,0,B|338:100|338:100|347:102|347:102|459:67,1,231.000007049561,2|0,0:2|0:2,0:2:0:0:
379,9,255994,54,0,B|343:20|343:20|336:18|336:18|268:38,1,112,0|0,1:2|0:2,0:2:0:0:
141,79,256259,86,2,L|124:25,2,56,8|2|2,0:2|0:2|0:2,0:2:0:0:
85,171,256523,2,2,L|70:229,1,56,0|2,1:2|0:2,0:2:0:0:
11,77,256700,2,2,L|65:94,2,56,0|2|2,0:2|0:2|0:2,0:2:0:0:
165,159,256965,22,2,L|294:124,1,115.50000352478,0|2,1:2|0:2,0:2:0:0:
367,0,257318,86,0,B|503:69|503:69|428:213,1,315.000012016297,0|0,0:2|0:2,0:2:0:0:
286,292,257671,54,0,B|266:223|266:223|333:203,1,140,10|0,0:2|0:2,0:2:0:0:
440,384,257935,86,0,B|506:364|506:364|486:295,1,140,0|0,0:2|0:2,0:2:0:0:
427,213,258200,6,0,L|388:282,1,70,0|0,0:2|0:2,0:2:0:0:
328,384,258376,1,0,1:2:0:0:
181,384,258588,86,0,L|246:366,1,67.1999979492188,0|0,0:2|0:2,0:2:0:0:
357,327,258818,2,0,L|368:333,5,10.4999996795654,0|0|0|0|0|0,0:2|0:2|0:2|0:2|0:2|0:2,0:2:0:0:
286,292,259082,54,0,B|155:224|155:224|143:246|143:246|-10:287|-10:287|72:121|72:121|94:198,1,587.999982055665,8|0,0:2|0:2,0:2:0:0:
161,312,259788,6,0,L|75:336,1,83.9999974365235,0|0,1:2|0:2,0:2:0:0:
157,158,260494,38,0,B|137:89|137:89|204:69,1,140,10|0,0:2|0:2,0:2:0:0:
360,94,260759,86,0,B|340:27|340:27|271:47,1,140,2|0,0:2|0:2,0:2:0:0:
265,278,261023,6,0,B|196:298|196:298|177:232,1,140,2|0,0:2|0:2,0:2:0:0:
273,164,261288,86,0,B|383:215|383:215|386:224|386:224|392:214|392:214|395:222|395:222|517:282|517:282|477:138,1,420,2|0,0:2|0:2,0:2:0:0:
445,56,261906,53,8,0:2:0:0:
360,94,262259,85,2,0:2:0:0:
360,94,262347,1,2,0:2:0:0:
360,94,262435,2,0,L|305:70,2,52.5000020027161,2|0|0,0:2|0:2|0:2,0:2:0:0:
273,164,262612,6,0,B|148:108|148:108|146:102|146:102|9:42,1,280,0|0,1:2|0:2,0:2:0:0:
145,28,263053,6,0,B|194:50|194:50|196:55|196:55|236:73,1,97.9999970092775,0|0,1:2|0:2,0:2:0:0:
93,158,263318,38,0,B|27:129|27:129|0:194,1,140,10|0,0:2|0:2,0:2:0:0:
258,314,263582,86,0,B|229:377|229:377|164:349,1,140,2|0,0:2|0:2,0:2:0:0:
225,214,263848,6,0,B|251:148|251:148|185:122,1,140,2|0,0:2|1:2,0:2:0:0:
71,381,264113,86,0,B|7:354|7:354|36:288,1,140,2|0,0:2|0:2,0:2:0:0:
132,258,264376,6,0,B|350:343|350:343|368:297,1,272.999987503052,2|0,0:2|0:2,0:2:0:0:
426,140,264729,38,0,B|490:167|490:167|464:233,2,140,10|0|0,0:2|0:2|0:2,0:2:0:0:
184,58,265259,1,0,1:2:0:0:
282,326,265435,2,0,B|335:348|335:348|396:203,1,210,0|0,1:2|0:2,0:2:0:0:
354,20,266141,54,0,B|286:33|286:33|301:101,1,140,10|0,0:2|0:2,0:2:0:0:
282,326,266406,86,0,B|349:312|349:312|334:244,1,140,2|0,0:2|0:2,0:2:0:0:
474,212,266671,6,0,B|460:144|460:144|392:159,1,140,2|0,0:2|0:2,0:2:0:0:
243,189,266935,86,0,B|121:212|121:212|101:105,1,231.000007049561,2|0,0:2|0:2,0:2:0:0:
161,13,267288,2,0,L|184:137,1,112,0|0,1:2|0:2,0:2:0:0:
212,261,267553,70,0,L|220:307,1,42,10|0,0:2|0:2,0:2:0:0:
138,350,267906,86,0,B|218:334|218:334|224:337|224:337|303:321,1,168,0|0,0:2|0:2,0:2:0:0:
362,361,268259,6,0,B|417:373|417:373|428:318,1,112,0|0,1:2|0:2,0:2:0:0:
444,239,268523,2,0,L|458:167,1,56,0|0,0:2|0:2,0:2:0:0:
512,102,268700,86,0,L|387:78,1,112,0|0,1:2|0:2,0:2:0:0:
222,99,268965,54,0,B|181:39|181:39|238:0,1,140,8|0,0:2|0:2,0:2:0:0:
380,129,269229,86,0,B|436:90|436:90|395:30,1,140,0|0,0:2|0:2,0:2:0:0:
324,0,269494,6,0,L|310:68,1,70,0|0,0:2|0:2,0:2:0:0:
283,191,269670,1,0,1:2:0:0:
283,191,269759,2,0,L|269:259,1,70,0|0,0:2|0:2,0:2:0:0:
241,384,269935,86,0,L|250:342,1,41.9999987182618,0|0,0:2|0:2,0:2:0:0:
259,268,270200,2,0,L|270:270,2,10.4999996795654,0|0|0,0:2|0:2|0:2,0:2:0:0:
195,300,270376,54,0,B|125:319|125:319|121:329|121:329|18:358|18:358|47:238|47:238|55:233|55:233|82:115|82:115|33:102,1,490,10|0,0:2|0:2,0:2:0:0:
0,163,271082,6,0,B|100:188|100:188|107:195|107:195|210:220|210:220|227:153,1,280,0|0,0:2|0:2,0:2:0:0:
165,86,271523,38,0,L|151:32,1,56,0|0,1:2|0:2,0:2:0:0:
255,56,271788,22,0,B|357:28|357:28|409:219,1,293.999991027832,8|0,0:2|0:2,0:2:0:0:
512,353,272141,2,0,B|394:325|394:325|389:319|389:319|219:278,1,293.999991027832,2|0,0:2|0:2,0:2:0:0:
150,349,272494,2,0,B|48:377|48:377|-7:160|-7:160|145:199|145:199|149:215|149:215|326:167,1,685.999979064942,2|0,0:2|0:2,0:2:0:0:
446,144,273200,53,10,0:2:0:0:
429,108,273288,1,2,0:2:0:0:
390,78,273376,1,2,0:2:0:0:
336,53,273465,1,2,0:2:0:0:
273,53,273553,1,2,0:2:0:0:
208,78,273641,1,2,0:2:0:0:
168,137,273729,1,2,0:2:0:0:
160,210,273818,1,2,0:2:0:0:
197,282,273906,1,2,0:2:0:0:
271,308,273994,1,2,0:2:0:0:
354,294,274082,1,2,0:2:0:0:
391,220,274171,1,2,0:2:0:0:
365,144,274259,1,2,0:2:0:0:
280,127,274347,70,0,L|181:155,1,97.9999970092774,0|0,1:2|0:2,0:2:0:0:
120,279,274612,70,0,B|27:251|27:251|79:62,1,293.999991027832,10|2,0:2|0:2,0:2:0:0:
199,16,274965,5,2,0:2:0:0:
199,16,275053,2,0,L|213:70,1,56,2|0,0:2|0:2,0:2:0:0:
172,157,275318,86,0,B|292:121|292:121|333:248,1,251.999992309571,0|0,1:2|0:2,0:2:0:0:
330,370,275671,6,0,B|402:393|402:393|446:267|446:267|444:259|444:259|487:130,1,346.500003304482,0|0,0:2|0:2,0:2:0:0:
436,11,276023,6,0,B|369:32|369:32|392:98,1,140,10|0,0:2|0:2,0:2:0:0:
462,325,276376,1,2,0:2:0:0:
485,137,276509,1,0,1:2:0:0:
331,241,276729,54,0,B|210:208|210:208|205:202|205:202|80:166,1,251.999992309571,0|0,1:2|0:2,0:2:0:0:
0,41,277082,38,0,B|118:0|118:0|157:120,1,251.999992309571,2|2,0:2|0:2,0:2:0:0:
101,243,277435,70,0,B|165:262|165:262|170:268|170:268|313:310|313:310|332:239,1,293.999991027832,10|2,0:2|0:2,0:2:0:0:
350,0,277788,6,0,B|213:46|213:46|271:212,1,293.999991027832,0|2,0:2|0:2,0:2:0:0:
347,384,278141,86,0,B|459:343|459:343|387:139|387:139|325:161,1,391.99998803711,2|0,0:2|0:2,0:2:0:0:
206,278,278582,6,0,L|76:241,1,112,0|0,1:2|0:2,0:2:0:0:
12,257,278847,86,0,L|30:192,2,56,10|0|0,0:2|0:2|0:2,0:2:0:0:
187,74,279112,2,0,L|171:20,1,56,2|0,1:2|0:2,0:2:0:0:
281,261,279288,2,2,L|346:279,2,56,2|2|2,0:2|0:2|0:2,0:2:0:0:
274,29,279553,6,0,B|240:169|240:169|28:120,1,363.999983337403,0|0,1:2|0:2,0:2:0:0:
0,12,279994,6,0,B|56:-3|56:-3|70:53,1,112,2|2,1:2|0:2,0:2:0:0:
114,235,280259,70,0,B|146:365|146:365|283:332,1,262.5,10|2,0:2|0:2,0:2:0:0:
331,225,280612,6,0,B|299:95|299:95|162:128,1,262.5,2|2,0:2|0:2,0:2:0:0:
91,144,280965,5,0,1:2:0:0:
69,49,281141,54,0,L|143:63,1,70,0|0,0:2|0:2,0:2:0:0:
209,5,281406,2,0,L|189:9,4,20.9999993591309,0|0|0|0|0,0:2|0:2|0:2|0:2|0:2,0:2:0:0:
173,125,281671,6,0,B|200:214|200:214|360:173|360:173|363:162|363:162|466:132|466:132|434:288|434:288|377:252,1,587.999982055665,10|0,0:2|0:2,0:2:0:0:
244,122,282376,22,0,B|222:40|222:40|139:62,1,167.999994873047,0|0,1:2|0:2,0:2:0:0:
38,3,282906,69,2,0:2:0:0:
38,3,282994,1,2,0:2:0:0:
38,3,283082,2,0,B|74:135|74:135|81:137|81:137|125:286,1,293.999991027832,10|0,0:2|0:2,0:2:0:0:
288,321,283435,2,0,B|219:86|219:86|163:104,1,293.999991027832,2|0,0:2|0:2,0:2:0:0:
103,317,283788,6,0,B|231:278|231:278|247:258|247:258|385:219,1,293.999991027832,2|0,0:2|0:2,0:2:0:0:
407,101,284141,2,0,B|176:171|176:171|190:221,1,293.999991027832,2|0,0:2|0:2,0:2:0:0:
235,370,284494,5,10,0:2:0:0:
337,255,284759,54,0,B|351:206|351:206|506:254|506:254|494:302,1,251.999992309571,0|0,1:2|0:2,0:2:0:0:
443,384,285200,38,0,B|392:214|392:214|394:198|394:198|341:23,1,363.999983337403,0|0,1:2|0:2,0:2:0:0:
457,26,285641,54,0,B|529:48|529:48|504:130,1,154.000004699707,0|0,1:2|0:2,0:2:0:0:
405,216,285906,6,0,B|270:170|270:170|258:171|258:171|103:118|103:118|130:33,1,391.99998803711,10|0,0:2|0:2,0:2:0:0:
274,3,286347,2,0,L|259:50,1,41.9999987182618,0|0,0:2|0:2,0:2:0:0:
291,164,286612,6,0,B|172:123|172:123|132:243,1,251.999992309571,0|0,1:2|0:2,0:2:0:0:
148,352,286965,86,0,B|77:378|77:378|-5:105,1,346.500003304482,0|0,0:2|0:2,0:2:0:0:
92,94,287318,6,0,B|116:22|116:22|54:1,2,140,10|0|0,0:2|0:2|0:2,0:2:0:0:
27,322,287847,1,0,1:2:0:0:
241,265,288023,2,0,B|314:243|314:243|260:41,1,280,0|0,1:2|0:2,0:2:0:0:
132,242,288729,86,0,B|172:388|172:388|350:336,1,293.999991027832,10|2,0:2|0:2,0:2:0:0:
435,187,289082,6,0,B|510:164|510:164|463:336|463:336|421:322,1,293.999991027832,2|0,0:2|0:2,0:2:0:0:
346,233,289435,86,0,B|214:190|214:190|203:191|203:191|40:137|40:137|68:59,1,391.99998803711,2|0,0:2|0:2,0:2:0:0:
195,23,289876,2,0,L|264:47,1,70,0|0,1:2|0:2,0:2:0:0:
352,131,290141,22,0,L|430:105,1,70,10|0,0:2|0:2,0:2:0:0:
457,25,290406,2,2,L|498:39,2,35,2|2|2,1:2|0:2|0:2,0:2:0:0:
375,50,290671,2,0,L|332:65,1,35,2|0,0:2|0:2,0:2:0:0:
238,220,290847,22,0,B|191:205|191:205|207:160|207:160|252:175|252:175|238:220,1,181.999991668702,0|0,1:2|0:2,0:2:0:0:
128,140,291112,86,0,B|102:141|102:141|100:117|100:117|125:117|125:117|128:140,1,97.9999970092774,0|0,2:2|2:2,2:2:0:0:
80,31,291289,22,0,B|67:27|67:27|71:15|71:15|83:20|83:20|80:31,1,44.8,0|0,0:2|0:2,0:2:0:0:
176,1,291553,22,0,L|124:148,1,146.999995513916,10|0,0:2|0:2,0:2:0:0:
238,220,291906,2,0,L|289:72,1,146.999995513916,0|0,0:2|0:2,0:2:0:0:
127,139,292259,6,0,L|207:167,1,84,0|0,0:2|0:2,0:2:0:0:
286,81,292876,6,0,L|205:52,1,83.9999974365235,0|0,0:2|0:2,0:2:0:0:
126,26,293671,37,0,1:2:0:0:
256,192,293759,12,0,298435,0:2:0:0:
256,192,298523,12,0,304082,0:2:0:0:
256,192,304171,12,0,314847,0:2:0:0:
