osu file format v14

[General]
AudioFilename: audio.mp3
AudioLeadIn: 0
PreviewTime: -1
Countdown: 0
SampleSet: None
StackLeniency: 0.7
Mode: 0
LetterboxInBreaks: 0
WidescreenStoryboard: 0

[Editor]
Bookmarks: 11682
DistanceSpacing: 1.4
BeatDivisor: 4
GridSize: 4
TimelineZoom: 1.9

[Metadata]
Title:DIRTY BULLET
TitleUnicode:DIRTY BULLET
Artist:TRI4TH
ArtistUnicode:TRI4TH
Creator:Bready
Version:Dirty
Source:博多豚骨ラーメンズ
Tags:
BeatmapID:1642060
BeatmapSetID:781911

[Difficulty]
HPDrainRate:6
CircleSize:3
OverallDifficulty:6
ApproachRate:9
SliderMultiplier:2.4
SliderTickRate:1

[Events]
//Background and Video events
//Break Periods
//Storyboard Layer 0 (Background)
//Storyboard Layer 1 (Fail)
//Storyboard Layer 2 (Pass)
//Storyboard Layer 3 (Foreground)
//Storyboard Sound Samples

[TimingPoints]
1030,329.67032967033,4,1,0,100,1,0
10263,352.941176470588,4,1,0,100,1,0
11682,335.195530726257,4,1,0,100,1,0
33148,337.078651685393,4,1,0,100,1,0
41213,344.827586206897,4,1,0,100,1,0
45329,337.078651685393,4,1,0,100,1,0
56081,333.333333333333,4,1,0,100,1,0
68081,329.67032967033,4,1,0,100,1,0
94454,335.195530726257,4,1,0,100,1,0
102440,327.868852459016,4,1,0,100,1,0
112931,322.58064516129,4,1,0,100,1,0
131051,335.195530726257,4,1,0,100,1,0
133732,307.692307692308,4,1,0,100,1,0
143578,344.827586206897,4,1,0,100,1,0
149095,331.491712707182,4,1,0,100,1,0
167658,324.324324324324,4,1,0,100,1,0

[HitObjects]
256,300,370,5,0,2:0:0:0:
198,303,453,1,0,2:0:0:0:
148,293,535,2,0,P|125:290|99:266,5,60,0|0|0|0|0|0,2:0|2:0|2:0|2:0|2:0|2:0,2:0:0:0:
106,204,1030,2,0,P|253:166|272:116,2,180,0|0|0,2:0|2:0|2:0,2:0:0:0:
364,293,1854,6,0,P|404:279|425:236,5,60,0|0|0|0|0|0,2:0|2:0|2:0|2:0|2:0|2:0,2:0:0:0:
405,203,2348,2,0,P|258:165|232:106,2,180,0|0|0,2:0|2:0|2:0,2:0:0:0:
148,293,3172,6,0,P|108:279|85:243,5,60,0|0|0|0|0|0,2:0|2:0|2:0|2:0|2:0|2:0,2:0:0:0:
106,203,3666,2,0,P|253:165|279:109,2,180,0|0|0,2:0|2:0|2:0,2:0:0:0:
364,91,4491,2,0,P|399:101|423:130,5,60,0|0|0|0|0|0,2:0|2:0|2:0|2:0|2:0|2:0,2:0:0:0:
404,179,4985,2,0,P|296:187|243:254,2,180,0|0|0,2:0|2:0|2:0,2:0:0:0:
261,297,5810,5,0,2:0:0:0:
307,286,5892,1,0,2:0:0:0:
347,263,5974,1,0,2:0:0:0:
379,228,6057,1,0,2:0:0:0:
400,186,6139,1,0,2:0:0:0:
407,140,6222,1,0,2:0:0:0:
369,103,6305,2,0,P|239:183|177:164,2,180,0|0|0,2:0|2:0|2:0,2:0:0:0:
201,250,7128,5,0,2:0:0:0:
155,239,7210,1,0,2:0:0:0:
115,216,7292,1,0,2:0:0:0:
83,181,7375,1,0,2:0:0:0:
62,139,7457,1,0,2:0:0:0:
55,93,7540,1,0,2:0:0:0:
93,56,7623,2,0,P|223:136|275:126,2,180,0|0|0,2:0|2:0|2:0,2:0:0:0:
241,84,8447,5,0,2:0:0:0:
286,94,8529,1,0,2:0:0:0:
326,117,8611,1,0,2:0:0:0:
358,152,8694,1,0,2:0:0:0:
379,194,8776,1,0,2:0:0:0:
386,240,8859,1,0,2:0:0:0:
360,286,8942,2,0,P|267:227|170:255,2,180,0|0|0,2:0|2:0|2:0,2:0:0:0:
196,69,9766,5,0,2:0:0:0:
285,62,9848,1,0,2:0:0:0:
364,106,9931,2,0,P|380:181|363:202,2,60,0|0|0,2:0|2:0|2:0,2:0:0:0:
103,266,10263,5,0,2:0:0:0:
206,54,10615,1,0,2:0:0:0:
307,146,10880,1,0,2:0:0:0:
101,121,11682,6,0,P|293:63|373:91,1,240
390,130,12100,1,0,0:0:0:0:
393,220,12184,1,0,0:0:0:0:
340,293,12268,1,0,0:0:0:0:
251,310,12352,2,0,P|172:307|99:232,2,180
267,63,13022,6,0,P|385:113|425:252,1,240
367,277,13441,1,0,0:0:0:0:
285,316,13525,1,0,0:0:0:0:
197,292,13609,1,0,0:0:0:0:
138,222,13693,2,0,L|62:225,1,60
205,148,13860,2,0,L|281:151,1,60
106,119,14028,2,0,P|195:32|235:28,2,120
235,114,14698,6,0,P|354:172|346:274,1,240
227,216,15369,6,0,P|97:241|78:341,1,240
249,49,15871,5,0,0:0:0:0:
167,86,15955,1,0,0:0:0:0:
100,147,16039,1,0,0:0:0:0:
115,235,16123,2,0,L|55:274,2,60
205,233,16374,2,0,L|246:172,2,60
281,282,16626,2,0,L|284:350,1,60
406,209,16877,5,0,0:0:0:0:
336,77,17045,2,0,P|212:71|136:151,1,240
93,228,17464,2,0,L|12:218,2,60
162,285,17715,2,0,P|189:232|166:200,1,60
280,236,17883,1,0,0:0:0:0:
365,261,17966,1,0,0:0:0:0:
408,181,18050,2,0,P|435:123|425:97,2,60
136,149,18385,6,0,P|219:67|335:76,1,240
380,196,19056,6,0,P|296:277|180:268,1,240
98,156,19726,5,0,0:0:0:0:
166,96,19810,1,0,0:0:0:0:
254,60,19894,1,0,0:0:0:0:
339,89,19978,2,0,P|306:156|281:155,2,60
428,82,20229,2,0,P|431:52|417:26,2,60
459,166,20480,1,0,0:0:0:0:
400,234,20564,1,0,0:0:0:0:
330,291,20648,2,0,P|388:344|416:348,1,60
242,291,20816,2,0,P|247:227|277:214,3,60
171,45,21402,5,0,0:0:0:0:
131,302,21737,1,0,0:0:0:0:
246,160,21989,1,0,0:0:0:0:
238,214,22240,1,0,0:0:0:0:
171,67,22408,6,0,P|339:48|413:119,2,240
82,86,23162,1,0,0:0:0:0:
142,152,23246,1,0,0:0:0:0:
57,184,23330,2,0,P|-7:170|-19:130,1,60
89,265,23497,2,0,P|27:288|-4:261,2,60
153,329,23749,2,0,P|272:336|371:238,3,240
299,74,24838,5,0,0:0:0:0:
299,74,24922,2,0,L|250:143,1,60
146,142,25089,5,0,0:0:0:0:
146,142,25173,2,0,L|190:214,1,60
277,249,25341,5,0,0:0:0:0:
277,249,25425,2,0,L|228:318,1,60
116,286,25592,5,0,0:0:0:0:
116,286,25676,2,0,L|148:364,1,60
230,336,25844,1,0,0:0:0:0:
297,277,25927,1,0,0:0:0:0:
386,290,26011,1,0,0:0:0:0:
414,204,26095,2,0,P|488:187|498:178,2,60
