osu file format v14

[General]
AudioFilename: audio.mp3
AudioLeadIn: 0
PreviewTime: -1
Countdown: 1
SampleSet: Normal
StackLeniency: 0.7
Mode: 0
LetterboxInBreaks: 0
WidescreenStoryboard: 0

[Editor]
DistanceSpacing: 1
BeatDivisor: 4
GridSize: 16
TimelineZoom: 1

[Metadata]
Title:midori
TitleUnicode:midori
Artist:TQ -Jam
ArtistUnicode:TQ -Jam
Creator:6 digit
Version:Insane
Source:
Tags:
BeatmapID:1960422
BeatmapSetID:938501

[Difficulty]
HPDrainRate:7
CircleSize:4
OverallDifficulty:7
ApproachRate:8.5
SliderMultiplier:1.4
SliderTickRate:1

[Events]
//Background and Video events
0,0,"1_YJuO_1zaatGgr7RlnqOL1g.jpg",0,0
//Break Periods
//Storyboard Layer 0 (Background)
//Storyboard Layer 1 (Fail)
//Storyboard Layer 2 (Pass)
//Storyboard Layer 3 (Foreground)
//Storyboard Sound Samples

[TimingPoints]
1624,457.317073170732,4,1,0,100,1,0

[HitObjects]
159,102,1624,6,0,P|190:88|226:85,1,70
329,100,2081,1,0,0:0:0:0:
428,68,2309,2,0,L|442:-8,2,70
474,162,2995,1,0,0:0:0:0:
398,235,3224,2,0,P|415:239|433:250,5,35
452,274,3910,1,0,0:0:0:0:
452,274,4139,1,0,0:0:0:0:
373,335,4367,1,0,0:0:0:0:
373,335,4596,1,0,0:0:0:0:
279,286,4825,1,0,0:0:0:0:
373,335,5053,1,0,0:0:0:0:
219,369,5282,2,0,P|185:368|152:354,1,70
113,256,5739,1,0,0:0:0:0:
202,201,5968,2,0,L|210:294,1,70
228,99,6654,1,0,0:0:0:0:
127,131,6883,2,0,P|90:118|59:95,1,70
86,215,7340,2,0,P|50:222|14:222,1,70
174,252,7797,2,0,P|126:303|125:376,2,140
278,239,8941,6,0,P|312:237|346:228,1,70
402,139,9398,1,0,0:0:0:0:
375,37,9627,2,0,L|283:26,2,70
320,126,10313,1,0,0:0:0:0:
220,93,10541,2,0,L|156:101,5,35
150,102,11227,1,0,0:0:0:0:
150,102,11456,1,0,0:0:0:0:
52,64,11684,1,0,0:0:0:0:
71,167,11913,1,0,0:0:0:0:
5,249,12142,1,0,0:0:0:0:
186,285,12370,2,0,P|170:248|166:213,1,70
275,275,12828,1,0,0:0:0:0:
275,275,12942,1,0,0:0:0:0:
275,275,13056,2,0,P|273:307|252:347,1,70
121,309,13514,2,0,P|152:288|190:282,1,70
85,222,13971,1,0,0:0:0:0:
169,159,14200,2,0,L|167:202,6,35
251,94,15114,2,0,P|318:126|388:129,1,140
479,88,15800,1,0,0:0:0:0:
382,129,16029,1,0,0:0:0:0:
453,206,16258,6,0,L|456:247,1,35
397,306,16486,1,0,0:0:0:0:
240,298,16715,2,0,P|270:275|303:267,1,70
130,274,17172,2,0,L|119:232,1,35
203,203,17401,1,0,0:0:0:0:
48,170,17630,2,0,P|51:129|70:101,1,70
151,44,18087,2,0,L|193:52,1,35
236,119,18316,2,0,L|275:105,1,35
342,47,18544,1,0,0:0:0:0:
328,185,18773,2,0,P|340:224|369:257,2,70
448,252,19459,2,0,P|436:291|407:324,1,70
255,280,19916,1,0,0:0:0:0:
326,341,20145,1,0,0:0:0:0:
377,193,20374,1,0,0:0:0:0:
276,163,20602,2,0,P|277:128|290:91,2,70
193,209,21288,2,0,P|170:175|159:145,1,70
115,277,21745,1,0,0:0:0:0:
17,237,21974,2,0,P|60:183|127:171,2,140
181,292,23117,1,0,0:0:0:0:
82,329,23346,1,0,0:0:0:0:
97,152,23575,6,0,L|135:158,1,35
176,224,23803,1,0,0:0:0:0:
208,74,24032,2,0,P|168:69|125:84,1,70
291,134,24489,2,0,L|304:86,1,35
283,7,24718,1,0,0:0:0:0:
451,27,24947,2,0,P|448:65|456:96,1,70
472,199,25404,2,0,P|429:231|412:287,1,105
421,330,25861,2,0,P|387:305|352:295,1,70
258,320,26319,1,0,0:0:0:0:
154,301,26547,2,0,L|146:265,1,35
80,222,26776,2,0,L|93:185,1,35
151,115,27005,2,0,P|140:68|124:44,1,70
100,196,27462,1,0,0:0:0:0:
100,196,27576,1,0,0:0:0:0:
100,196,27691,2,0,P|136:209|186:210,1,70
202,208,28034,1,0,0:0:0:0:
233,192,28148,1,0,0:0:0:0:
255,165,28262,1,0,0:0:0:0:
262,130,28377,1,0,0:0:0:0:
228,30,28605,1,0,0:0:0:0:
330,52,28834,1,0,0:0:0:0:
160,113,29063,2,0,P|128:65|123:11,2,105
56,127,29977,2,0,P|36:159|32:197,1,70
208,208,30434,2,0,P|204:252|182:289,1,70
168,299,30777,1,0,0:0:0:0:
139,318,30892,6,0,B|212:318|212:318|275:336|275:336|300:327|323:324|323:324,1,175
345,323,31578,1,0,0:0:0:0:
276,177,31806,2,0,P|267:214|271:254,2,70
165,262,32492,2,0,P|148:227|146:183,1,70
30,278,32950,2,0,P|51:303|222:338,1,210
296,273,33864,1,0,0:0:0:0:
197,236,34093,1,0,0:0:0:0:
215,340,34322,1,0,0:0:0:0:
395,315,34550,2,0,L|404:390,1,70
477,211,35008,2,0,B|465:256|465:256|405:228|396:161|423:113,1,210
286,34,36037,1,0,0:0:0:0:
139,93,36380,2,0,P|135:143|83:214,1,140
14,134,37066,1,0,0:0:0:0:
83,213,37294,1,0,0:0:0:0:
65,37,37523,1,0,0:0:0:0:
14,134,37752,1,0,0:0:0:0:
118,124,37980,2,0,L|188:117,1,70
14,134,38438,1,0,0:0:0:0:
117,121,38666,2,0,B|159:117|159:117|172:131|172:131|332:110,1,210
128,200,39809,2,0,B|124:239|124:239|106:266|106:266|103:300,1,105
47,206,40267,1,0,0:0:0:0:
182,297,40495,2,0,L|224:293,1,35
255,257,40724,2,0,B|238:221|238:221|239:182|239:182,1,70
390,248,41181,1,0,0:0:0:0:
321,205,41410,1,0,0:0:0:0:
280,337,41639,2,0,P|241:340|203:325,1,70
165,236,42096,1,0,0:0:0:0:
243,166,42325,2,0,L|258:243,1,70
150,104,42782,2,0,L|118:171,1,70
259,63,43239,1,0,0:0:0:0:
183,16,43468,1,0,0:0:0:0:
256,192,43582,12,0,45412,0:0:0:0:
136,152,45526,6,0,P|181:144|235:105,1,105
248,81,45983,1,0,0:0:0:0:
149,25,46212,2,0,L|156:66,1,35
23,80,46441,2,0,L|16:121,1,35
113,166,46669,2,0,L|117:207,1,35
56,263,46898,1,0,0:0:0:0:
215,304,47127,2,0,L|148:280,1,70
279,384,47584,2,0,P|312:365|347:359,1,70
492,334,48041,2,0,P|500:265|455:196,1,140
270,235,48727,1,0,0:0:0:0:
303,334,48956,2,0,P|335:298|393:282,1,105
412,287,49413,1,0,0:0:0:0:
412,287,49642,1,0,0:0:0:0:
457,128,49870,2,0,P|433:86|379:58,1,105
360,59,50327,1,0,0:0:0:0:
360,59,50556,1,0,0:0:0:0:
193,157,50785,1,0,0:0:0:0:
228,16,51014,1,0,0:0:0:0:
295,135,51242,1,0,0:0:0:0:
114,81,51471,1,0,0:0:0:0:
136,232,51700,2,0,P|130:268|111:297,1,70
45,140,52157,2,0,P|26:110|21:76,2,70
202,126,52843,1,0,0:0:0:0:
114,81,53072,1,0,0:0:0:0:
70,233,53300,2,0,L|146:238,1,70
268,168,53758,2,0,P|299:149|333:144,1,70
301,308,54215,2,0,P|337:303|370:312,1,70
146,347,54672,2,0,P|121:281|149:215,2,140
298,265,55816,2,0,P|280:229|255:209,2,70
432,230,56502,2,0,P|434:153|474:96,1,140
432,230,57188,1,0,0:0:0:0:
388,48,57416,1,0,0:0:0:0:
467,101,57645,1,0,0:0:0:0:
354,185,57874,1,0,0:0:0:0:
261,32,58102,2,0,L|268:68,1,35
241,48,58331,2,0,P|183:60|103:27,2,140
77,120,59474,1,0,0:0:0:0:
211,151,59703,2,0,P|216:189|202:230,1,70
192,250,60046,1,0,0:0:0:0:
170,277,60160,6,0,L|60:268,1,105
14,168,60617,1,0,0:0:0:0:
14,168,60846,6,0,L|119:177,1,105
176,85,61303,1,0,0:0:0:0:
176,85,61532,6,0,B|90:78|90:78|70:64,2,105
304,62,62447,2,0,P|280:100|277:170,2,105
457,97,63361,1,0,0:0:0:0:
370,136,63590,1,0,0:0:0:0:
512,176,63819,6,0,L|503:286,1,105
403,332,64276,1,0,0:0:0:0:
403,331,64505,6,0,L|411:226,1,105
320,170,64962,1,0,0:0:0:0:
320,170,65191,2,0,P|314:207|297:236,1,70
269,255,65534,2,0,P|232:262|185:257,1,70
167,245,65877,2,0,L|155:212,1,35
55,180,66105,1,0,0:0:0:0:
54,323,66334,2,0,L|66:290,1,35
55,180,66562,1,0,0:0:0:0:
135,69,66791,2,0,L|94:74,2,35
223,7,67249,1,0,0:0:0:0:
326,74,67477,2,0,P|299:121|294:172,1,105
303,204,67934,2,0,B|364:193|364:193|385:137,1,105
209,132,68392,1,0,0:0:0:0:
326,74,68620,1,0,0:0:0:0:
189,42,68849,2,0,P|135:75|120:121,1,105
122,147,69306,2,0,P|131:164|137:185,1,35
41,116,69535,1,0,0:0:0:0:
125,269,69764,2,0,P|107:263|80:260,1,35
209,234,69992,1,0,0:0:0:0:
355,296,70221,2,0,P|358:318|366:336,1,35
271,358,70450,1,0,0:0:0:0:
348,192,70678,2,0,P|368:191|400:196,2,35
462,38,71136,1,0,0:0:0:0:
485,146,71364,1,0,0:0:0:0:
343,46,71593,2,0,L|337:85,4,35
202,29,72279,1,0,0:0:0:0:
244,132,72508,1,0,0:0:0:0:
107,113,72736,2,0,P|127:110|153:115,1,35
174,216,72965,2,0,P|153:218|129:228,1,35,0|0,3:0|3:0,3:0:0:0:
94,308,73194,2,0,P|111:319|126:334,5,35
94,308,73880,2,0,P|126:251|122:171,1,140
94,308,74794,6,0,L|142:313,1,35
50,221,75023,1,0,0:0:0:0:
212,250,75252,2,0,L|215:297,1,35
212,150,75480,2,0,P|181:167|143:171,2,70
158,37,76166,2,0,P|153:55|153:78,1,35
282,84,76395,2,0,P|268:72|252:65,5,35
217,61,77081,1,0,0:0:0:0:
243,201,77309,1,0,0:0:0:0:
332,172,77538,1,0,0:0:0:0:
157,224,77767,1,0,0:0:0:0:
243,201,77995,1,0,0:0:0:0:
147,318,78224,1,0,0:0:0:0:
299,375,78453,2,0,P|282:341|276:303,1,70
456,289,78910,1,0,0:0:0:0:
364,311,79139,2,0,P|363:267|372:234,1,70
456,289,79596,1,0,0:0:0:0:
456,289,79825,1,0,0:0:0:0:
325,157,80053,2,0,P|348:150|369:149,1,35
235,139,80282,1,0,0:0:0:0:
235,139,80511,2,0,P|244:89|261:63,2,70
265,229,81197,2,0,P|240:234|219:245,1,35
119,208,81425,2,0,P|138:236|152:268,1,70
27,203,81883,1,0,0:0:0:0:
16,45,82111,2,0,P|51:30|110:26,1,70
200,110,82569,2,0,L|192:153,1,35
170,31,82797,1,0,0:0:0:0:
289,115,83026,2,0,L|269:212,1,70
252,41,83483,1,0,0:0:0:0:
367,159,83712,2,0,P|387:154|404:143,5,35
420,118,84398,1,0,0:0:0:0:
327,240,84627,1,0,0:0:0:0:
278,172,84855,1,0,0:0:0:0:
412,233,85084,1,0,0:0:0:0:
290,312,85313,1,0,0:0:0:0:
150,219,85541,2,0,P|164:252|166:290,1,70
83,269,85999,2,0,P|81:290|75:311,1,35
1,260,86227,2,0,P|7:199|69:150,1,140
80,166,86799,1,0,0:0:0:0:
80,166,86913,1,0,0:0:0:0:
80,166,87027,1,0,0:0:0:0:
80,166,87142,2,0,P|40:136|28:115,1,70
174,39,87599,2,0,P|190:90|183:145,1,105
125,256,88285,2,0,P|136:253|150:252,12,17.5
256,168,89200,2,0,L|259:205,1,35
368,141,89428,2,0,P|321:94|322:9,1,140
399,52,90114,1,0,0:0:0:0:
368,141,90343,1,0,0:0:0:0:
461,129,90572,1,0,0:0:0:0:
420,242,90800,2,0,L|426:199,1,35
328,218,91029,2,0,P|333:283|408:339,1,140
