osu file format v14

[General]
AudioFilename: audio.mp3
AudioLeadIn: 0
PreviewTime: -1
Countdown: 1
SampleSet: None
StackLeniency: 0.7
Mode: 0
LetterboxInBreaks: 0
WidescreenStoryboard: 0

[Editor]
Bookmarks: 105129,128070,129835,151893
DistanceSpacing: 0.9
BeatDivisor: 4
GridSize: 4
TimelineZoom: 1.8

[Metadata]
Title:Revive
TitleUnicode:Revive
Artist:TQ
ArtistUnicode:TQ☆
Creator:Skellen
Version:Revived
Source:VOEZ
Tags:
BeatmapID:1081964
BeatmapSetID:508732

[Difficulty]
HPDrainRate:6
CircleSize:4
OverallDifficulty:7
ApproachRate:9
SliderMultiplier:1.7
SliderTickRate:2

[Events]
//Background and Video events
0,0,"bg.jpg",0,0
//Break Periods
//Storyboard Layer 0 (Background)
//Storyboard Layer 1 (Fail)
//Storyboard Layer 2 (Pass)
//Storyboard Layer 3 (Foreground)
//Storyboard Sound Samples

[TimingPoints]
6086,441.176470588235,4,2,0,70,1,0
17335,-100,4,2,0,25,0,0
17997,-100,4,2,0,70,0,0
19100,-100,4,2,0,25,0,0
19541,-100,4,1,0,25,0,0
19762,-100,4,1,0,50,0,0
19983,-100,4,1,0,70,0,0
20203,-100,4,2,0,70,0,0
22630,-100,4,2,0,25,0,0
23071,-100,4,1,0,50,0,0
23291,-100,4,2,0,70,0,0
26600,-100,4,1,0,50,0,0
26821,-100,4,2,0,70,0,0
28365,-100,4,1,0,50,0,0
28585,-100,4,2,0,70,0,0
30130,-100,4,1,0,50,0,0
30460,-100,4,2,0,70,0,0
31894,-100,4,1,0,50,0,0
32225,-100,4,2,0,70,0,0
32777,-100,4,1,0,25,0,0
33438,-100,4,2,0,70,0,0
35424,-100,4,1,0,50,0,0
35644,-100,4,2,0,70,0,0
37188,-100,4,1,0,50,0,0
37850,-100,4,2,0,70,0,0
38512,-100,4,1,0,25,0,0
39174,-100,4,2,0,70,0,0
39835,-100,4,1,0,25,0,0
40497,-100,4,2,0,70,0,0
42041,-100,4,1,0,25,0,0
42262,-100,4,2,0,70,0,0
43365,-100,4,1,0,25,0,0
44027,-100,4,2,0,70,0,0
45571,-100,4,1,0,25,0,0
46233,-100,4,2,0,70,0,0
47335,-100,4,1,0,25,0,0
47997,-100,4,2,0,70,0,0
49541,-100,4,1,0,50,0,0
49872,-100,4,2,0,70,0,0
50865,-100,4,2,0,25,0,0
51306,-100,4,1,0,50,0,0
51527,-100,4,2,0,70,0,0
54835,-100,4,1,0,50,0,0
55056,-100,4,2,0,70,0,0
58365,-100,4,1,0,50,0,0
58696,-100,4,2,0,70,0,0
60130,-100,4,1,0,50,0,0
60460,-100,4,2,0,70,0,0
61012,-100,4,1,0,25,0,0
61233,-100,4,1,0,50,0,0
61453,-100,4,1,0,70,0,0
61674,-100,4,2,0,70,0,0
62777,-100,4,1,0,50,0,0
63438,-100,4,2,0,70,0,0
76453,-100,4,3,0,70,0,0
76894,441.176470588235,4,2,0,70,1,0
76894,-100,4,2,0,70,0,0
105129,-66.6666666666667,4,2,0,80,0,1
117482,-66.6666666666667,4,2,0,80,0,0
119246,-57.1428571428571,4,2,0,90,0,1
131599,-50,4,1,0,100,0,1
133364,-100,4,2,0,70,0,0
147923,-100,4,2,0,5,0,0

[HitObjects]
60,76,6088,5,0,0:0:0:0:
136,92,6196,1,0,0:0:0:0:
212,112,6306,2,0,P|272:116|380:84,1,170
436,144,6968,2,0,P|408:192|348:216,1,85
432,268,7409,2,0,P|392:292|352:304,1,85
276,324,7850,1,0,0:0:0:0:
248,248,8071,6,0,B|208:264|172:344|116:320|84:328,1,170
52,252,8733,2,0,P|40:212|48:152,1,85
116,132,9174,2,0,P|156:96|172:56,1,85
248,48,9615,1,0,0:0:0:0:
320,80,9725,1,0,0:0:0:0:
392,120,9835,2,0,B|428:152|444:240|380:284,1,170
272,336,10938,6,0,P|196:336|156:320,1,85
132,252,11380,1,0,0:0:0:0:
192,176,11600,2,0,P|240:148|356:180,1,170
376,252,12262,1,0,0:0:0:0:
448,188,12483,1,0,0:0:0:0:
424,96,12703,2,0,P|392:56|356:40,1,85
292,100,13144,5,0,0:0:0:0:
304,188,13365,2,0,P|232:156|212:68,1,170
128,72,14027,2,0,P|104:108|60:128,1,85
68,204,14468,2,0,P|116:220|152:260,1,85
176,320,14909,1,0,0:0:0:0:
248,268,15130,2,0,B|280:296|324:320|352:352|428:328,1,170
456,272,15791,6,0,P|464:228|464:160,1,85
456,104,16233,2,0,P|424:64|384:32,1,85
328,100,16674,1,0,0:0:0:0:
256,48,16894,2,0,B|200:48|144:68|128:92|104:144,1,170
88,240,17556,1,0,0:0:0:0:
196,196,17777,1,0,0:0:0:0:
196,196,17997,6,0,P|256:224|292:224,1,85
356,188,18438,1,0,0:0:0:0:
444,148,18659,2,0,P|448:224|404:316,1,170
312,328,19321,1,0,0:0:0:0:
112,328,19541,5,0,0:0:0:0:
76,212,19762,1,0,0:0:0:0:
120,100,19983,1,0,0:0:0:0:
228,48,20203,5,0,0:0:0:0:
256,136,20424,2,0,B|300:124|332:64|444:76,1,170
436,172,21085,1,0,0:0:0:0:
396,336,21306,1,0,0:0:0:0:
312,248,21637,1,0,0:0:0:0:
232,344,21968,1,0,0:0:0:0:
168,248,22188,2,0,P|120:280|104:328,1,85
44,344,22630,6,0,B|32:284|44:216|36:144,1,170
48,48,23291,2,0,P|100:48|136:64,1,85
192,128,23733,1,0,0:0:0:0:
304,56,23953,5,0,0:0:0:0:
448,108,24174,1,0,0:0:0:0:
352,136,24394,1,0,0:0:0:0:
452,208,24615,2,0,P|464:252|384:360,1,170
344,296,25277,1,0,0:0:0:0:
324,216,25497,1,0,0:0:0:0:
296,136,25718,6,0,B|252:152|232:192|236:320,1,170
164,328,26600,1,0,0:0:0:0:
56,336,26821,6,0,P|40:296|44:240,1,85
40,156,27262,1,0,0:0:0:0:
88,68,27483,2,0,P|152:48|268:88,1,170
272,144,28144,1,0,0:0:0:0:
340,236,28365,5,0,0:0:0:0:
288,324,28585,2,0,P|232:324|180:304,1,85
152,236,29027,1,0,0:0:0:0:
64,96,29247,5,0,0:0:0:0:
216,48,29578,1,0,0:0:0:0:
176,136,29909,1,0,0:0:0:0:
352,92,30130,1,0,0:0:0:0:
420,212,30460,1,0,0:0:0:0:
288,324,30791,1,0,0:0:0:0:
112,320,31012,5,0,0:0:0:0:
52,204,31343,1,0,0:0:0:0:
160,216,31674,1,0,0:0:0:0:
120,48,31894,1,0,0:0:0:0:
224,104,32225,1,0,0:0:0:0:
380,40,32556,1,0,0:0:0:0:
448,160,32777,5,0,0:0:0:0:
336,240,32997,1,0,0:0:0:0:
464,276,33218,1,0,0:0:0:0:
368,344,33438,6,0,P|316:344|276:336,1,85
208,276,33990,1,0,0:0:0:0:
56,340,34321,1,0,0:0:0:0:
40,176,34541,2,0,B|48:116|64:56|104:32|144:40,1,170
236,44,35203,6,0,P|288:44|336:60,1,85
452,52,35644,2,0,P|448:124|432:164,1,85
364,180,36085,1,0,0:0:0:0:
324,100,36306,2,0,B|284:136|260:172|268:260,1,170
184,328,36968,1,0,0:0:0:0:
88,264,37188,5,0,0:0:0:0:
180,228,37409,2,0,P|172:184|152:140,1,85
188,56,37850,5,0,0:0:0:0:
264,64,37960,1,0,0:0:0:0:
336,76,38071,2,0,B|388:80|424:104|432:148|416:212,1,170
384,300,38733,1,0,0:0:0:0:
320,212,38953,1,0,0:0:0:0:
248,328,39174,6,0,P|192:328|152:316,1,85
88,260,39615,1,0,0:0:0:0:
52,172,39835,1,0,0:0:0:0:
152,140,40056,1,0,0:0:0:0:
76,68,40277,1,0,0:0:0:0:
180,48,40497,5,0,0:0:0:0:
336,72,40718,1,0,0:0:0:0:
412,120,40938,2,0,P|380:148|316:148,1,85
312,224,41380,1,0,0:0:0:0:
256,164,41600,2,0,B|220:196|244:256|232:312|316:304,1,170
368,344,42262,6,0,P|424:344|464:328,1,85
472,252,42703,2,0,P|472:196|460:160,1,85
404,92,43144,1,0,0:0:0:0:
316,44,43365,1,0,0:0:0:0:
312,168,43585,1,0,0:0:0:0:
224,100,43806,1,0,0:0:0:0:
184,196,44027,6,0,P|156:240|108:280,1,85
116,336,44468,2,0,P|172:340|232:328,1,85
264,276,44909,1,0,0:0:0:0:
324,340,45130,2,0,B|356:292|416:272|456:276|452:212,1,170
424,116,45791,1,0,0:0:0:0:
336,196,46012,1,0,0:0:0:0:
276,96,46233,6,0,P|232:112|192:152,1,85
228,212,46674,1,0,0:0:0:0:
148,228,46894,2,0,B|160:280|200:304|272:308|304:292,1,170
316,224,47556,1,0,0:0:0:0:
384,280,47777,1,0,0:0:0:0:
416,184,47997,5,0,0:0:0:0:
456,72,48438,1,0,0:0:0:0:
304,100,48659,2,0,B|260:68|204:72|168:108|124:72,1,170
96,164,49321,5,0,0:0:0:0:
88,320,49541,1,0,0:0:0:0:
164,232,49872,1,0,0:0:0:0:
232,104,50203,2,0,P|268:132|284:180,1,85
396,200,50644,1,0,0:0:0:0:
368,312,50865,6,0,B|356:344|324:352|256:348|196:344,1,170
104,344,51527,2,0,P|64:336|32:288,1,85
96,216,51968,1,0,0:0:0:0:
180,72,52188,5,0,0:0:0:0:
352,88,52409,1,0,0:0:0:0:
224,148,52630,1,0,0:0:0:0:
356,200,52850,2,0,P|324:244|264:248,1,85
184,304,53291,1,0,0:0:0:0:
60,308,53512,2,0,P|48:264|48:208,1,85
60,68,53953,5,0,0:0:0:0:
132,160,54174,1,0,0:0:0:0:
192,64,54394,2,0,B|248:56|292:72|304:120|388:108,1,170
440,132,55056,2,0,P|436:192|424:224,1,85
376,280,55497,1,0,0:0:0:0:
304,328,55718,6,0,B|256:328|188:340|116:328|60:344|40:292,1,255
120,224,56821,1,0,0:0:0:0:
220,56,57262,5,0,0:0:0:0:
388,108,57483,1,0,0:0:0:0:
264,144,57813,1,0,0:0:0:0:
416,236,58144,1,0,0:0:0:0:
280,336,58365,1,0,0:0:0:0:
204,256,58696,1,0,0:0:0:0:
108,176,59027,5,0,0:0:0:0:
232,48,59247,1,0,0:0:0:0:
208,172,59578,1,0,0:0:0:0:
332,56,59909,1,0,0:0:0:0:
436,192,60130,1,0,0:0:0:0:
364,276,60460,2,0,P|320:300|236:288,1,127.5
116,224,61012,5,0,0:0:0:0:
160,88,61233,1,0,0:0:0:0:
312,52,61453,1,0,0:0:0:0:
440,140,61674,5,0,0:0:0:0:
420,312,61894,1,0,0:0:0:0:
364,192,62225,1,0,0:0:0:0:
272,336,62556,1,0,0:0:0:0:
184,192,62777,1,0,0:0:0:0:
272,48,63438,6,0,P|316:48|388:56,1,85
448,72,63880,2,0,P|468:128|472:172,1,85
460,240,64321,1,0,0:0:0:0:
376,344,64541,1,0,0:0:0:0:
180,344,65203,6,0,P|108:344|68:336,1,85
44,276,65644,2,0,P|32:200|36:172,1,85
72,120,66085,1,0,0:0:0:0:
152,124,66196,1,0,0:0:0:0:
232,128,66306,2,0,B|284:128|316:124|344:76|436:128,1,170
440,184,67409,1,0,0:0:0:0:
404,320,67850,5,0,0:0:0:0:
324,276,68071,2,0,B|276:288|236:332|152:320,1,170
128,256,68733,1,0,0:0:0:0:
40,188,68953,1,0,0:0:0:0:
192,152,69174,1,0,0:0:0:0:
304,48,69615,5,0,0:0:0:0:
392,60,69835,2,0,B|448:84|456:128|448:168|384:204|452:300,1,255
344,320,70718,1,0,0:0:0:0:
260,340,70938,2,0,P|216:340|172:320,1,85
76,240,71380,5,0,0:0:0:0:
40,160,71600,2,0,B|92:152|136:104|160:80|212:120|232:184|344:144|360:96,1,340
432,172,72703,1,0,0:0:0:0:
416,324,73144,5,0,0:0:0:0:
364,252,73365,2,0,B|308:244|280:188|212:188|176:272|88:312|20:216|40:192,1,340
52,144,74468,1,0,0:0:0:0:
200,64,74909,5,0,0:0:0:0:
288,68,75130,2,0,B|340:68|396:48|396:48|452:88|452:88|440:160|412:168|412:168|332:168|332:168|320:224|344:276|344:276|384:312,1,510
444,244,76674,1,0,0:0:0:0:
448,120,76894,5,0,0:0:0:0:
428,108,77004,1,0,0:0:0:0:
404,100,77114,1,0,0:0:0:0:
380,108,77224,1,0,0:0:0:0:
360,124,77335,1,0,0:0:0:0:
340,140,77445,1,0,0:0:0:0:
316,148,77555,1,2,0:0:0:0:
292,144,77666,1,0,0:0:0:0:
268,132,77776,5,0,0:0:0:0:
248,116,77886,1,0,0:0:0:0:
228,104,77996,1,2,0:0:0:0:
204,104,78107,1,0,0:0:0:0:
180,112,78217,1,0,0:0:0:0:
164,132,78327,1,0,0:0:0:0:
156,156,78438,1,0,0:0:0:0:
160,180,78548,1,0,0:0:0:0:
164,204,78658,2,0,L|156:276,1,42.5
220,320,78879,5,0,0:0:0:0:
240,308,78989,1,0,0:0:0:0:
260,292,79099,1,0,0:0:0:0:
276,272,79210,1,0,0:0:0:0:
288,248,79320,1,0,0:0:0:0:
308,236,79430,1,0,0:0:0:0:
332,240,79541,1,0,0:0:0:0:
356,248,79651,1,0,0:0:0:0:
380,248,79761,5,0,0:0:0:0:
404,240,79871,1,0,0:0:0:0:
420,220,79982,1,0,0:0:0:0:
424,196,80092,1,0,0:0:0:0:
420,172,80202,1,0,0:0:0:0:
408,152,80313,1,0,0:0:0:0:
396,128,80423,2,0,L|408:76,1,42.5
280,48,80644,5,0,0:0:0:0:
284,72,80754,1,0,0:0:0:0:
280,96,80864,1,0,0:0:0:0:
264,116,80974,1,0,0:0:0:0:
240,120,81085,1,0,0:0:0:0:
216,112,81195,1,0,0:0:0:0:
196,100,81305,1,0,0:0:0:0:
172,96,81416,1,0,0:0:0:0:
152,108,81526,5,0,0:0:0:0:
140,128,81636,1,0,0:0:0:0:
140,172,81746,1,0,0:0:0:0:
176,192,81857,1,0,0:0:0:0:
148,224,81967,1,0,0:0:0:0:
184,244,82077,1,0,0:0:0:0:
152,272,82188,2,0,L|144:332,1,42.5
264,332,82408,5,0,0:0:0:0:
296,324,82519,1,0,0:0:0:0:
328,312,82629,1,0,0:0:0:0:
356,292,82739,1,0,0:0:0:0:
376,264,82849,1,0,0:0:0:0:
380,232,82960,1,0,0:0:0:0:
404,208,83070,1,0,0:0:0:0:
428,184,83180,1,0,0:0:0:0:
400,164,83291,5,0,0:0:0:0:
368,148,83401,1,0,0:0:0:0:
336,148,83511,1,0,0:0:0:0:
304,160,83621,1,0,0:0:0:0:
276,180,83732,1,0,0:0:0:0:
252,204,83842,1,0,0:0:0:0:
236,232,83952,2,0,L|232:288,1,42.5
176,332,84173,5,0,0:0:0:0:
156,320,84283,1,0,0:0:0:0:
140,300,84394,1,0,0:0:0:0:
136,276,84504,1,0,0:0:0:0:
144,252,84614,1,0,0:0:0:0:
156,228,84724,1,0,0:0:0:0:
160,204,84835,1,0,0:0:0:0:
152,180,84945,1,0,0:0:0:0:
136,160,85055,5,0,0:0:0:0:
128,136,85166,1,0,0:0:0:0:
136,112,85276,1,0,0:0:0:0:
156,96,85386,1,0,0:0:0:0:
180,88,85496,1,0,0:0:0:0:
204,88,85607,1,0,0:0:0:0:
228,92,85717,2,0,L|276:124,1,42.5
364,60,85938,5,0,0:0:0:0:
388,64,86048,1,0,0:0:0:0:
408,80,86158,1,0,0:0:0:0:
424,100,86269,1,0,0:0:0:0:
432,124,86379,1,0,0:0:0:0:
428,148,86489,1,0,0:0:0:0:
416,172,86599,1,0,0:0:0:0:
412,196,86710,1,0,0:0:0:0:
420,220,86820,5,0,0:0:0:0:
432,244,86930,1,0,0:0:0:0:
436,268,87041,1,0,0:0:0:0:
420,288,87151,1,0,0:0:0:0:
396,300,87261,1,0,0:0:0:0:
372,304,87371,1,0,0:0:0:0:
348,300,87482,2,0,L|292:276,1,42.5
216,332,87702,5,0,0:0:0:0:
196,316,87813,1,0,0:0:0:0:
176,300,87923,1,0,0:0:0:0:
168,276,88033,1,0,0:0:0:0:
172,252,88144,1,0,0:0:0:0:
184,232,88254,1,0,0:0:0:0:
204,216,88364,1,0,0:0:0:0:
216,192,88474,1,0,0:0:0:0:
220,168,88585,5,0,0:0:0:0:
216,144,88695,1,0,0:0:0:0:
204,124,88805,1,0,0:0:0:0:
200,100,88916,1,0,0:0:0:0:
216,80,89026,1,0,0:0:0:0:
240,68,89136,1,0,0:0:0:0:
264,68,89246,2,0,L|344:88,1,42.5
416,96,89467,5,0,0:0:0:0:
424,120,89577,1,0,0:0:0:0:
428,144,89688,1,0,0:0:0:0:
424,168,89798,1,0,0:0:0:0:
420,192,89908,1,0,0:0:0:0:
412,216,90019,1,0,0:0:0:0:
396,244,90129,5,0,0:0:0:0:
372,268,90239,1,0,0:0:0:0:
340,280,90349,1,0,0:0:0:0:
308,272,90460,1,0,0:0:0:0:
280,240,90570,5,0,0:0:0:0:
244,220,90680,1,0,0:0:0:0:
200,212,90791,1,0,0:0:0:0:
160,220,90901,1,0,0:0:0:0:
124,244,91011,2,0,L|72:296,1,42.5
164,332,91232,5,0,0:0:0:0:
196,340,91342,1,0,0:0:0:0:
232,340,91453,1,0,0:0:0:0:
264,324,91563,1,0,0:0:0:0:
284,296,91673,1,0,0:0:0:0:
300,264,91783,1,0,0:0:0:0:
332,272,91893,1,0,0:0:0:0:
368,272,92004,1,0,0:0:0:0:
400,256,92114,5,0,0:0:0:0:
416,224,92224,1,0,0:0:0:0:
416,188,92335,1,0,0:0:0:0:
404,156,92445,1,0,0:0:0:0:
372,144,92555,1,0,0:0:0:0:
364,112,92666,1,0,0:0:0:0:
332,100,92776,2,0,L|280:88,1,42.5
168,92,92996,5,0,0:0:0:0:
144,116,93107,1,0,0:0:0:0:
136,148,93217,1,0,0:0:0:0:
144,180,93327,1,0,0:0:0:0:
168,204,93438,1,0,0:0:0:0:
200,216,93548,1,0,0:0:0:0:
204,248,93658,1,0,0:0:0:0:
220,276,93768,1,0,0:0:0:0:
252,284,93879,5,0,0:0:0:0:
284,272,93989,1,0,0:0:0:0:
300,240,94099,1,0,0:0:0:0:
336,240,94210,1,0,0:0:0:0:
344,208,94320,1,0,0:0:0:0:
376,208,94430,1,0,0:0:0:0:
380,172,94541,2,0,L|380:112,1,42.5
296,56,94761,5,0,0:0:0:0:
264,68,94871,1,0,0:0:0:0:
228,68,94982,1,0,0:0:0:0:
196,60,95092,1,0,0:0:0:0:
164,56,95202,1,0,0:0:0:0:
132,68,95313,1,0,0:0:0:0:
108,92,95423,5,0,0:0:0:0:
124,120,95533,1,0,0:0:0:0:
100,144,95643,1,0,0:0:0:0:
116,176,95754,1,0,0:0:0:0:
132,204,95864,5,0,0:0:0:0:
164,216,95974,1,0,0:0:0:0:
176,248,96085,1,0,0:0:0:0:
208,244,96195,1,0,0:0:0:0:
208,276,96305,2,0,L|272:300,1,42.5
372,316,96526,5,0,0:0:0:0:
400,300,96636,1,0,0:0:0:0:
392,268,96746,1,0,0:0:0:0:
416,244,96857,1,0,0:0:0:0:
404,212,96967,1,0,0:0:0:0:
424,184,97077,1,0,0:0:0:0:
444,156,97188,1,0,0:0:0:0:
432,124,97298,5,0,0:0:0:0:
412,96,97408,1,0,0:0:0:0:
384,76,97518,1,0,0:0:0:0:
348,72,97629,1,0,0:0:0:0:
324,92,97739,1,0,0:0:0:0:
292,80,97849,1,0,0:0:0:0:
276,108,97960,1,0,0:0:0:0:
248,88,98070,2,0,L|176:112,1,42.5
152,200,98291,5,0,0:0:0:0:
168,228,98401,1,0,0:0:0:0:
176,260,98511,1,0,0:0:0:0:
188,292,98621,1,0,0:0:0:0:
212,316,98732,1,0,0:0:0:0:
244,328,98842,1,0,0:0:0:0:
276,332,98952,1,0,0:0:0:0:
288,300,99063,1,0,0:0:0:0:
320,284,99173,5,0,0:0:0:0:
348,268,99283,1,0,0:0:0:0:
364,236,99393,1,0,0:0:0:0:
360,204,99504,1,0,0:0:0:0:
332,184,99614,1,0,0:0:0:0:
316,152,99724,1,0,0:0:0:0:
328,120,99835,2,0,L|344:76,1,42.5
228,52,100055,5,0,0:0:0:0:
192,52,100166,1,0,0:0:0:0:
160,60,100276,1,0,0:0:0:0:
132,80,100386,1,0,0:0:0:0:
100,84,100496,1,0,0:0:0:0:
72,100,100607,1,0,0:0:0:0:
64,132,100717,1,0,0:0:0:0:
60,164,100827,1,0,0:0:0:0:
68,196,100938,5,0,0:0:0:0:
80,228,101048,1,0,0:0:0:0:
108,248,101158,1,0,0:0:0:0:
140,244,101268,1,0,0:0:0:0:
168,224,101379,1,0,0:0:0:0:
188,196,101489,1,0,0:0:0:0:
212,172,101599,2,0,L|264:148,1,42.5
328,72,101820,5,0,0:0:0:0:
352,96,101930,1,0,0:0:0:0:
364,128,102041,1,0,0:0:0:0:
364,160,102151,1,0,0:0:0:0:
356,192,102261,1,0,0:0:0:0:
336,220,102371,1,0,0:0:0:0:
332,264,102482,5,0,0:0:0:0:
368,284,102592,1,0,0:0:0:0:
408,268,102702,1,0,0:0:0:0:
432,232,102813,1,0,0:0:0:0:
408,188,102923,5,0,0:0:0:0:
360,172,103033,1,0,0:0:0:0:
324,136,103143,1,0,0:0:0:0:
320,84,103254,1,0,0:0:0:0:
288,48,103364,2,0,L|232:40,1,42.5
184,92,103585,1,0,0:0:0:0:
176,192,103805,1,0,0:0:0:0:
240,296,104026,2,0,L|292:224,1,85
392,252,104357,5,0,0:0:0:0:
428,204,104467,1,0,0:0:0:0:
444,148,104577,1,0,0:0:0:0:
400,84,104688,5,0,0:0:0:0:
336,40,104798,1,0,0:0:0:0:
276,88,104908,1,0,0:0:0:0:
212,44,105018,1,0,0:0:0:0:
160,100,105129,1,0,0:0:0:0:
48,184,105460,6,0,P|48:260|76:320,1,127.500004863739
152,316,105791,1,0,0:0:0:0:
232,164,106121,1,0,0:0:0:0:
280,84,106452,2,0,P|336:52|376:48,1,63.7500024318696
388,128,106673,2,0,P|332:160|312:164,1,63.7500024318696
332,244,106893,5,0,0:0:0:0:
192,344,107224,1,0,0:0:0:0:
120,296,107555,1,0,0:0:0:0:
76,228,107886,1,0,0:0:0:0:
52,96,108217,1,0,0:0:0:0:
236,76,108438,1,0,0:0:0:0:
192,148,108658,6,0,B|248:196|216:228|180:280|232:328,1,191.250007295609
300,280,109320,1,0,0:0:0:0:
416,172,109651,1,0,0:0:0:0:
372,56,109982,1,0,0:0:0:0:
304,200,110202,1,0,0:0:0:0:
272,112,110423,6,0,B|228:156|192:68|120:72|88:112,1,191.250007295609
128,180,111085,1,0,0:0:0:0:
76,328,111416,1,0,0:0:0:0:
192,288,111746,1,0,0:0:0:0:
44,148,111967,1,0,0:0:0:0:
84,72,112188,6,0,B|152:44|176:84|232:112|280:80,1,191.250007295609
364,44,112849,1,0,0:0:0:0:
448,148,113180,1,0,0:0:0:0:
396,236,113511,1,0,0:0:0:0:
364,44,113732,1,0,0:0:0:0:
284,148,113952,1,0,0:0:0:0:
196,56,114173,5,0,0:0:0:0:
176,88,114283,1,0,0:0:0:0:
168,124,114393,1,0,0:0:0:0:
180,160,114504,1,0,0:0:0:0:
192,196,114614,1,0,0:0:0:0:
184,232,114724,1,0,0:0:0:0:
208,280,114835,5,0,0:0:0:0:
248,312,114945,1,0,0:0:0:0:
300,320,115055,1,0,0:0:0:0:
352,312,115166,1,0,0:0:0:0:
404,256,115276,5,0,0:0:0:0:
440,188,115386,1,0,0:0:0:0:
380,140,115496,1,0,0:0:0:0:
420,76,115607,1,0,0:0:0:0:
352,40,115717,6,0,P|284:72|168:28,1,191.250007295609
116,112,116379,1,0,0:0:0:0:
48,224,116710,1,0,0:0:0:0:
188,156,117041,1,0,0:0:0:0:
72,328,117261,1,0,0:0:0:0:
72,328,117371,1,0,0:0:0:0:
72,328,117482,6,0,P|160:336|256:272,1,191.250007295609
220,212,117923,1,0,0:0:0:0:
248,140,118033,1,0,0:0:0:0:
308,92,118143,1,0,0:0:0:0:
384,96,118254,1,0,0:0:0:0:
440,144,118364,5,0,0:0:0:0:
380,192,118474,1,0,0:0:0:0:
436,244,118585,1,0,0:0:0:0:
380,292,118695,1,0,0:0:0:0:
316,336,118805,2,0,P|232:332|188:304,1,127.500004863739
88,336,119246,6,0,P|56:256|128:112,1,223.125002127886
184,288,119908,1,0,0:0:0:0:
276,48,120239,1,0,0:0:0:0:
408,60,120570,2,0,P|364:120|248:156,1,148.750001418591
264,288,121011,5,0,0:0:0:0:
76,336,121342,1,0,0:0:0:0:
184,240,121673,1,0,0:0:0:0:
56,168,122004,1,0,0:0:0:0:
180,52,122335,1,0,0:0:0:0:
368,64,122555,1,0,0:0:0:0:
412,144,122666,1,0,0:0:0:0:
392,232,122776,6,0,P|340:288|184:280,1,223.125002127886
304,152,123438,1,0,0:0:0:0:
80,264,123768,1,0,0:0:0:0:
72,68,124099,1,0,0:0:0:0:
216,268,124320,1,0,0:0:0:0:
224,176,124541,6,0,B|304:168|336:144|380:248|440:228,1,223.125002127886
320,320,125202,1,0,0:0:0:0:
444,128,125533,1,0,0:0:0:0:
420,280,125864,1,0,0:0:0:0:
328,48,126085,1,0,0:0:0:0:
420,48,126305,6,0,B|388:120|340:136|264:140|184:116,1,223.125002127886
180,52,126967,1,0,0:0:0:0:
260,280,127298,1,0,0:0:0:0:
312,144,127629,1,0,0:0:0:0:
96,328,127849,1,0,0:0:0:0:
64,240,128070,6,0,P|36:152|124:48,1,223.125002127886
180,72,128511,1,0,0:0:0:0:
232,124,128621,1,0,0:0:0:0:
236,200,128732,1,0,0:0:0:0:
280,260,128842,1,0,0:0:0:0:
356,256,128952,5,0,0:0:0:0:
404,200,129063,1,0,0:0:0:0:
352,148,129173,1,0,0:0:0:0:
404,96,129283,1,0,0:0:0:0:
340,60,129393,5,0,0:0:0:0:
264,52,129504,1,0,0:0:0:0:
192,64,129614,1,0,0:0:0:0:
136,112,129724,1,0,0:0:0:0:
104,180,129835,6,0,P|116:264|268:272,1,223.125002127886
196,216,130496,1,0,0:0:0:0:
364,332,130827,1,0,0:0:0:0:
304,244,131158,1,0,0:0:0:0:
428,80,131379,1,0,0:0:0:0:
356,56,131489,1,0,0:0:0:0:
300,108,131599,6,0,P|224:72|124:72,1,170
84,124,131930,1,0,0:0:0:0:
40,188,132041,1,0,0:0:0:0:
92,244,132151,1,0,0:0:0:0:
48,308,132261,2,0,P|128:344|216:320,1,170
360,320,132702,1,0,0:0:0:0:
408,260,132813,1,0,0:0:0:0:
408,184,132923,2,0,P|320:144|272:184,1,170
120,44,133364,6,0,B|72:80|44:200|44:296|88:360|132:360|160:328|160:328|172:292|128:264|136:188|168:104,1,595
212,52,135129,6,0,B|268:116|232:172|216:224|244:304|272:352|364:336|368:280|332:244|372:216|416:192|464:192|492:240|492:304|472:336|392:356,1,595
233,347,136893,6,0,B|165:351|101:351|25:331|41:263|37:263|29:231|105:243|173:255|229:187|21:143|89:71|33:23|5:67|33:107|213:35|249:51,1,595
288,72,138658,6,0,P|344:52|396:200,1,255
340,136,139541,2,0,P|336:268|464:256,1,255
304,344,140423,6,0,B|232:340|72:348|56:240|56:240|72:208|152:284|228:272|228:272|248:248|136:192,1,595
80,144,142188,6,0,B|64:92|104:24|104:24|140:64|152:124|256:156|280:188|300:216|312:252|304:272|304:272|368:280|432:252|416:196,1,595
372,160,143952,6,0,B|440:116|496:144|532:236|524:312|420:340|328:364|268:340|268:340|240:312|176:264|296:284|172:204,1,595
156,296,145717,6,0,B|112:332|56:344|28:292|32:224|96:260|96:260|128:232|120:172|184:136|216:96|304:200|308:244|300:276|300:276|368:280|416:272|456:224|400:176|424:216,1,680
384,148,147923,1,0,0:0:0:0:
324,88,148364,1,0,0:0:0:0:
248,56,148805,1,0,0:0:0:0:
256,192,149246,12,0,151893,0:0:0:0:
