osu file format v14

[General]
AudioFilename: audio.mp3
AudioLeadIn: 0
PreviewTime: 100612
Countdown: 1
SampleSet: None
StackLeniency: 0.7
Mode: 0
LetterboxInBreaks: 0
WidescreenStoryboard: 1

[Editor]
Bookmarks: 22306,24512,28923,35982,41718,47012,51865,72301,79359,92560,100501,112634,117597
DistanceSpacing: 1
BeatDivisor: 12
GridSize: 16
TimelineZoom: 4.399997

[Metadata]
Title:Revival
TitleUnicode:Revival
Artist:TQ
ArtistUnicode:TQ☆
Creator:n99dl
Version:Hard
Source:deemo
Tags:jumpy spaced stream
BeatmapID:1896995
BeatmapSetID:828913

[Difficulty]
HPDrainRate:5
CircleSize:4
OverallDifficulty:9
ApproachRate:9.7
SliderMultiplier:1.4
SliderTickRate:1

[Events]
//Background and Video events
0,0,"Revival.png",0,0
//Break Periods
2,58441,63435
2,70794,71581
//Storyboard Layer 0 (Background)
//Storyboard Layer 1 (Fail)
//Storyboard Layer 2 (Pass)
//Storyboard Layer 3 (Foreground)
//Storyboard Sound Samples

[TimingPoints]
1550,441.176470588235,4,1,0,60,1,0
1571,-71.4285714285714,4,1,0,60,0,0
8419,-100,4,1,0,60,0,0
9512,-71.4285714285714,4,1,0,60,0,0
16570,-83.3333333333333,4,2,0,60,0,0
30688,-83.3333333333333,4,2,0,60,0,0
72377,441.176470588235,4,1,0,80,1,0
72377,-66.6666666666667,4,1,0,80,0,0
75796,-83.3333333333333,4,1,0,80,0,0
76899,-71.4285714285714,4,1,0,80,0,0
77671,-62.5,4,1,0,80,0,0
78553,-55.5555555555556,4,1,0,80,0,0
78663,-50,4,1,0,80,0,0
78774,-45.4545454545455,4,1,0,80,0,0
78884,-41.6666666666667,4,1,0,80,0,0
78994,-40,4,1,0,80,0,0
79104,-38.4615384615385,4,1,0,80,0,0
79215,-35.7142857142857,4,1,0,80,0,0
79325,-58.8235294117647,4,1,0,80,0,0
82965,-52.6315789473684,4,1,0,80,0,0
83957,-47.6190476190476,4,1,0,80,0,0
84399,-43.4782608695652,4,1,0,80,0,0
84509,-40,4,1,0,80,0,0
84619,-37.037037037037,4,1,0,80,0,0
84729,-34.4827586206897,4,1,0,80,0,0
84950,-50,4,1,0,80,0,0
86494,-45.4545454545455,4,1,0,80,0,0
89913,-76.9230769230769,4,1,0,80,0,0
91899,-66.6666666666667,4,1,0,80,0,0
92009,-58.8235294117647,4,1,0,80,0,0
92119,-52.6315789473684,4,1,0,80,0,0
92229,-47.6190476190476,4,1,0,80,0,0
92340,-43.4782608695652,4,1,0,80,0,0
92450,-40,4,1,0,80,0,0
93443,-50,4,1,0,80,0,0
96751,-90.9090909090909,4,1,0,80,0,0
98516,-58.8235294117647,4,1,0,80,0,0
99178,-52.6315789473684,4,1,0,80,0,0
99288,-47.6190476190476,4,1,0,80,0,0
99399,-43.4782608695652,4,1,0,80,0,0
99509,-40,4,1,0,80,0,0
99619,-37.037037037037,4,1,0,80,0,0
99729,-34.4827586206897,4,1,0,80,0,0
99840,-34.4827586206897,4,1,0,80,0,0
99950,-32.258064516129,4,1,0,80,0,0
100060,-30.3030303030303,4,1,0,80,0,0
100171,-28.5714285714286,4,1,0,80,0,0
100281,-27.027027027027,4,1,0,80,0,0
100391,-25.6410256410256,4,1,0,80,0,0
100501,-25,4,1,0,80,0,0
100612,-40,4,1,0,80,0,0
100649,-40,4,2,0,20,0,0
101053,-40,4,1,0,80,0,0
101347,-40,4,2,0,20,0,0
101715,-40,4,1,0,80,0,0
101788,-40,4,2,0,20,0,0
101935,-40,4,1,0,80,0,0
102009,-40,4,2,0,20,0,0
102156,-40,4,1,0,80,0,0
102229,-40,4,2,0,20,0,0
102376,-40,4,1,0,80,0,0
102450,-40,4,2,0,20,0,0
102818,-40,4,1,0,80,0,0
102891,-40,4,2,0,20,0,0
103038,-40,4,1,0,80,0,0
103112,-40,4,2,0,20,0,0
103479,-40,4,1,0,80,0,0
103774,-40,4,2,0,20,0,0
104141,-40,4,1,0,80,0,0
104215,-40,4,2,0,20,0,0
104582,-40,4,1,0,80,0,0
104656,-40,4,2,0,20,0,0
104803,-40,4,1,0,80,0,0
104876,-40,4,2,0,20,0,0
105244,-40,4,1,0,80,0,0
105354,-40,4,2,0,20,0,0
105465,-40,4,1,0,80,0,0
105538,-40,4,2,0,20,0,0
105685,-40,4,1,0,80,0,0
105759,-40,4,2,0,20,0,0
105906,-40,4,1,0,80,0,0
105979,-40,4,2,0,20,0,0
106347,-40,4,1,0,80,0,0
106641,-40,4,2,0,20,0,0
107009,-40,4,1,0,80,0,0
107082,-40,4,2,0,20,0,0
107229,-40,4,1,0,80,0,0
107303,-40,4,2,0,20,0,0
107450,-40,4,1,0,80,0,0
107524,-40,4,2,0,20,0,0
107671,-40,4,1,0,80,0,0
107744,-40,4,2,0,20,0,0
108112,-40,4,1,0,80,0,0
108185,-40,4,2,0,20,0,0
108332,-40,4,1,0,80,0,0
108406,-40,4,2,0,20,0,0
108774,-40,4,1,0,80,0,0
108847,-40,4,2,0,20,0,0
108994,-40,4,1,0,80,0,0
109068,-40,4,2,0,20,0,0
109215,-40,4,1,0,80,0,0
109288,-40,4,2,0,20,0,0
109435,-40,4,1,0,80,0,0
109509,-40,4,2,0,20,0,0
109876,-40,4,1,0,80,0,0
110171,-40,4,2,0,20,0,0
110538,-40,4,1,0,80,0,0
110612,-40,4,2,0,20,0,0
110759,-40,4,1,0,80,0,0
110832,-40,4,2,0,20,0,0
110979,-40,4,1,0,80,0,0
111053,-40,4,2,0,20,0,0
111200,-40,4,1,0,80,0,0
111274,-40,4,2,0,20,0,0
111641,-40,4,1,0,80,0,0
111935,-40,4,2,0,20,0,0
112303,-40,4,1,0,80,0,0
112450,-40,4,2,0,20,0,0
112597,-40,4,1,0,80,0,0
114729,-40,4,2,0,20,0,0
115171,-40,4,1,0,80,0,0
115465,-40,4,2,0,20,0,0
115832,-40,4,1,0,80,0,0
116126,-40,4,2,0,20,0,0
116494,-40,4,1,0,80,0,0
116568,-40,4,2,0,20,0,0
116935,-40,4,1,0,80,0,0
117229,-40,4,2,0,20,0,0
117597,-40,4,1,0,80,0,0
117818,-40,4,2,0,20,0,0
118038,-40,4,1,0,80,0,0
118332,-40,4,2,0,20,0,0
118700,-40,4,1,0,80,0,0
118994,-40,4,2,0,20,0,0
119362,-40,4,1,0,80,0,0
119435,-40,4,2,0,20,0,0
119582,-40,4,1,0,80,0,0
119656,-40,4,2,0,20,0,0
119803,-40,4,1,0,80,0,0
119876,-40,4,2,0,20,0,0
120024,-40,4,1,0,80,0,0
120097,-40,4,2,0,20,0,0
120501,-40,4,1,0,80,0,0
120759,-40,4,2,0,20,0,0
121126,-40,4,1,0,80,0,0
121200,-40,4,2,0,20,0,0
121347,-40,4,1,0,80,0,0
121421,-40,4,2,0,20,0,0
121568,-40,4,1,0,80,0,0
121641,-40,4,2,0,20,0,0
121788,-40,4,1,0,80,0,0
121935,-40,4,2,0,20,0,0
122229,-40,4,1,0,80,0,0
122524,-40,4,2,0,20,0,0
122891,-40,4,1,0,80,0,0
122965,-40,4,2,0,20,0,0
123112,-40,4,1,0,80,0,0
123185,-40,4,2,0,20,0,0
123332,-40,4,1,0,80,0,0
123406,-40,4,2,0,20,0,0
123553,-40,4,1,0,80,0,0
123626,-40,4,2,0,20,0,0
123994,-40,4,1,0,80,0,0
124288,-33.3333333333333,4,2,0,20,0,0
124656,-33.3333333333333,4,1,0,80,0,0
124729,-33.3333333333333,4,2,0,20,0,0
124876,-40,4,1,0,80,0,0
124950,-33.3333333333333,4,2,0,20,0,0
125097,-33.3333333333333,4,1,0,80,0,0
125171,-33.3333333333333,4,2,0,20,0,0
125318,-33.3333333333333,4,1,0,80,0,0
125391,-33.3333333333333,4,2,0,20,0,0
125759,-33.3333333333333,4,1,0,80,0,0
126053,-33.3333333333333,4,2,0,20,0,0
126421,-33.3333333333333,4,1,0,80,0,0
126494,-33.3333333333333,4,2,0,20,0,0
126641,-33.3333333333333,4,1,0,80,0,0
126862,-25,4,1,0,80,0,0
128737,-200,4,1,0,50,0,0

[HitObjects]
135,160,1550,5,0,0:0:0:0:
175,133,1660,2,0,P|195:129|255:140,1,48.9999985046387
319,190,2432,5,0,0:0:0:0:
169,316,2873,1,0,0:0:0:0:
138,122,3314,1,0,0:0:0:0:
342,191,4197,5,0,0:0:0:0:
174,88,4638,1,0,0:0:0:0:
181,234,5079,5,0,0:0:0:0:
226,252,5189,1,0,0:0:0:0:
274,244,5299,1,0,0:0:0:0:
124,87,6402,5,0,0:0:0:0:
316,127,6844,1,0,0:0:0:0:
351,218,7064,1,0,0:0:0:0:
243,256,7726,5,0,0:0:0:0:
180,179,7947,2,0,P|206:118|258:101,1,97.9999970092774
354,171,8608,6,0,P|371:235|361:259,1,70
172,116,9491,5,0,0:0:0:0:
367,119,9932,1,0,0:0:0:0:
289,298,10373,1,0,0:0:0:0:
289,298,11255,5,0,0:0:0:0:
135,175,11697,1,0,0:0:0:0:
304,77,12138,2,0,P|383:101|393:119,1,97.9999970092774
353,232,13461,5,0,0:0:0:0:
157,232,13902,1,0,0:0:0:0:
160,189,15226,5,0,0:0:0:0:
224,114,15667,2,0,P|314:112|346:136,1,97.9999970092774
345,282,16549,5,0,0:0:0:0:
268,318,16770,2,0,P|196:304|163:256,1,125.999996154785
123,145,17432,1,0,0:0:0:0:
369,91,18094,1,0,0:0:0:0:
102,215,18755,5,0,0:0:0:0:
193,128,19197,1,0,0:0:0:0:
274,147,19417,1,0,0:0:0:0:
322,215,19638,1,0,0:0:0:0:
265,276,19858,1,0,0:0:0:0:
188,240,20079,1,0,0:0:0:0:
202,157,20299,2,0,B|241:107|297:104,1,83.9999974365235
342,157,20741,5,0,0:0:0:0:
367,236,20961,1,0,0:0:0:0:
321,306,21182,2,0,P|261:326|216:301,1,83.9999974365235
146,231,21623,1,0,0:0:0:0:
397,254,22285,5,0,0:0:0:0:
390,86,22726,2,0,P|319:44|286:42,1,83.9999974365235
112,188,23608,5,0,0:0:0:0:
238,298,24049,1,0,0:0:0:0:
368,191,24491,1,0,0:0:0:0:
308,131,24711,2,0,P|282:104|281:89,1,41.9999987182618
308,180,25042,2,0,P|282:207|281:222,1,41.9999987182618
201,185,25373,2,0,B|194:178|190:174|187:171|183:167|180:164|177:161|173:157|170:154|197:180|212:181,1,41.9999987182618
201,185,25594,2,0,P|228:211|243:212,1,41.9999987182618
212,129,25924,2,0,P|186:156|185:171,1,41.9999987182618
135,226,26255,2,0,B|128:219|124:215|121:212|117:208|114:205|111:202|107:198|104:195|78:222|77:237,1,41.9999987182618
135,226,26476,2,0,P|109:253|108:268,1,41.9999987182618
192,245,26807,2,0,P|218:272|219:287,1,41.9999987182618
295,241,27138,2,0,B|288:234|284:230|281:227|277:223|274:220|271:217|267:213|264:210|238:237|237:252,1,41.9999987182618
295,241,27358,2,0,P|269:268|268:283,1,41.9999987182618
347,242,27689,2,0,P|373:269|374:284,1,41.9999987182618
346,192,28020,2,0,B|339:185|335:181|332:178|328:174|325:171|322:168|318:164|315:161|341:134|342:119,1,41.9999987182618
346,192,28241,2,0,P|372:165|373:150,1,41.9999987182618
170,104,28902,6,0,P|240:77|268:82,1,83.9999974365235
365,120,29454,1,0,0:0:0:0:
369,245,29785,2,0,P|335:310|321:318,1,83.9999974365235
150,241,30667,5,0,0:0:0:0:
310,289,31108,1,0,0:0:0:0:
253,130,31549,1,0,0:0:0:0:
163,194,32432,5,0,0:0:0:0:
330,191,32873,1,0,0:0:0:0:
185,104,33314,2,0,L|135:68,2,41.9999987182618
332,137,34637,5,0,0:0:0:0:
175,75,35079,2,0,P|144:135|144:168,1,83.9999974365235
243,256,35961,5,0,0:0:0:0:
326,244,36182,2,0,P|343:184|336:150,1,83.9999974365235
208,81,36843,6,0,P|158:127|157:154,1,83.9999974365235
180,268,37726,5,0,0:0:0:0:
341,220,38167,1,0,0:0:0:0:
206,119,38608,1,0,0:0:0:0:
138,196,39490,5,0,0:0:0:0:
277,289,39932,1,0,0:0:0:0:
370,149,40373,2,0,P|351:107|296:76,1,83.9999974365235
256,263,41696,5,0,0:0:0:0:
256,95,42137,1,0,0:0:0:0:
349,194,43461,5,0,0:0:0:0:
212,96,43902,2,0,P|170:137|169:171,1,83.9999974365235
225,314,44784,5,0,0:0:0:0:
308,300,45005,2,0,P|329:251|300:188,1,125.999996154785
195,117,45667,1,0,0:0:0:0:
447,117,46329,1,0,0:0:0:0:
68,309,46990,5,0,0:0:0:0:
147,160,47432,1,0,0:0:0:0:
204,220,47652,1,0,0:0:0:0:
213,136,47873,1,0,0:0:0:0:
279,186,48093,1,0,0:0:0:0:
290,102,48314,1,0,0:0:0:0:
360,147,48534,2,0,B|373:209|344:253,1,83.9999974365235
311,301,48976,5,0,0:0:0:0:
257,236,49196,1,0,0:0:0:0:
339,219,49417,2,0,P|293:225|247:242,1,83.9999974365235
183,276,49858,1,0,0:0:0:0:
142,186,50520,5,0,0:0:0:0:
295,118,50961,2,0,P|224:76|191:74,1,83.9999974365235
110,189,51843,5,0,0:0:0:0:
254,102,52284,1,0,0:0:0:0:
397,190,52726,1,0,0:0:0:0:
308,131,52947,5,0,0:0:0:0:
281,101,53057,1,0,0:0:0:0:
308,180,53278,1,0,0:0:0:0:
281,209,53388,1,0,0:0:0:0:
201,185,53609,1,0,0:0:0:0:
230,211,53719,1,0,0:0:0:0:
201,185,53830,1,0,0:0:0:0:
230,211,53940,1,0,0:0:0:0:
212,129,54160,5,0,0:0:0:0:
185,158,54270,1,0,0:0:0:0:
135,226,54491,1,0,0:0:0:0:
108,255,54601,1,0,0:0:0:0:
135,226,54712,1,0,0:0:0:0:
108,255,54822,1,0,0:0:0:0:
192,245,55043,1,0,0:0:0:0:
218,274,55153,1,0,0:0:0:0:
295,241,55374,1,0,0:0:0:0:
268,270,55484,1,0,0:0:0:0:
295,241,55594,1,0,0:0:0:0:
268,270,55704,1,0,0:0:0:0:
347,242,55925,5,0,0:0:0:0:
373,271,56035,1,0,0:0:0:0:
346,192,56256,1,0,0:0:0:0:
372,162,56366,1,0,0:0:0:0:
346,192,56477,1,0,0:0:0:0:
372,162,56587,1,0,0:0:0:0:
198,279,57138,6,0,P|268:252|282:226,1,83.9999974365235
300,124,57689,1,0,0:0:0:0:
180,83,58021,2,0,P|129:145|132:156,1,83.9999974365235
106,215,64196,5,0,0:0:0:0:
133,135,64417,2,0,B|172:120|216:119,1,83.9999974365235
376,168,65079,1,0,0:0:0:0:
330,238,65299,1,0,0:0:0:0:
303,129,66182,5,0,0:0:0:0:
219,127,66402,1,0,0:0:0:0:
385,149,66844,2,0,P|385:203|357:243,1,83.9999974365235
121,192,67726,5,0,0:0:0:0:
158,116,67947,1,0,0:0:0:0:
237,89,68167,1,0,0:0:0:0:
376,182,68608,2,0,P|375:248|340:272,1,83.9999974365235
126,203,69932,5,0,0:0:0:0:
264,108,70373,1,0,0:0:0:0:
315,174,70594,1,0,0:0:0:0:
79,241,72356,5,0,0:0:0:0:
102,194,72487,1,0,0:0:0:0:
145,164,72597,1,0,0:0:0:0:
195,150,72707,1,0,0:0:0:0:
247,158,72818,1,0,0:0:0:0:
292,184,72928,1,0,0:0:0:0:
307,233,73038,1,0,0:0:0:0:
355,253,73149,1,0,0:0:0:0:
402,230,73259,1,0,0:0:0:0:
413,178,73369,1,0,0:0:0:0:
378,138,73479,1,0,0:0:0:0:
326,149,73590,1,0,0:0:0:0:
316,200,73700,1,0,0:0:0:0:
267,220,73810,5,0,0:0:0:0:
221,193,73921,1,0,0:0:0:0:
217,140,74031,1,0,0:0:0:0:
262,114,74141,1,0,0:0:0:0:
259,61,74252,1,0,0:0:0:0:
220,25,74362,1,0,0:0:0:0:
169,37,74472,5,0,0:0:0:0:
156,87,74582,1,0,0:0:0:0:
196,120,74693,1,0,0:0:0:0:
213,168,74802,1,0,0:0:0:0:
201,219,74913,1,0,0:0:0:0:
155,244,75023,1,0,0:0:0:0:
142,294,75133,1,0,0:0:0:0:
169,339,75244,1,0,0:0:0:0:
220,347,75354,1,0,0:0:0:0:
261,315,75464,1,0,0:0:0:0:
265,262,75575,1,0,0:0:0:0:
229,223,75685,1,0,0:0:0:0:
120,170,75796,5,0,0:0:0:0:
84,148,75906,1,0,0:0:0:0:
98,108,76016,1,0,0:0:0:0:
137,92,76127,1,0,0:0:0:0:
171,115,76237,1,0,0:0:0:0:
206,93,76347,1,0,0:0:0:0:
240,116,76457,1,0,0:0:0:0:
276,94,76568,1,0,0:0:0:0:
311,116,76678,1,0,0:0:0:0:
348,97,76788,1,0,0:0:0:0:
385,116,76899,5,0,0:0:0:0:
410,157,77009,1,0,0:0:0:0:
390,201,77119,1,0,0:0:0:0:
341,202,77229,1,0,0:0:0:0:
308,238,77340,1,0,0:0:0:0:
329,281,77450,1,0,0:0:0:0:
313,327,77560,1,0,0:0:0:0:
194,327,77671,5,0,0:0:0:0:
152,289,77781,1,0,0:0:0:0:
155,233,77891,1,0,0:0:0:0:
199,198,78002,1,0,0:0:0:0:
253,211,78112,1,0,0:0:0:0:
296,175,78222,1,0,0:0:0:0:
285,120,78332,1,0,0:0:0:0:
236,91,78443,1,0,0:0:0:0:
184,111,78553,1,0,0:0:0:0:
152,165,78663,1,0,0:0:0:0:
158,235,78774,1,0,0:0:0:0:
211,290,78884,1,0,0:0:0:0:
294,291,78994,1,0,0:0:0:0:
364,240,79104,1,0,0:0:0:0:
379,149,79215,1,0,0:0:0:0:
345,57,79325,5,0,0:0:0:0:
299,19,79435,1,0,0:0:0:0:
239,19,79546,1,0,0:0:0:0:
195,59,79656,1,0,0:0:0:0:
198,118,79766,1,0,0:0:0:0:
252,143,79877,1,0,0:0:0:0:
302,110,79987,1,0,0:0:0:0:
305,50,80097,1,0,0:0:0:0:
302,110,80207,1,0,0:0:0:0:
352,141,80318,1,0,0:0:0:0:
405,116,80428,5,0,0:0:0:0:
460,136,80538,1,0,0:0:0:0:
483,191,80649,1,0,0:0:0:0:
464,246,80759,1,0,0:0:0:0:
408,266,80869,1,0,0:0:0:0:
365,224,80979,1,0,0:0:0:0:
369,164,81090,1,0,0:0:0:0:
336,114,81200,1,0,0:0:0:0:
277,104,81310,1,0,0:0:0:0:
223,129,81421,1,0,0:0:0:0:
206,186,81531,5,0,0:0:0:0:
248,227,81641,1,0,0:0:0:0:
254,286,81752,1,0,0:0:0:0:
204,319,81862,1,0,0:0:0:0:
145,307,81972,1,0,0:0:0:0:
118,253,82082,5,0,0:0:0:0:
136,195,82193,1,0,0:0:0:0:
188,167,82303,1,0,0:0:0:0:
241,193,82413,1,0,0:0:0:0:
270,245,82524,1,0,0:0:0:0:
329,246,82634,1,0,0:0:0:0:
355,192,82744,1,0,0:0:0:0:
326,139,82854,1,0,0:0:0:0:
266,135,82965,5,0,0:0:0:0:
235,193,83075,1,0,0:0:0:0:
276,245,83185,1,0,0:0:0:0:
290,310,83296,1,0,0:0:0:0:
235,347,83406,1,0,0:0:0:0:
176,315,83516,1,0,0:0:0:0:
186,248,83627,1,0,0:0:0:0:
246,220,83737,1,0,0:0:0:0:
306,248,83847,1,0,0:0:0:0:
374,240,83957,1,0,0:0:0:0:
429,191,84068,5,0,0:0:0:0:
432,117,84178,1,0,0:0:0:0:
391,55,84288,1,0,0:0:0:0:
317,43,84399,1,0,0:0:0:0:
249,87,84509,1,0,0:0:0:0:
223,170,84619,1,0,0:0:0:0:
254,258,84729,1,0,0:0:0:0:
351,287,84840,1,0,0:0:0:0:
443,246,84950,1,0,0:0:0:0:
430,138,85060,5,0,0:0:0:0:
366,106,85171,1,0,0:0:0:0:
297,121,85281,1,0,0:0:0:0:
259,180,85391,1,0,0:0:0:0:
210,231,85502,1,0,0:0:0:0:
140,237,85612,1,0,0:0:0:0:
89,188,85722,1,0,0:0:0:0:
113,122,85832,1,0,0:0:0:0:
182,113,85943,1,0,0:0:0:0:
246,139,86053,1,0,0:0:0:0:
312,116,86163,1,0,0:0:0:0:
375,146,86274,1,0,0:0:0:0:
403,209,86384,1,0,0:0:0:0:
350,321,86494,5,0,0:0:0:0:
278,349,86604,1,0,0:0:0:0:
200,350,86715,1,0,0:0:0:0:
134,310,86825,1,0,0:0:0:0:
103,239,86935,1,0,0:0:0:0:
100,161,87046,1,0,0:0:0:0:
126,88,87156,1,0,0:0:0:0:
187,42,87266,1,0,0:0:0:0:
263,31,87376,1,0,0:0:0:0:
339,45,87487,1,0,0:0:0:0:
396,95,87597,1,0,0:0:0:0:
417,168,87707,1,0,0:0:0:0:
403,244,87818,1,0,0:0:0:0:
364,310,87928,1,0,0:0:0:0:
288,338,88038,5,0,0:0:0:0:
210,336,88149,1,0,0:0:0:0:
151,286,88259,1,0,0:0:0:0:
150,204,88369,1,0,0:0:0:0:
187,136,88479,1,0,0:0:0:0:
263,121,88590,1,0,0:0:0:0:
323,168,88700,1,0,0:0:0:0:
388,127,88810,1,0,0:0:0:0:
361,54,88921,1,0,0:0:0:0:
284,51,89031,1,0,0:0:0:0:
222,97,89141,5,0,0:0:0:0:
222,173,89251,1,0,0:0:0:0:
293,203,89362,1,0,0:0:0:0:
368,191,89472,1,0,0:0:0:0:
424,242,89582,1,0,0:0:0:0:
400,315,89693,1,0,0:0:0:0:
325,335,89803,1,0,0:0:0:0:
241,301,89913,5,0,0:0:0:0:
236,255,90024,1,0,0:0:0:0:
259,216,90134,1,0,0:0:0:0:
300,197,90244,1,0,0:0:0:0:
334,162,90354,1,0,0:0:0:0:
327,116,90465,1,0,0:0:0:0:
294,83,90575,1,0,0:0:0:0:
249,73,90685,1,0,0:0:0:0:
203,79,90796,1,0,0:0:0:0:
170,110,90906,1,0,0:0:0:0:
164,154,91016,1,0,0:0:0:0:
123,174,91126,1,0,0:0:0:0:
87,144,91237,1,0,0:0:0:0:
102,101,91347,1,0,0:0:0:0:
145,88,91457,1,0,0:0:0:0:
186,108,91568,1,0,0:0:0:0:
189,153,91678,1,0,0:0:0:0:
233,163,91788,1,0,0:0:0:0:
265,131,91899,5,0,0:0:0:0:
315,115,92009,1,0,0:0:0:0:
365,145,92119,1,0,0:0:0:0:
361,211,92229,1,0,0:0:0:0:
293,241,92340,1,0,0:0:0:0:
231,189,92450,1,0,0:0:0:0:
261,107,92560,1,0,0:0:0:0:
348,97,92671,1,0,0:0:0:0:
384,176,92781,1,0,0:0:0:0:
326,241,92891,1,0,0:0:0:0:
248,200,93001,1,0,0:0:0:0:
288,121,93112,1,0,0:0:0:0:
234,52,93222,1,0,0:0:0:0:
151,80,93332,1,0,0:0:0:0:
146,167,93443,5,0,0:0:0:0:
192,218,93553,1,0,0:0:0:0:
261,228,93663,1,0,0:0:0:0:
319,189,93774,1,0,0:0:0:0:
328,119,93884,1,0,0:0:0:0:
278,69,93994,1,0,0:0:0:0:
208,75,94104,1,0,0:0:0:0:
166,131,94215,1,0,0:0:0:0:
185,198,94325,1,0,0:0:0:0:
250,222,94435,1,0,0:0:0:0:
275,287,94546,1,0,0:0:0:0:
231,341,94656,1,0,0:0:0:0:
169,308,94766,5,0,0:0:0:0:
186,240,94876,1,0,0:0:0:0:
255,226,94987,1,0,0:0:0:0:
288,164,95097,1,0,0:0:0:0:
277,94,95207,1,0,0:0:0:0:
213,62,95318,1,0,0:0:0:0:
152,97,95428,1,0,0:0:0:0:
149,166,95538,1,0,0:0:0:0:
202,211,95649,1,0,0:0:0:0:
271,205,95759,1,0,0:0:0:0:
305,144,95869,1,0,0:0:0:0:
274,81,95979,1,0,0:0:0:0:
319,27,96090,1,0,0:0:0:0:
381,58,96200,1,0,0:0:0:0:
388,127,96310,1,0,0:0:0:0:
342,180,96421,1,0,0:0:0:0:
272,175,96531,1,0,0:0:0:0:
245,110,96641,1,0,0:0:0:0:
181,139,96751,5,0,0:0:0:0:
181,177,96862,1,0,0:0:0:0:
217,187,96972,1,0,0:0:0:0:
242,158,97082,1,0,0:0:0:0:
277,143,97193,1,0,0:0:0:0:
313,153,97303,1,0,0:0:0:0:
337,182,97413,1,0,0:0:0:0:
329,219,97524,1,0,0:0:0:0:
303,247,97634,1,0,0:0:0:0:
264,238,97744,1,0,0:0:0:0:
246,203,97854,1,0,0:0:0:0:
255,165,97965,1,0,0:0:0:0:
283,139,98075,1,0,0:0:0:0:
284,100,98185,1,0,0:0:0:0:
258,70,98296,1,0,0:0:0:0:
217,59,98406,1,0,0:0:0:0:
164,86,98516,1,0,0:0:0:0:
133,137,98626,5,0,0:0:0:0:
138,196,98737,1,0,0:0:0:0:
179,238,98847,1,0,0:0:0:0:
238,236,98957,1,0,0:0:0:0:
284,200,99068,1,0,0:0:0:0:
288,130,99178,1,0,0:0:0:0:
231,83,99288,1,0,0:0:0:0:
154,109,99399,1,0,0:0:0:0:
141,195,99509,1,0,0:0:0:0:
212,256,99619,1,0,0:0:0:0:
310,231,99729,5,0,0:0:0:0:
342,134,99840,1,0,0:0:0:0:
269,53,99950,1,0,0:0:0:0:
157,82,100060,1,0,0:0:0:0:
123,200,100171,1,0,0:0:0:0:
225,278,100281,1,0,0:0:0:0:
343,210,100391,1,0,0:0:0:0:
289,80,100501,1,0,0:0:0:0:
163,144,100612,2,0,L|141:178,1,29.1666666666667
136,195,100685,5,0,0:0:0:0:
133,253,100759,1,0,0:0:0:0:
170,297,100832,1,0,0:0:0:0:
226,314,100906,1,0,0:0:0:0:
282,299,100979,1,0,0:0:0:0:
330,265,101053,6,0,P|362:216|321:110,1,175
280,76,101347,1,0,0:0:0:0:
221,69,101421,1,0,0:0:0:0:
176,106,101494,1,0,0:0:0:0:
190,164,101568,1,0,0:0:0:0:
243,186,101641,1,0,0:0:0:0:
300,195,101715,2,0,L|345:201,1,29.1666666666667
358,195,101788,5,0,0:0:0:0:
397,151,101862,1,0,0:0:0:0:
395,93,101935,2,0,L|375:65,1,29.1666666666667
354,50,102009,5,0,0:0:0:0:
296,46,102082,1,0,0:0:0:0:
248,80,102156,2,0,L|256:109,1,29.1666666666667
267,135,102229,5,0,0:0:0:0:
268,193,102303,1,0,0:0:0:0:
258,250,102376,2,0,L|234:273,1,29.1666666666667
215,290,102450,5,0,0:0:0:0:
158,274,102524,1,0,0:0:0:0:
127,224,102597,1,0,0:0:0:0:
152,170,102671,1,0,0:0:0:0:
205,147,102744,1,0,0:0:0:0:
259,169,102818,2,0,L|298:204,1,29.1666666666667
302,208,102891,5,0,0:0:0:0:
360,215,102965,1,0,0:0:0:0:
399,172,103038,2,0,L|382:139,1,29.1666666666667
372,118,103112,5,0,0:0:0:0:
321,89,103185,1,0,0:0:0:0:
263,99,103259,1,0,0:0:0:0:
222,140,103332,1,0,0:0:0:0:
238,196,103406,1,0,0:0:0:0:
238,253,103479,2,0,P|222:283|88:289,1,175
69,242,103774,5,0,0:0:0:0:
85,186,103847,1,0,0:0:0:0:
121,140,103921,1,0,0:0:0:0:
177,126,103994,1,0,0:0:0:0:
231,148,104068,1,0,0:0:0:0:
274,186,104141,2,0,L|290:230,1,29.1666666666667
296,240,104215,5,0,0:0:0:0:
346,267,104288,1,0,0:0:0:0:
397,238,104362,1,0,0:0:0:0:
404,180,104435,1,0,0:0:0:0:
385,124,104509,1,0,0:0:0:0:
337,91,104582,2,0,L|299:83,1,29.1666666666667
279,93,104656,5,0,0:0:0:0:
226,116,104729,1,0,0:0:0:0:
205,170,104803,2,0,L|231:203,1,29.1666666666667
245,211,104876,5,0,0:0:0:0:
301,228,104950,1,0,0:0:0:0:
348,193,105024,1,0,0:0:0:0:
338,135,105097,1,0,0:0:0:0:
295,94,105171,1,0,0:0:0:0:
248,59,105244,2,0,L|211:36,1,29.1666666666667
193,36,105318,5,0,0:0:0:0:
143,65,105391,1,0,0:0:0:0:
136,123,105465,2,0,L|130:159,1,29.1666666666667
132,181,105538,5,0,0:0:0:0:
156,234,105612,1,0,0:0:0:0:
195,276,105685,2,0,L|247:287,1,29.1666666666667
252,289,105759,5,0,0:0:0:0:
301,259,105832,1,0,0:0:0:0:
343,218,105906,2,0,L|338:171,1,29.1666666666667
342,159,105979,5,0,0:0:0:0:
303,114,106053,1,0,0:0:0:0:
250,89,106126,1,0,0:0:0:0:
206,128,106200,1,0,0:0:0:0:
204,186,106274,1,0,0:0:0:0:
199,243,106347,2,0,P|163:313|68:310,1,175
32,273,106641,5,0,0:0:0:0:
25,214,106715,1,0,0:0:0:0:
46,160,106788,1,0,0:0:0:0:
88,119,106862,1,0,0:0:0:0:
144,107,106935,1,0,0:0:0:0:
196,132,107009,2,0,L|225:173,1,29.1666666666667
231,178,107082,5,0,0:0:0:0:
279,210,107156,1,0,0:0:0:0:
336,205,107229,2,0,L|351:165,1,29.1666666666667
346,147,107303,5,0,0:0:0:0:
307,103,107376,1,0,0:0:0:0:
252,125,107450,2,0,L|235:158,1,29.1666666666667
231,178,107524,5,0,0:0:0:0:
201,227,107597,1,0,0:0:0:0:
143,237,107671,2,0,L|119:208,1,29.1666666666667
110,188,107744,5,0,0:0:0:0:
115,129,107818,1,0,0:0:0:0:
159,91,107891,1,0,0:0:0:0:
217,90,107965,1,0,0:0:0:0:
262,125,108038,1,0,0:0:0:0:
260,183,108112,2,0,L|255:211,1,29.1666666666667
248,240,108185,5,0,0:0:0:0:
280,288,108259,1,0,0:0:0:0:
327,321,108332,2,0,L|360:340,1,29.1666666666667
381,330,108406,5,0,0:0:0:0:
425,293,108479,1,0,0:0:0:0:
445,238,108553,1,0,0:0:0:0:
443,180,108626,1,0,0:0:0:0:
416,127,108700,1,0,0:0:0:0:
365,97,108774,2,0,L|319:98,1,29.1666666666667
306,100,108847,5,0,0:0:0:0:
252,123,108921,1,0,0:0:0:0:
211,163,108994,2,0,L|211:207,1,29.1666666666667
211,222,109068,5,0,0:0:0:0:
180,270,109141,1,0,0:0:0:0:
137,310,109215,2,0,L|100:315,1,29.1666666666667
79,308,109288,5,0,0:0:0:0:
58,253,109362,1,0,0:0:0:0:
89,204,109435,2,0,L|131:197,1,29.1666666666667
147,203,109509,5,0,0:0:0:0:
199,227,109582,1,0,0:0:0:0:
257,227,109656,1,0,0:0:0:0:
308,201,109729,1,0,0:0:0:0:
315,142,109803,1,0,0:0:0:0:
294,94,109876,2,0,P|356:39|450:18,1,175
473,69,110171,5,0,0:0:0:0:
487,124,110244,1,0,0:0:0:0:
464,178,110318,1,0,0:0:0:0:
408,194,110391,1,0,0:0:0:0:
357,164,110465,1,0,0:0:0:0:
320,118,110538,2,0,L|291:97,1,29.1666666666667
266,99,110612,5,0,0:0:0:0:
211,118,110685,1,0,0:0:0:0:
167,157,110759,2,0,L|161:188,1,29.1666666666667
162,214,110832,5,0,0:0:0:0:
187,266,110906,1,0,0:0:0:0:
223,310,110979,2,0,L|262:322,1,29.1666666666667
281,319,111053,5,0,0:0:0:0:
336,302,111126,1,0,0:0:0:0:
387,274,111200,2,0,L|400:247,1,29.1666666666667
402,217,111274,5,0,0:0:0:0:
389,160,111347,1,0,0:0:0:0:
338,129,111421,1,0,0:0:0:0:
280,120,111494,1,0,0:0:0:0:
222,130,111568,1,0,0:0:0:0:
168,151,111641,6,0,P|77:207|44:265,1,175
88,303,111935,5,0,0:0:0:0:
143,322,112009,1,0,0:0:0:0:
200,324,112082,1,0,0:0:0:0:
252,298,112156,1,0,0:0:0:0:
292,257,112229,1,0,0:0:0:0:
310,201,112303,2,0,L|309:153,1,29.1666666666667
269,36,112450,5,0,0:0:0:0:
210,40,112524,1,0,0:0:0:0:
185,92,112597,2,0,L|191:134,1,29.1666666666667
217,204,112744,5,0,0:0:0:0:
193,288,112854,1,0,0:0:0:0:
278,270,112965,1,0,0:0:0:0:
217,204,113186,5,0,0:0:0:0:
278,270,113296,1,0,0:0:0:0:
193,288,113406,1,0,0:0:0:0:
217,204,113627,5,0,0:0:0:0:
193,288,113737,1,0,0:0:0:0:
278,270,113847,1,0,0:0:0:0:
217,204,114068,5,0,0:0:0:0:
278,270,114178,1,0,0:0:0:0:
193,288,114288,1,0,0:0:0:0:
225,206,114399,1,0,0:0:0:0:
38,277,114729,5,0,0:0:0:0:
82,314,114803,1,0,0:0:0:0:
136,334,114876,1,0,0:0:0:0:
194,340,114950,1,0,0:0:0:0:
252,336,115024,1,0,0:0:0:0:
306,316,115097,1,0,0:0:0:0:
359,291,115171,2,0,P|393:238|371:117,1,175
350,80,115465,5,0,0:0:0:0:
299,51,115538,1,0,0:0:0:0:
241,63,115612,1,0,0:0:0:0:
208,110,115685,1,0,0:0:0:0:
198,167,115759,1,0,0:0:0:0:
214,222,115832,5,0,0:0:0:0:
273,287,115944,1,0,0:0:0:0:
358,277,116053,1,0,0:0:0:0:
388,227,116126,5,0,0:0:0:0:
371,170,116200,1,0,0:0:0:0:
335,124,116273,1,0,0:0:0:0:
285,92,116347,1,0,0:0:0:0:
226,83,116421,1,0,0:0:0:0:
168,90,116494,2,0,L|134:114,1,29.1666666666667
133,134,116568,5,0,0:0:0:0:
125,191,116641,1,0,0:0:0:0:
138,248,116715,1,0,0:0:0:0:
182,284,116788,1,0,0:0:0:0:
240,282,116862,1,0,0:0:0:0:
282,242,116935,2,0,P|304:178|327:72,1,175
287,30,117229,5,0,0:0:0:0:
229,40,117303,1,0,0:0:0:0:
180,71,117376,1,0,0:0:0:0:
142,116,117450,1,0,0:0:0:0:
140,174,117524,1,0,0:0:0:0:
182,213,117597,6,0,P|242:216|285:181,1,116.666666666667
305,127,117818,5,0,0:0:0:0:
357,102,117891,1,0,0:0:0:0:
398,143,117965,1,0,0:0:0:0:
417,198,118039,1,0,0:0:0:0:
374,274,118149,1,0,0:0:0:0:
292,243,118259,1,0,0:0:0:0:
254,198,118332,5,0,0:0:0:0:
215,153,118406,1,0,0:0:0:0:
164,124,118479,1,0,0:0:0:0:
111,151,118553,1,0,0:0:0:0:
100,207,118626,1,0,0:0:0:0:
132,255,118700,2,0,P|231:253|295:191,1,175
319,158,118994,5,0,0:0:0:0:
311,99,119068,1,0,0:0:0:0:
270,57,119141,1,0,0:0:0:0:
211,54,119215,1,0,0:0:0:0:
167,92,119288,1,0,0:0:0:0:
167,150,119362,2,0,L|170:198,1,29.1666666666667
179,206,119435,5,0,0:0:0:0:
218,249,119509,1,0,0:0:0:0:
275,244,119582,2,0,L|275:198,1,29.1666666666667
278,184,119656,5,0,0:0:0:0:
281,126,119729,1,0,0:0:0:0:
315,78,119803,2,0,L|361:79,1,29.1666666666667
372,84,119876,5,0,0:0:0:0:
405,132,119950,1,0,0:0:0:0:
416,189,120024,2,0,L|412:227,1,29.1666666666667
408,247,120097,5,0,0:0:0:0:
360,281,120171,1,0,0:0:0:0:
303,291,120244,1,0,0:0:0:0:
248,270,120318,1,0,0:0:0:0:
206,229,120391,1,0,0:0:0:0:
197,170,120465,2,0,P|183:126|291:38,1,204.166666666667
313,49,120759,5,0,0:0:0:0:
358,84,120832,1,0,0:0:0:0:
390,132,120906,1,0,0:0:0:0:
365,184,120979,1,0,0:0:0:0:
308,200,121053,1,0,0:0:0:0:
256,227,121126,2,0,L|225:256,1,29.1666666666667
210,264,121200,5,0,0:0:0:0:
152,273,121274,1,0,0:0:0:0:
98,250,121347,2,0,L|97:212,1,29.1666666666667
99,190,121421,5,0,0:0:0:0:
129,139,121495,1,0,0:0:0:0:
185,124,121568,2,0,L|220:159,1,29.1666666666667
228,162,121641,5,0,0:0:0:0:
286,167,121715,1,0,0:0:0:0:
342,156,121788,2,0,L|342:115,1,29.1666666666667
341,96,121862,5,0,0:0:0:0:
301,48,121935,1,0,0:0:0:0:
242,42,122009,1,0,0:0:0:0:
186,57,122082,1,0,0:0:0:0:
142,96,122156,1,0,0:0:0:0:
108,143,122229,2,0,B|113:234|231:265,1,175
277,275,122524,5,0,0:0:0:0:
330,253,122597,1,0,0:0:0:0:
360,202,122671,1,0,0:0:0:0:
353,144,122744,1,0,0:0:0:0:
315,99,122818,1,0,0:0:0:0:
258,85,122891,2,0,L|216:85,1,29.1666666666667
199,89,122965,1,0,0:0:0:0:
169,139,123039,1,0,0:0:0:0:
141,189,123112,2,0,L|103:189,1,29.1666666666667
86,173,123185,1,0,0:0:0:0:
69,116,123259,1,0,0:0:0:0:
36,68,123332,2,0,L|-5:67,1,29.1666666666667
5,97,123406,1,0,0:0:0:0:
2,155,123480,1,0,0:0:0:0:
28,206,123553,2,0,L|70:214,1,29.1666666666667
85,212,123626,5,0,0:0:0:0:
134,179,123700,1,0,0:0:0:0:
176,138,123774,1,0,0:0:0:0:
232,125,123847,1,0,0:0:0:0:
287,144,123921,1,0,0:0:0:0:
326,186,123994,2,0,P|364:300|336:351,1,175
274,357,124288,5,0,0:0:0:0:
205,340,124362,1,0,0:0:0:0:
170,279,124435,1,0,0:0:0:0:
157,209,124509,1,0,0:0:0:0:
173,141,124582,1,0,0:0:0:0:
227,96,124656,2,0,L|279:100,1,35.0000013351441
293,114,124729,1,0,0:0:0:0:
314,180,124802,1,0,0:0:0:0:
323,237,124876,2,0,L|360:256,1,35.0000013351441
382,253,124950,1,0,0:0:0:0:
431,204,125023,1,0,0:0:0:0:
426,133,125097,2,0,L|393:103,1,35.0000013351441
365,103,125170,1,0,0:0:0:0:
299,126,125243,1,0,0:0:0:0:
245,171,125317,2,0,L|234:205,1,35.0000013351441
244,238,125391,5,0,0:0:0:0:
298,282,125465,1,0,0:0:0:0:
367,280,125538,1,0,0:0:0:0:
421,234,125612,1,0,0:0:0:0:
425,164,125685,1,0,0:0:0:0:
397,99,125759,2,0,P|339:63|218:130,1,210.000008010865
172,170,126053,5,0,0:0:0:0:
196,234,126126,1,0,0:0:0:0:
250,278,126200,1,0,0:0:0:0:
318,293,126274,1,0,0:0:0:0:
385,276,126347,1,0,0:0:0:0:
442,235,126421,2,0,L|436:193,1,35.0000013351441
440,165,126494,5,0,0:0:0:0:
409,101,126568,1,0,0:0:0:0:
351,62,126641,2,0,L|320:47,1,35.0000013351441
266,151,126862,5,0,0:0:0:0:
263,290,126972,1,0,0:0:0:0:
143,218,127082,1,0,0:0:0:0:
172,152,127303,5,0,0:0:0:0:
175,291,127413,1,0,0:0:0:0:
295,219,127523,1,0,0:0:0:0:
266,151,127744,5,0,0:0:0:0:
263,290,127854,1,0,0:0:0:0:
143,218,127964,1,0,0:0:0:0:
172,152,128185,5,0,0:0:0:0:
175,291,128295,1,0,0:0:0:0:
295,219,128405,1,0,0:0:0:0:
167,158,128516,1,0,0:0:0:0:
105,82,128847,6,0,P|63:221|130:283,1,245
158,281,130612,2,0,P|257:210|228:90,1,245
203,97,132376,2,0,P|154:181|231:296,1,245
261,300,134141,2,0,P|331:290|353:258,1,105
358,231,135024,2,0,P|325:158|298:147,1,105
273,136,135906,2,0,P|187:154|196:289,1,245
228,294,137671,2,0,P|310:171|252:124,1,245
226,121,139435,2,0,P|165:170|250:281,1,245
279,279,141200,2,0,P|326:112|119:217,1,525
256,192,144729,12,0,148700,0:0:0:0:
