osu file format v14

[General]
AudioFilename: audio.mp3
AudioLeadIn: 0
PreviewTime: -1
Countdown: 1
SampleSet: None
StackLeniency: 0.7
Mode: 0
LetterboxInBreaks: 0
WidescreenStoryboard: 0

[Editor]
DistanceSpacing: 1.2
BeatDivisor: 4
GridSize: 4
TimelineZoom: 1

[Metadata]
Title:5 Little SHREK Jumping On The Bed | Nursery Rhymes for Children | 3D Animation
TitleUnicode:5 Little SHREK Jumping On The Bed | Nursery Rhymes for Children | 3D Animation
Artist:TOYS in Japan
ArtistUnicode:TOYS in Japan
Creator:Samuel_Haus
Version:Shrek
Source:
Tags:Specky Jimmy Catch the beat fuck amlink and fantasy
BeatmapID:1053408
BeatmapSetID:494745

[Difficulty]
HPDrainRate:5
CircleSize:5
OverallDifficulty:5
ApproachRate:5
SliderMultiplier:1.4
SliderTickRate:1

[Events]
//Background and Video events
//Break Periods
2,37454,41218
2,58848,63693
//Storyboard Layer 0 (Background)
//Storyboard Layer 1 (Fail)
//Storyboard Layer 2 (Pass)
//Storyboard Layer 3 (Foreground)
//Storyboard Sound Samples

[TimingPoints]
7265.94680860406,834.492350486787,4,1,0,100,1,0

[HitObjects]
256,192,7232,12,0,13129,0:0:0:0:
160,264,13664,5,0,0:0:0:0:
340,144,14952,1,0,0:0:0:0:
168,140,15981,1,0,0:0:0:0:
316,280,17189,1,0,0:0:0:0:
244,120,18243,1,0,0:0:0:0:
244,196,18691,1,0,0:0:0:0:
244,196,19014,1,0,0:0:0:0:
244,196,19345,1,0,0:0:0:0:
144,288,22343,1,0,0:0:0:0:
352,172,23774,1,0,0:0:0:0:
196,176,24700,1,0,0:0:0:0:
308,276,25601,1,0,0:0:0:0:
240,112,26654,1,0,0:0:0:0:
172,256,30837,1,0,0:0:0:0:
172,108,31731,1,0,0:0:0:0:
324,100,32655,1,0,0:0:0:0:
324,260,33611,1,0,0:0:0:0:
152,248,34642,1,0,0:0:0:0:
156,112,35460,1,0,0:0:0:0:
316,112,36410,1,0,0:0:0:0:
332,252,37254,1,0,0:0:0:0:
256,192,42418,12,0,46599,0:0:0:0:
256,80,47683,5,0,0:0:0:0:
380,248,48938,1,0,0:0:0:0:
156,244,50275,1,0,0:0:0:0:
280,256,51024,1,0,0:0:0:0:
356,140,51857,1,0,0:0:0:0:
196,156,52832,1,0,0:0:0:0:
312,192,53569,1,0,0:0:0:0:
268,100,54182,1,0,0:0:0:0:
204,180,54806,1,0,0:0:0:0:
340,144,55656,1,0,0:0:0:0:
244,128,56236,1,0,0:0:0:0:
264,220,56800,1,0,0:0:0:0:
300,156,57250,1,0,0:0:0:0:
264,160,57467,1,0,0:0:0:0:
292,192,57725,1,0,0:0:0:0:
312,156,57974,1,0,0:0:0:0:
304,128,58156,1,0,0:0:0:0:
272,156,58418,1,0,0:0:0:0:
280,192,58648,1,0,0:0:0:0:
160,116,64893,6,0,L|228:208,2,105
324,256,67684,1,0,0:0:0:0:
268,208,68127,1,0,0:0:0:0:
340,216,68565,1,0,0:0:0:0:
304,156,68996,1,0,0:0:0:0:
252,204,69415,1,0,0:0:0:0:
312,248,69870,1,0,0:0:0:0:
344,208,70184,1,0,0:0:0:0:
288,164,70602,1,0,0:0:0:0:
248,100,71051,1,0,0:0:0:0:
264,256,71995,1,0,0:0:0:0:
256,116,72845,1,0,0:0:0:0:
264,280,73820,1,0,0:0:0:0:
256,136,74689,1,0,0:0:0:0:
256,176,74927,1,0,0:0:0:0:
256,140,75139,1,0,0:0:0:0:
256,176,75363,1,0,0:0:0:0:
256,176,75596,1,0,0:0:0:0:
256,176,76425,1,0,0:0:0:0:
312,216,76850,1,0,0:0:0:0:
168,236,77719,1,0,0:0:0:0:
240,228,78150,1,0,0:0:0:0:
184,204,78525,1,0,0:0:0:0:
252,204,78937,1,0,0:0:0:0:
212,144,79369,1,0,0:0:0:0:
224,176,79581,1,0,0:0:0:0:
260,168,79806,1,0,0:0:0:0:
236,148,79993,1,0,0:0:0:0:
204,164,80218,1,0,0:0:0:0:
460,240,81806,1,0,0:0:0:0:
436,232,81961,1,0,0:0:0:0:
404,224,82156,1,0,0:0:0:0:
344,208,82536,1,0,0:0:0:0:
276,188,82974,1,0,0:0:0:0:
244,180,83180,1,0,0:0:0:0:
244,180,83336,1,0,0:0:0:0:
276,188,83574,1,0,0:0:0:0:
276,188,83780,1,0,0:0:0:0:
276,188,84635,1,0,0:0:0:0:
276,188,85054,1,0,0:0:0:0:
276,188,85484,1,0,0:0:0:0:
276,188,85929,1,0,0:0:0:0:
276,188,86340,1,0,0:0:0:0:
276,188,86771,1,0,0:0:0:0:
276,188,87215,1,0,0:0:0:0:
276,188,88384,1,0,0:0:0:0:
276,188,88596,1,0,0:0:0:0:
276,188,88821,1,0,0:0:0:0:
276,188,89258,1,0,0:0:0:0:
276,188,89928,1,0,0:0:0:0:
276,188,89977,1,0,0:0:0:0:
276,188,90577,1,0,0:0:0:0:
276,188,90870,1,0,0:0:0:0:
276,188,91040,1,0,0:0:0:0:
276,188,91177,1,0,0:0:0:0:
276,188,91371,1,0,0:0:0:0:
276,188,91551,1,0,0:0:0:0:
276,188,91714,1,0,0:0:0:0:
276,188,91940,1,0,0:0:0:0:
276,188,92176,1,0,0:0:0:0:
276,188,92366,1,0,0:0:0:0:
156,120,93189,1,0,0:0:0:0:
180,140,93378,1,0,0:0:0:0:
212,148,93589,1,0,0:0:0:0:
244,148,93783,1,0,0:0:0:0:
356,224,94596,1,0,0:0:0:0:
284,220,95034,1,0,0:0:0:0:
324,172,95409,1,0,0:0:0:0:
260,164,95808,1,0,0:0:0:0:
200,220,96301,1,0,0:0:0:0:
228,220,96477,1,0,0:0:0:0:
260,204,96695,1,0,0:0:0:0:
228,188,96902,1,0,0:0:0:0:
192,188,97114,1,0,0:0:0:0:
