osu file format v14

[General]
AudioFilename: audio.mp3
AudioLeadIn: 0
PreviewTime: 14722
Countdown: 0
SampleSet: Soft
StackLeniency: 0.7
Mode: 0
LetterboxInBreaks: 0
WidescreenStoryboard: 0

[Editor]
Bookmarks: 14776,28490,55919,73061,86776,100490,121061,127919
DistanceSpacing: 0.2
BeatDivisor: 4
GridSize: 32
TimelineZoom: 1

[Metadata]
Title:Sumire
TitleUnicode:すみれの空
Artist:TOW
ArtistUnicode:TOW
Creator:GlaZe
Version:One Day, One Life
Source:すみれの空
Tags:オリジナル・サウンドトラック gametomo japanese video game ost ending no sora nue kai folk chitanda eru frozz -Keqing
BeatmapID:3635153
BeatmapSetID:1775243

[Difficulty]
HPDrainRate:5.5
CircleSize:6.4
OverallDifficulty:7
ApproachRate:7
SliderMultiplier:1.4
SliderTickRate:1

[Events]
//Background and Video events
0,0,"a.jpg",0,0
//Break Periods
//Storyboard Layer 0 (Background)
//Storyboard Layer 1 (Fail)
//Storyboard Layer 2 (Pass)
//Storyboard Layer 3 (Foreground)
//Storyboard Layer 4 (Overlay)
//Storyboard Sound Samples

[TimingPoints]
1062,857.142857142857,4,2,1,20,1,0
1062,-133.333333333333,4,2,1,20,0,0
7919,-100,4,2,1,30,0,0
14776,-83.3333333333333,4,2,1,45,0,1
28490,-100,4,2,1,30,0,0
55919,-100,4,2,1,40,0,0
73061,-125,4,2,1,20,0,0
79919,-100,4,2,1,30,0,0
86776,-83.3333333333333,4,2,1,45,0,1
100490,-100,4,2,1,40,0,0
127919,882.352941176471,4,2,1,20,1,0
127919,-133.333333333333,4,2,1,20,0,0
133294,983.606557377049,4,2,1,20,1,0
135261,1111.11111111111,4,2,1,15,1,0
136464,1333.33333333333,4,2,1,15,1,0
138470,923.076923076923,4,2,1,15,1,0
139297,923.076923076923,4,2,1,15,1,0
141604,-100,4,2,1,15,0,0
143508,1224.48979591837,4,2,1,10,1,0
146435,1224.48979591837,4,2,1,10,1,0

[Colours]
Combo1 : 230,98,181
Combo2 : 255,155,205
Combo3 : 145,145,200
Combo4 : 191,255,255

[HitObjects]
454,111,1062,6,0,B|465:41|556:85|506:144|463:170,1,157.500006008148,2|2,3:2|0:0,0:0:0:0:
477,160,2776,2,0,B|487:127|473:131|479:88,1,52.5000020027161,2|2,3:2|0:0,0:0:0:0:
448,0,3633,1,2,0:0:0:0:
157,362,4490,6,0,P|78:363|0:368,1,157.500006008148,2|2,3:2|0:0,0:0:0:0:
0,368,6204,2,0,P|9:344|33:337,1,52.5000020027161,2|2,3:2|0:0,0:0:0:0:
79,372,7061,1,2,3:2:0:0:
197,141,7919,6,0,B|181:175|201:171|179:208,1,70,2|2,3:2|3:2,0:0:0:0:
283,87,8776,2,0,P|251:80|209:60,1,70,2|2,3:2|0:0,0:0:0:0:
292,130,9633,2,0,P|274:61|215:66,1,140,2|2,3:2|3:2,0:0:0:0:
216,64,10919,1,2,0:0:0:0:
36,160,11347,6,0,P|28:91|18:22,1,140,2|2,3:2|3:2,0:0:0:0:
17,21,12633,1,2,0:0:0:0:
24,168,13061,2,0,P|42:139|76:134,1,70,2|0,3:2|3:2,0:0:0:0:
143,181,13919,1,2,3:2:0:0:
98,219,14133,1,0,0:0:0:0:
152,239,14347,1,0,3:2:0:0:
381,303,14776,6,0,B|366:349|389:325|362:384,1,83.9999974365235,2|2,1:2|0:0,0:0:0:0:
278,257,15419,1,0,1:2:0:0:
331,214,15633,2,0,P|358:207|388:197,1,41.9999987182618,8|0,0:0|0:0,0:0:0:0:
297,90,16061,2,0,L|291:131,1,41.9999987182618,2|0,1:2|0:0,0:0:0:0:
220,238,16490,2,0,P|161:223|141:166,1,125.999996154785,2|0,1:2|0:0,0:0:0:0:
320,112,17347,2,0,P|355:88|333:5,1,125.999996154785,8|0,0:1|3:2,0:0:0:0:
431,149,18204,6,0,P|409:184|400:225,1,83.9999974365235,2|0,1:2|3:2,0:0:0:0:
504,350,18847,1,0,1:2:0:0:
449,312,19061,2,0,P|445:332|442:353,1,41.9999987182618,10|0,0:0|0:0,0:0:0:0:
340,352,19489,2,0,L|375:376,1,41.9999987182618,2|0,1:2|0:0,0:0:0:0:
382,240,19919,2,0,P|355:209|314:208,1,83.9999974365235,2|2,1:2|0:0,0:0:0:0:
314,208,20561,1,0,1:2:0:0:
205,235,20776,2,0,P|160:233|136:198,1,83.9999974365235,8|0,0:1|1:2,0:0:0:0:
137,204,21419,1,0,3:2:0:0:
33,88,21633,6,0,L|72:102,1,41.9999987182618,2|0,1:2|0:0,0:0:0:0:
102,0,22061,2,0,P|82:18|70:41,1,41.9999987182618,2|0,3:2|1:2,0:0:0:0:
11,188,22490,2,0,P|21:169|28:150,1,41.9999987182618,10|0,0:0|0:0,0:0:0:0:
148,150,22919,2,0,P|135:129|121:92,1,41.9999987182618,2|0,1:2|0:0,0:0:0:0:
210,18,23347,6,0,B|258:17|240:1|291:0,1,83.9999974365235,2|0,1:2|3:2,0:0:0:0:
290,0,23990,1,0,0:0:0:0:
358,26,24204,2,0,P|354:46|337:57,1,41.9999987182618,8|0,0:1|3:2,0:0:0:0:
277,67,24633,1,2,1:2:0:0:
338,150,24847,1,0,3:2:0:0:
272,250,25061,6,0,P|281:304|333:284,1,125.999996154785,2|0,1:2|1:2,0:0:0:0:
390,200,25919,2,0,P|411:204|443:206,1,41.9999987182618,8|0,0:0|0:0,0:0:0:0:
414,304,26347,2,0,P|400:290|396:269,1,41.9999987182618,0|0,1:0|3:2,0:0:0:0:
457,144,26776,2,0,P|491:164|493:205,1,83.9999974365235,0|0,1:2|0:0,0:0:0:0:
431,206,27419,1,0,1:2:0:0:
431,206,27633,2,0,P|430:212|431:207,1,83.9999974365235,10|0,0:1|1:2,0:0:0:0:
0,274,28490,6,0,P|57:287|86:245,1,105,2|0,1:2|1:2,0:0:0:0:
69,191,29347,2,0,L|-7:184,1,70,8|2,0:0|1:2,0:0:0:0:
0,185,30204,2,0,B|17:139|-2:152|18:91,2,70,2|0|8,1:2|3:2|0:1,0:0:0:0:
133,61,31490,1,0,1:2:0:0:
182,93,31704,1,0,3:2:0:0:
242,68,31919,2,0,L|261:-34,1,70,2|2,1:2|0:0,0:0:0:0:
290,195,32776,2,0,L|275:98,1,70,10|2,0:0|1:2,0:0:0:0:
333,245,33633,2,0,L|325:384,1,140,2|8,1:2|0:1,0:0:0:0:
497,156,34919,5,0,1:2:0:0:
443,175,35133,1,0,3:2:0:0:
390,194,35347,2,0,P|341:167|274:181,1,105,2|0,1:2|1:2,0:0:0:0:
244,194,36204,1,8,0:0:0:0:
174,90,36633,1,2,1:2:0:0:
51,186,37061,2,0,L|120:183,1,70,2|0,1:2|3:2,0:0:0:0:
19,81,37704,1,0,1:2:0:0:
19,81,37919,2,0,P|-2:108|0:142,1,70,8|2,0:1|1:2,0:0:0:0:
148,91,38776,6,0,P|173:41|150:-3,1,105,2|0,1:2|1:2,0:0:0:0:
216,103,39633,2,0,P|245:84|280:84,1,70,10|2,0:0|1:2,0:0:0:0:
412,0,40490,2,0,P|428:30|439:63,1,70,2|2,1:2|3:2,0:0:0:0:
466,216,41133,1,0,1:2:0:0:
466,216,41347,2,0,P|494:196|512:166,1,70,10|0,0:1|1:2,0:0:0:0:
492,64,41990,1,0,3:2:0:0:
419,168,42204,6,0,B|352:162|375:179|314:169,1,105,2|0,1:2|1:2,0:0:0:0:
279,251,43061,2,0,P|261:221|235:196,1,70,10|2,0:0|1:2,0:0:0:0:
80,194,43919,2,0,P|99:147|102:79,1,105,2|0,1:2|1:2,0:0:0:0:
103,93,44776,2,0,P|93:126|94:161,1,70,8|2,0:1|1:2,0:0:0:0:
113,277,45419,1,0,3:2:0:0:
69,317,45633,6,0,P|35:317|0:323,1,70,2|0,1:2|3:2,0:0:0:0:
143,384,46490,1,10,0:0:0:0:
331,306,46919,1,2,1:2:0:0:
277,287,47133,1,0,3:2:0:0:
281,230,47347,2,0,P|304:211|355:207,1,70,2|2,1:2|3:2,0:0:0:0:
245,103,48204,1,8,0:1:0:0:
203,139,48419,1,0,3:2:0:0:
149,140,48633,1,0,1:2:0:0:
105,105,48847,1,0,3:2:0:0:
115,49,49061,6,0,L|186:31,1,70,2|2,1:2|3:2,0:0:0:0:
277,142,49919,2,0,L|268:55,1,70,10|2,0:0|1:2,0:0:0:0:
440,0,50776,2,0,L|379:36,1,70,2|0,1:2|3:2,0:0:0:0:
402,169,51633,2,0,P|376:147|375:113,1,70,8|2,0:1|1:2,0:0:0:0:
449,67,52276,1,0,3:2:0:0:
482,113,52490,6,0,P|474:145|473:231,1,105,2|0,1:2|1:2,0:0:0:0:
413,254,53347,2,0,P|378:256|344:262,1,70,10|2,0:0|1:2,0:0:0:0:
254,382,54204,2,0,L|277:356,1,35,2|0,1:2|0:0,0:0:0:0:
278,291,54633,2,0,L|264:258,1,35,0|0,3:2|1:2,0:0:0:0:
352,151,55061,1,10,0:1:0:0:
299,186,55276,1,0,3:2:0:0:
237,185,55490,1,0,1:2:0:0:
183,219,55704,1,0,3:2:0:0:
118,200,55919,6,0,B|55:239|83:200|22:232|22:232|87:164|65:105,1,245,2|0,1:2|0:0,0:0:0:0:
168,70,57633,2,0,B|122:-6|268:-51|280:126,1,245,2|0,1:2|3:2,0:0:0:0:
254,227,59347,2,0,B|172:364|281:340|263:231,1,210,2|0,1:2|1:2,0:0:0:0:
349,192,60847,1,0,0:0:0:0:
402,165,61061,2,0,P|436:172|471:175,2,70,0|0|10,1:2|3:2|0:1,0:0:0:0:
361,119,62133,1,0,0:0:0:0:
361,119,62347,1,0,1:2:0:0:
344,309,62776,6,0,B|298:303|313:218|428:389|420:359|433:293|558:359|454:372,1,245,2|0,1:2|0:0,0:0:0:0:
430,278,64490,2,0,B|395:229|433:164|455:203|496:126|449:73,1,210,2|0,1:2|1:2,0:0:0:0:
394,27,65990,5,0,3:2:0:0:
394,27,66204,2,0,P|441:27|428:-4,1,70,2|2,1:2|3:2,0:0:0:0:
329,86,66847,1,0,1:2:0:0:
329,86,67061,2,0,L|288:73,1,35,10|0,0:0|0:0,0:0:0:0:
245,31,67490,2,0,L|269:-18,1,35,2|0,1:2|0:0,0:0:0:0:
337,0,67919,2,0,P|373:17|422:34,1,70,2|0,1:2|3:2,0:0:0:0:
401,27,68776,2,0,P|368:39|336:54,1,70,10|2,0:1|0:0,0:0:0:0:
512,304,69633,5,2,1:2:0:0:
244,252,70490,1,8,0:0:0:0:
7,215,71347,1,8,0:1:0:0:
27,350,73061,6,0,B|101:341|60:320|139:304,1,112,2|2,0:0|3:2,0:0:0:0:
127,306,74347,1,2,0:0:0:0:
105,368,74776,2,0,P|76:354|69:325,1,56,2|2,3:2|0:0,0:0:0:0:
94,225,75633,1,2,0:0:0:0:
94,225,75847,1,0,3:2:0:0:
94,225,76061,1,0,3:2:0:0:
218,375,76490,6,0,P|257:372|238:301,1,112,2|2,3:2|3:2,0:0:0:0:
261,311,77776,1,2,0:0:0:0:
301,267,78204,2,0,P|323:291|319:331,1,56,2|2,3:2|0:0,0:0:0:0:
294,361,79061,1,2,0:0:0:0:
294,361,79276,1,0,3:2:0:0:
294,361,79490,1,0,3:2:0:0:
512,257,79919,6,0,P|480:243|445:238,1,70,2|2,3:2|0:0,0:0:0:0:
364,126,80776,2,0,P|378:90|381:58,1,70,2|2,0:0|0:0,0:0:0:0:
449,222,81633,2,0,P|444:256|449:292,2,70,2|0|0,3:2|3:0|3:0,0:0:0:0:
492,178,82704,1,0,3:0:0:0:
492,178,82919,1,2,0:0:0:0:
383,270,83347,6,0,P|342:213|259:245,1,140,2|2,3:2|3:2,0:0:0:0:
279,220,84633,2,0,P|300:232|327:227,1,35,2|0,0:0|0:0,0:0:0:0:
360,330,85061,2,0,P|394:335|426:348,1,70,2|2,3:2|0:0,0:0:0:0:
279,322,85919,1,8,1:3:0:0:
242,366,86133,1,8,0:3:0:0:
183,364,86347,1,4,0:3:0:0:
149,311,86561,1,4,0:3:0:0:
158,249,86776,6,0,B|204:234|239:230,1,83.9999974365235,2|2,1:2|0:0,0:0:0:0:
106,118,87419,1,0,1:2:0:0:
52,168,87633,2,0,P|39:186|28:204,1,41.9999987182618,8|0,0:0|0:0,0:0:0:0:
88,50,88061,2,0,P|83:32|82:9,1,41.9999987182618,2|0,1:2|3:2,0:0:0:0:
173,139,88490,6,0,B|234:140|200:127|273:132,1,83.9999974365235,2|2,1:2|0:0,0:0:0:0:
256,131,89133,1,0,0:0:0:0:
174,207,89347,1,8,0:1:0:0:
178,264,89561,1,0,3:2:0:0:
228,292,89776,1,0,1:2:0:0:
278,274,89990,1,0,0:0:0:0:
397,372,90204,6,0,P|355:375|302:385,1,83.9999974365235,2|0,1:2|0:0,0:0:0:0:
221,221,90847,1,0,1:2:0:0:
285,232,91061,2,0,P|281:252|278:273,1,41.9999987182618,10|0,0:0|0:0,0:0:0:0:
164,250,91489,2,0,P|141:242|129:226,1,41.9999987182618,2|0,1:2|3:2,0:0:0:0:
227,120,91919,2,0,P|186:121|159:152,1,83.9999974365235,2|2,1:2|0:0,0:0:0:0:
284,146,92561,1,0,1:2:0:0:
339,145,92775,1,8,0:1:0:0:
382,111,92989,1,0,3:2:0:0:
394,56,93203,1,0,1:2:0:0:
368,9,93418,1,0,3:2:0:0:
497,142,93633,6,0,P|473:149|458:156,1,41.9999987182618,2|0,1:2|0:0,0:0:0:0:
361,211,94061,2,0,P|385:218|400:225,1,41.9999987182618,2|0,3:2|1:2,0:0:0:0:
434,58,94490,2,0,P|445:75|450:95,1,41.9999987182618,10|0,0:0|0:0,0:0:0:0:
504,240,94919,2,0,P|485:229|465:225,1,41.9999987182618,2|0,1:2|3:2,0:0:0:0:
355,277,95347,6,0,B|320:278|274:295,1,83.9999974365235,2|0,1:2|3:2,0:0:0:0:
216,264,95990,1,0,0:0:0:0:
172,372,96204,2,0,P|180:352|188:333,1,41.9999987182618,8|0,0:1|3:2,0:0:0:0:
168,196,96633,1,2,1:2:0:0:
53,231,96847,1,0,0:0:0:0:
124,57,97061,6,0,B|126:133|104:111|102:183,1,125.999996154785,2|0,1:2|1:2,0:0:0:0:
240,129,97919,1,8,0:0:0:0:
197,69,98133,1,0,0:0:0:0:
311,48,98347,2,0,B|290:53|270:58,1,41.9999987182618,0|0,1:0|3:2,0:0:0:0:
89,0,98776,2,0,P|129:8|170:14,1,83.9999974365235,0|0,1:2|3:2,0:0:0:0:
300,118,99419,1,0,1:2:0:0:
126,100,99633,2,0,P|185:110|208:166,1,125.999996154785,8|0,0:1|3:2,0:0:0:0:
386,79,100490,6,0,P|332:82|298:119,1,105,0|0,1:2|1:2,0:0:0:0:
354,241,101347,2,0,P|362:226|367:209,1,35,8|0,0:0|0:0,0:0:0:0:
299,117,101776,2,0,P|290:131|285:148,1,35,0|0,1:2|3:2,0:0:0:0:
354,241,102204,2,0,P|375:251|437:221,1,70,0|0,1:2|3:2,0:0:0:0:
300,322,103061,2,0,P|266:320|219:353,1,70,8|0,0:1|1:2,0:0:0:0:
174,384,103704,1,0,3:2:0:0:
174,384,103919,6,0,B|144:319|169:333|149:278,1,105,0|0,1:2|1:2,0:0:0:0:
51,238,104776,2,0,P|68:243|86:244,1,35,8|0,0:0|0:0,0:0:0:0:
175,182,105204,2,0,P|157:182|140:187,1,35,0|0,1:2|3:2,0:0:0:0:
27,120,105633,2,0,P|57:135|92:130,1,70,0|0,1:2|3:2,0:0:0:0:
92,130,106490,1,10,0:1:0:0:
92,130,106704,1,0,0:0:0:0:
139,86,106919,1,0,1:2:0:0:
199,97,107133,1,0,3:2:0:0:
310,49,107347,5,0,1:2:0:0:
209,156,107776,1,0,3:2:0:0:
342,210,108204,1,8,0:0:0:0:
209,157,108633,1,0,1:2:0:0:
128,291,109061,2,0,P|75:333|10:314,1,140,0|8,1:2|0:1,0:0:0:0:
165,239,110347,5,0,1:2:0:0:
165,239,110561,1,0,3:2:0:0:
165,239,110776,2,0,P|215:230|250:278,1,105,0|0,1:2|1:2,0:0:0:0:
306,176,111633,2,0,P|307:232|302:246,1,70,8|0,0:0|1:2,0:0:0:0:
360,128,112276,1,0,3:2:0:0:
360,128,112490,2,0,P|370:141|381:168,1,35,0|0,1:2|0:0,0:0:0:0:
371,257,112919,2,0,P|381:244|392:217,1,35,0|0,3:2|1:2,0:0:0:0:
437,125,113347,2,0,P|468:113|504:107,1,70,10|0,0:1|1:2,0:0:0:0:
349,70,113990,5,0,3:2:0:0:
349,70,114204,2,0,P|285:51|239:59,1,105,0|0,1:2|1:2,0:0:0:0:
168,0,115061,2,0,P|169:15|167:34,1,35,8|0,0:0|0:0,0:0:0:0:
143,145,115490,2,0,P|152:120|155:98,1,35,0|0,1:2|3:2,0:0:0:0:
262,150,115919,2,0,P|226:152|198:175,1,70,0|0,1:2|3:2,0:0:0:0:
114,259,116776,2,0,P|80:253|58:227,1,70,8|0,0:1|1:2,0:0:0:0:
143,101,117419,1,0,3:2:0:0:
143,101,117634,6,0,P|142:155|148:224,1,105,0|0,1:2|1:2,0:0:0:0:
219,299,118491,2,0,P|201:298|184:293,1,35,8|0,0:0|0:0,0:0:0:0:
283,240,118919,2,0,P|299:235|317:234,1,35,0|0,1:2|3:2,0:0:0:0:
365,345,119348,2,0,P|332:335|316:305,1,70,0|0,1:2|3:2,0:0:0:0:
316,305,120204,1,10,0:1:0:0:
458,235,120633,5,0,1:2:0:0:
458,235,120847,1,0,3:2:0:0:
395,249,121061,1,0,1:2:0:0:
467,117,121490,1,0,3:2:0:0:
333,56,121919,1,8,0:0:0:0:
275,192,122347,1,0,1:2:0:0:
429,44,122776,2,0,P|361:42|291:28,1,140,0|8,1:2|0:1,0:0:0:0:
165,133,124061,1,0,1:2:0:0:
206,273,124490,6,0,B|145:295|164:269|78:291,1,105,0|0,1:2|1:2,0:0:0:0:
0,193,125347,1,8,0:0:0:0:
49,218,125561,1,0,0:0:0:0:
56,319,125776,1,0,1:2:0:0:
0,342,125990,1,0,3:2:0:0:
0,193,126204,2,0,P|5:157|18:109,1,70,0|0,1:2|3:2,0:0:0:0:
85,229,126847,1,0,1:2:0:0:
85,229,127061,2,0,L|105:185,1,35,10|0,0:1|0:0,0:0:0:0:
184,267,127490,2,0,L|168:217,1,35,0|0,1:2|3:2,0:0:0:0:
255,321,127919,6,0,P|349:343|391:256,1,210.000008010865,2|2,0:0|0:0,0:0:0:0:
391,256,131449,1,2,0:0:0:0:
6,120,133294,5,2,0:0:0:0:
44,174,134277,1,2,0:0:0:0:
339,25,135261,5,2,0:0:0:0:
242,134,135816,1,2,0:0:0:0:
314,262,136464,1,2,0:0:0:0:
138,322,137797,5,2,0:0:0:0:
238,344,138470,1,2,0:0:0:0:
338,366,139297,1,2,0:0:0:0:
58,26,141604,5,2,0:0:0:0:
73,83,142527,1,2,0:0:0:0:
88,139,143508,1,2,0:0:0:0:
104,197,144732,1,2,0:0:0:0:
121,252,146435,1,2,0:0:0:0:
