osu file format v14

[General]
AudioFilename: audio.mp3
AudioLeadIn: 0
PreviewTime: 14722
Countdown: 0
SampleSet: Soft
StackLeniency: 0.7
Mode: 0
LetterboxInBreaks: 0
WidescreenStoryboard: 1

[Editor]
Bookmarks: 14776,28490,55919,73061,86776,100490,121061,127919
DistanceSpacing: 0.2
BeatDivisor: 4
GridSize: 32
TimelineZoom: 1

[Metadata]
Title:Sumire
TitleUnicode:すみれの空
Artist:TOW
ArtistUnicode:TOW
Creator:GlaZe
Version:Chitanda's Normal
Source:すみれの空
Tags:オリジナル・サウンドトラック gametomo japanese video game ost ending no sora nue kai folk chitanda eru frozz -Keqing
BeatmapID:3678670
BeatmapSetID:1775243

[Difficulty]
HPDrainRate:4
CircleSize:5
OverallDifficulty:4
ApproachRate:4
SliderMultiplier:1.2
SliderTickRate:1

[Events]
//Background and Video events
0,0,"a.jpg",0,0
//Break Periods
//Storyboard Layer 0 (Background)
//Storyboard Layer 1 (Fail)
//Storyboard Layer 2 (Pass)
//Storyboard Layer 3 (Foreground)
//Storyboard Layer 4 (Overlay)
//Storyboard Sound Samples

[TimingPoints]
1062,857.142857142857,4,2,1,20,1,0
1062,-125,4,2,1,20,0,0
7919,-111.111111111111,4,2,1,30,0,0
14776,-100,4,2,1,45,0,1
28490,-111.111111111111,4,2,1,30,0,0
55919,-111.111111111111,4,2,1,40,0,0
73061,-125,4,2,1,20,0,0
79919,-111.111111111111,4,2,1,30,0,0
86776,-100,4,2,1,45,0,1
100490,-125,4,2,1,40,0,0
127919,882.352941176471,4,2,1,20,1,0
127919,-133.333333333333,4,2,1,20,0,0
133294,983.606557377049,4,2,1,20,1,0
135261,1111.11111111111,4,2,1,15,1,0
136464,1333.33333333333,4,2,1,15,1,0
138470,923.076923076923,4,2,1,15,1,0
139297,923.076923076923,4,2,1,15,1,0
141604,-100,4,2,1,15,0,0
143508,1224.48979591837,4,2,1,10,1,0
146435,1224.48979591837,4,2,1,10,1,0

[Colours]
Combo1 : 230,98,181
Combo2 : 255,155,205
Combo3 : 145,145,200
Combo4 : 191,255,255

[HitObjects]
123,50,1062,6,0,L|141:153,1,96,2|2,3:2|0:0,0:0:0:0:
105,210,2347,1,2,0:0:0:0:
169,258,2776,2,0,L|220:268,2,48,2|2|2,3:2|0:0|0:0,0:0:0:0:
218,150,4490,6,0,P|257:117|312:130,1,96,2|2,3:2|0:0,0:0:0:0:
361,170,5776,1,2,0:0:0:0:
426,126,6204,2,0,L|419:69,2,48,2|2|2,3:2|0:0|3:2,0:0:0:0:
445,257,7919,6,0,B|389:249|401:292|334:290,1,107.999996704102,2|2,3:2|3:2,0:0:0:0:
268,244,9204,1,2,0:0:0:0:
335,175,9633,2,0,P|347:125|322:64,1,107.999996704102,2|2,3:2|3:2,0:0:0:0:
265,31,10919,1,2,0:0:0:0:
194,87,11347,6,0,B|145:98|145:98|120:120|120:120|85:126,1,107.999996704102,2|2,3:2|3:2,0:0:0:0:
35,184,12633,1,2,0:0:0:0:
101,229,13061,2,0,P|117:257|99:328,1,107.999996704102,2|2,3:2|3:2,0:0:0:0:
19,307,14347,1,0,3:2:0:0:
41,219,14776,6,0,L|113:231,1,60,2|2,1:2|0:0,0:0:0:0:
144,215,15419,1,0,1:2:0:0:
144,215,15633,2,0,L|217:226,1,60,8|2,0:0|1:2,0:0:0:0:
317,235,16490,2,0,L|303:318,2,60,2|2|8,1:2|0:0|0:1,0:0:0:0:
399,159,17776,1,0,1:2:0:0:
323,73,18204,6,0,P|277:56|228:87,1,90,2|0,1:2|1:2,0:0:0:0:
207,93,19061,2,0,P|172:106|139:95,1,60,10|2,0:0|1:2,0:0:0:0:
55,68,19919,2,0,L|43:-3,2,60,2|2|8,1:2|0:0|0:1,0:0:0:0:
13,175,21204,1,0,1:2:0:0:
100,256,21633,5,2,1:2:0:0:
171,179,22061,1,2,3:2:0:0:
255,258,22490,1,10,0:0:0:0:
177,336,22919,1,2,1:2:0:0:
272,367,23347,6,0,B|346:369|320:318|401:327,1,120,2|8,1:2|0:1,0:0:0:0:
473,359,24633,1,2,1:2:0:0:
507,280,25061,2,0,P|490:224|512:169,2,120,2|8|0,1:2|0:0|1:2,0:0:0:0:
352,250,27633,1,10,0:1:0:0:
203,281,28490,6,0,B|161:291|161:291|135:314|135:314|90:327,1,107.999996704102,2|8,1:2|0:0,0:0:0:0:
28,290,29776,1,2,1:2:0:0:
58,212,30204,2,0,L|76:80,1,107.999996704102,2|8,1:2|0:1,0:0:0:0:
247,35,31919,5,2,1:2:0:0:
183,104,32347,1,2,0:0:0:0:
228,186,32776,1,10,0:0:0:0:
319,168,33204,1,2,1:2:0:0:
325,67,33633,2,0,B|392:22|382:66|443:19,1,107.999996704102,2|8,1:2|0:1,0:0:0:0:
504,87,34919,1,0,1:2:0:0:
413,156,35347,6,0,B|445:177|445:177|366:185,1,107.999996704102,2|8,1:2|0:0,0:0:0:0:
290,155,36633,1,2,1:2:0:0:
215,198,37061,2,0,P|190:247|220:297,1,107.999996704102,2|8,1:2|0:1,0:0:0:0:
295,339,38347,1,2,1:2:0:0:
372,272,38776,6,0,B|421:279|421:279|443:272|443:272|483:277,1,107.999996704102,2|10,1:2|0:0,0:0:0:0:
410,199,40061,1,2,1:2:0:0:
316,216,40490,2,0,P|281:233|248:235,2,53.9999983520508,2|2|10,1:2|3:2|0:1,0:0:0:0:
319,125,41776,1,0,1:2:0:0:
254,47,42204,6,0,L|139:71,1,107.999996704102,2|10,1:2|0:0,0:0:0:0:
50,50,43490,1,2,1:2:0:0:
79,136,43919,2,0,P|91:181|60:244,1,107.999996704102,2|8,1:2|0:1,0:0:0:0:
1,304,45204,1,2,1:2:0:0:
91,348,45633,6,0,B|142:298|152:344|197:290,1,107.999996704102,2|10,1:2|0:0,0:0:0:0:
238,226,46919,1,2,1:2:0:0:
166,175,47347,2,0,L|102:168,2,53.9999983520508,2|2|8,1:2|3:2|0:1,0:0:0:0:
233,108,48633,1,0,1:2:0:0:
310,58,49061,6,0,P|346:49|379:60,1,53.9999983520508,2|2,1:2|3:2,0:0:0:0:
444,88,49919,2,0,L|438:154,1,53.9999983520508,10|2,0:0|1:2,0:0:0:0:
386,214,50776,1,2,1:2:0:0:
211,148,51633,1,8,0:1:0:0:
126,104,52061,1,2,1:2:0:0:
37,146,52490,2,0,L|50:271,1,107.999996704102,2|10,1:2|0:0,0:0:0:0:
120,316,53776,1,2,1:2:0:0:
200,249,54204,2,0,B|264:240|248:286|315:273,1,107.999996704102,2|10,1:2|0:1,0:0:0:0:
374,211,55490,1,0,1:2:0:0:
337,116,55919,6,0,B|342:67|398:42|398:42|455:72|435:157,2,215.999993408203,2|2|2,1:2|1:2|1:2,0:0:0:0:
259,168,59776,1,0,3:2:0:0:
193,114,60204,1,8,0:0:0:0:
251,46,60633,1,0,1:2:0:0:
170,3,61061,2,0,L|53:26,1,107.999996704102,0|10,1:2|0:1,0:0:0:0:
6,101,62347,1,0,1:2:0:0:
74,153,62776,6,0,B|170:155|134:203|241:200,1,161.999995056153,2|0,1:2|1:2,0:0:0:0:
301,139,64490,2,0,B|397:137|361:89|468:92,1,161.999995056153,2|0,1:2|1:2,0:0:0:0:
389,15,66204,1,2,1:2:0:0:
296,51,66633,1,2,3:2:0:0:
201,24,67061,1,10,0:0:0:0:
105,65,67490,1,2,1:2:0:0:
155,155,67919,6,0,B|216:118|245:174|245:174|302:138|339:192,1,215.999993408203,2|2,1:2|1:2,0:0:0:0:
373,274,70490,1,8,0:0:0:0:
316,348,71347,1,8,0:1:0:0:
316,348,73061,6,0,L|205:327,1,96,2|2,0:0|3:2,0:0:0:0:
165,278,74347,1,2,0:0:0:0:
219,219,74776,2,0,L|243:161,2,48,2|2|2,3:2|0:0|0:0,0:0:0:0:
117,137,76490,6,0,P|126:78|169:49,1,96,2|2,3:2|3:2,0:0:0:0:
221,24,77776,1,2,0:0:0:0:
271,83,78204,2,0,L|337:103,2,48,2|2|2,3:2|0:0|0:0,0:0:0:0:
160,205,79919,6,0,B|224:196|202:238|282:234,1,107.999996704102,2|2,3:2|0:0,0:0:0:0:
350,210,81204,1,2,0:0:0:0:
298,143,81633,2,0,P|286:92|322:41,1,107.999996704102,2|0,3:2|3:0,0:0:0:0:
397,17,82919,1,2,0:0:0:0:
464,86,83347,6,0,B|439:113|439:113|431:151|431:151|400:178,1,107.999996704102,2|2,3:2|3:2,0:0:0:0:
311,161,84633,1,2,0:0:0:0:
254,220,85061,2,0,P|217:237|148:231,1,107.999996704102,2|8,3:2|1:3,0:0:0:0:
103,164,86347,1,4,0:3:0:0:
168,94,86776,6,0,L|241:100,1,60,2|2,1:2|0:0,0:0:0:0:
265,81,87419,1,0,1:2:0:0:
265,81,87633,2,0,L|339:86,1,60,8|2,0:0|1:2,0:0:0:0:
435,64,88490,2,0,L|455:2,2,60,2|2|8,1:2|0:0|0:1,0:0:0:0:
474,172,89776,1,0,1:2:0:0:
382,242,90204,6,0,P|319:263|281:246,1,90,2|0,1:2|1:2,0:0:0:0:
274,237,91061,2,0,P|235:228|194:243,1,60,10|2,0:0|1:2,0:0:0:0:
125,295,91919,2,0,L|136:357,2,60,2|2|8,1:2|0:0|0:1,0:0:0:0:
33,239,93204,1,0,1:2:0:0:
119,171,93633,5,2,1:2:0:0:
59,81,94061,1,2,3:2:0:0:
149,21,94490,1,10,0:0:0:0:
209,111,94919,1,2,1:2:0:0:
294,45,95347,6,0,B|364:26|349:83|428:61,1,120,2|8,1:2|0:1,0:0:0:0:
506,111,96633,1,2,1:2:0:0:
411,176,97061,2,0,P|356:213|339:285,2,120,2|8|0,1:2|0:0|1:2,0:0:0:0:
467,259,99204,1,0,3:2:0:0:
384,339,99633,2,0,L|267:355,1,90,8|0,0:1|3:2,0:0:0:0:
278,327,100490,6,0,L|167:311,1,96,0|8,1:2|0:0,0:0:0:0:
108,268,101776,1,0,1:2:0:0:
36,318,102204,2,0,L|20:363,2,48,0|0|8,1:2|3:2|0:1,0:0:0:0:
94,250,103490,1,0,1:2:0:0:
68,167,103919,6,0,P|122:146|165:166,1,96,0|8,1:2|0:0,0:0:0:0:
219,218,105204,1,0,1:2:0:0:
279,146,105633,2,0,L|267:80,2,48,0|0|10,1:2|3:2|0:1,0:0:0:0:
346,201,106919,1,0,1:2:0:0:
416,140,107347,5,0,1:2:0:0:
359,72,107776,1,0,3:2:0:0:
427,15,108204,1,8,0:0:0:0:
484,83,108633,1,0,1:2:0:0:
416,140,109061,6,0,B|358:126|375:173|311:168,1,96,0|8,1:2|0:1,0:0:0:0:
250,225,110347,1,0,1:2:0:0:
321,273,110776,2,0,P|359:288|414:270,1,96,0|8,1:2|0:0,0:0:0:0:
465,205,112061,1,0,1:2:0:0:
511,288,112490,2,0,L|516:349,1,48,0|0,1:2|3:2,0:0:0:0:
441,379,113347,1,10,0:1:0:0:
301,308,114204,5,0,1:2:0:0:
189,361,115061,1,8,0:0:0:0:
118,297,115490,1,0,1:2:0:0:
182,225,115919,2,0,L|174:169,2,48,0|0|8,1:2|3:2|0:1,0:0:0:0:
51,112,117633,5,0,1:2:0:0:
168,48,118490,1,8,0:0:0:0:
252,104,118919,1,0,1:2:0:0:
323,28,119347,2,0,L|383:15,2,48,0|0|10,1:2|3:2|0:1,0:0:0:0:
418,133,121061,5,0,1:2:0:0:
351,181,121490,1,0,3:2:0:0:
268,148,121919,1,8,0:0:0:0:
195,195,122347,1,0,1:2:0:0:
116,147,122776,2,0,B|78:121|78:121|94:175,1,96,0|8,1:2|0:1,0:0:0:0:
72,252,124061,1,0,1:2:0:0:
149,305,124490,6,0,L|258:313,1,96,0|8,1:2|0:0,0:0:0:0:
330,279,125776,1,0,1:2:0:0:
267,226,126204,2,0,P|252:184|275:117,1,96,0|10,1:2|0:1,0:0:0:0:
334,84,127490,1,0,1:2:0:0:
417,140,127919,5,2,0:0:0:0:
368,195,129683,1,2,0:0:0:0:
395,260,131448,1,2,0:0:0:0:
274,331,133294,5,2,0:0:0:0:
234,268,134277,1,2,0:0:0:0:
83,349,135261,6,0,L|159:363,1,60,2|2,0:0|0:0,0:0:0:0:
217,374,136464,1,2,0:0:0:0:
285,209,137797,5,2,0:0:0:0:
248,148,138470,1,2,0:0:0:0:
289,88,139297,1,2,0:0:0:0:
175,32,141604,5,2,0:0:0:0:
113,88,142527,1,2,0:0:0:0:
37,49,143508,1,2,0:0:0:0:
17,132,144732,1,2,0:0:0:0:
78,182,146435,1,2,0:0:0:0:
