osu file format v14

[General]
AudioFilename: audio.mp3
AudioLeadIn: 0
PreviewTime: 55322
Countdown: 0
SampleSet: Soft
StackLeniency: 0.7
Mode: 0
LetterboxInBreaks: 0
WidescreenStoryboard: 0

[Editor]
DistanceSpacing: 1
BeatDivisor: 4
GridSize: 8
TimelineZoom: 1

[Metadata]
Title:Delusion Girl
TitleUnicode:Delusion Girl
Artist:TOUYU
ArtistUnicode:灯油
Creator:Hailie
Version:Normal
Source:
Tags:Sidu Norita Shun KaiseiP Shirakami Mashiro Hatsune Miku Vocaloid Akitoshi Cut Version
BeatmapID:1516913
BeatmapSetID:717276

[Difficulty]
HPDrainRate:4
CircleSize:2.5
OverallDifficulty:3
ApproachRate:5
SliderMultiplier:1
SliderTickRate:1

[Events]
//Background and Video events
0,0,"bg.jpg",0,0
Video,0,"Vid.avi"
//Break Periods
2,8094,8979
//Storyboard Layer 0 (Background)
//Storyboard Layer 1 (Fail)
//Storyboard Layer 2 (Pass)
//Storyboard Layer 3 (Foreground)
//Storyboard Sound Samples

[TimingPoints]
1037,285.714285714286,4,2,1,70,1,0
10179,-100,4,2,1,50,0,0
19322,-99.9999999999999,4,2,1,60,0,0
27608,-99.9999999999999,4,2,1,70,0,0
28465,-99.9999999999999,4,2,1,60,0,0
33037,-99.9999999999999,4,2,1,55,0,0
55322,285.714285714286,4,2,1,55,1,0
59893,-100,4,2,1,80,0,1
85036,-100,4,2,1,80,0,0
85179,-100,4,2,0,25,0,0

[Colours]
Combo1 : 201,201,201
Combo2 : 128,0,128
Combo3 : 2,174,109
Combo4 : 248,129,165

[HitObjects]
61,56,1037,6,0,L|61:161,1,100,14|2,0:3|0:0,0:0:0:0:
61,206,1465,2,0,P|113:198|181:216,1,100,8|10,0:0|0:0,0:0:0:0:
258,192,2037,2,0,P|252:247|212:296,1,100,14|8,0:0|0:0,0:0:0:0:
150,346,2608,2,0,L|26:347,1,100,8|2,0:0|0:0,0:0:0:0:
0,343,3037,1,8,0:0:0:0:
2,243,3322,6,0,L|4:123,1,100,14|2,0:3|0:0,0:0:0:0:
19,95,3751,2,0,P|68:102|135:88,1,100,8|8,0:0|0:0,0:0:0:0:
207,50,4322,2,0,P|257:45|324:52,1,100,14|8,0:0|0:0,0:0:0:0:
407,53,4894,2,0,L|406:-4,2,50,8|8|8,0:0|0:0|0:0,0:0:0:0:
407,103,5322,1,8,0:0:0:0:
473,176,5608,6,0,L|472:293,1,100,14|8,0:3|0:0,0:0:0:0:
464,325,6037,2,0,P|412:319|353:329,1,100,8|2,0:0|0:0,0:0:0:0:
272,362,6608,2,0,P|218:369|168:362,1,100,14|8,0:0|0:0,0:0:0:0:
93,303,7179,2,0,L|94:195,1,100,8|2,0:0|0:0,0:0:0:0:
95,152,7608,1,8,0:0:0:0:
195,149,7894,5,14,0:0:0:0:
226,165,10179,6,0,L|348:165,1,100,2|2,0:0|0:0,0:0:0:0:
425,154,10751,2,0,L|425:264,1,100,2|0,0:0|0:0,0:0:0:0:
423,354,11322,2,0,L|486:354,2,50,2|2|2,0:0|0:0|0:0,0:0:0:0:
322,357,11894,1,2,0:0:0:0:
326,257,12179,1,2,0:0:0:0:
326,257,12465,6,0,L|326:137,2,100,2|2|2,0:0|0:0|0:0,0:0:0:0:
322,357,13322,1,4,0:3:0:0:
322,357,13608,2,0,P|370:350|423:354,2,100,2|2|2,0:0|0:0|0:0,0:0:0:0:
233,310,14465,1,4,0:3:0:0:
233,310,14751,6,0,L|233:191,1,100,2|2,0:0|0:0,0:0:0:0:
241,110,15322,2,0,P|295:104|360:116,1,100,2|2,0:0|0:0,0:0:0:0:
433,137,15894,2,0,L|432:254,1,100,2|2,0:0|0:0,0:0:0:0:
374,318,16465,2,0,P|323:313|264:323,1,100,2|0,0:0|0:0,0:0:0:0:
177,344,17037,6,0,P|122:354|62:338,1,100,2|2,0:0|0:0,0:0:0:0:
125,257,17608,2,0,L|125:138,1,100,2|0,0:0|0:0,0:0:0:0:
132,107,18037,2,0,P|183:113|246:99,1,100,2|2,0:0|0:0,0:0:0:0:
317,46,18608,1,2,0:0:0:0:
465,80,19037,1,8,0:0:0:0:
465,80,19322,6,0,L|469:203,1,100,6|2,0:0|0:0,0:0:0:0:
469,280,19894,2,0,P|418:272|357:288,1,100,2|2,0:0|0:0,0:0:0:0:
327,305,20322,2,0,P|276:317|212:304,1,100,2|0,0:0|0:0,0:0:0:0:
132,284,20894,2,0,L|133:164,1,100,2|2,0:0|0:0,0:0:0:0:
138,134,21322,1,2,0:0:0:0:
138,134,21608,6,0,P|187:141|248:130,1,100,4|4,0:3|0:3,0:0:0:0:
320,97,22179,2,0,P|375:89|435:98,1,100,4|4,0:3|0:3,0:0:0:0:
434,193,22751,2,0,P|381:204|329:245,1,100,4|4,0:3|0:3,0:0:0:0:
256,278,23322,2,0,P|205:288|144:279,1,100,4|4,0:3|0:3,0:0:0:0:
64,244,23894,6,0,L|64:132,1,100,2|2,0:0|0:0,0:0:0:0:
130,69,24465,2,0,P|178:78|244:64,1,100,2|2,0:0|0:0,0:0:0:0:
323,39,25037,2,0,P|372:34|425:41,1,100,2|2,0:0|0:0,0:0:0:0:
511,73,25608,1,2,0:0:0:0:
501,172,25894,1,2,0:0:0:0:
501,172,26179,6,0,L|502:309,1,100,2|8,0:0|0:0,0:0:0:0:
413,320,26751,2,0,B|379:322|379:322|343:343|343:343|300:343,1,100,14|0,0:0|0:0,0:0:0:0:
268,344,27179,1,14,0:0:0:0:
129,285,27608,2,0,P|115:237|140:174,2,100,10|2|14,0:0|0:0|0:0,0:0:0:0:
215,233,28465,6,0,P|264:235|326:233,1,100,14|10,0:0|0:0,0:0:0:0:
351,139,29037,2,0,L|349:23,1,100,8|0,0:0|0:0,0:0:0:0:
301,26,29465,2,0,B|267:27|267:27|236:49|236:49|200:49,1,100,10|0,0:0|0:0,0:0:0:0:
152,47,29894,1,8,0:0:0:0:
33,138,30322,2,0,L|33:203,1,50,2|8,0:0|0:0,0:0:0:0:
53,286,30751,6,0,P|102:299|168:277,1,100,14|10,0:0|0:0,0:0:0:0:
166,189,31322,2,0,L|166:81,1,100,8|0,0:0|0:0,0:0:0:0:
173,39,31751,2,0,B|211:39|211:39|243:29|243:29|275:29,1,100,10|0,0:0|0:0,0:0:0:0:
321,26,32179,1,8,0:0:0:0:
421,24,32465,2,0,L|422:135,1,100,4|10,0:3|0:0,0:0:0:0:
484,202,33037,6,0,L|484:305,1,100,6|8,0:3|0:0,0:0:0:0:
400,356,33608,2,0,P|348:350|283:362,1,100,2|8,0:0|0:0,0:0:0:0:
221,295,34179,2,0,P|167:302|104:289,2,100,4|8|4,0:3|0:0|0:3,0:0:0:0:
231,193,35037,1,8,0:0:0:0:
231,193,35322,6,0,L|231:86,2,100,4|8|0,0:3|0:0|0:0,0:0:0:0:
330,197,36179,1,8,0:0:0:0:
330,197,36465,2,0,L|463:197,2,100,4|8|4,0:3|0:0|0:3,0:0:0:0:
231,193,37322,1,8,0:0:0:0:
231,193,37608,6,0,L|231:313,1,100,4|8,0:3|0:0,0:0:0:0:
302,362,38179,1,2,0:0:0:0:
302,362,38465,2,0,P|331:362|363:366,1,50,8|0,0:0|0:0,0:0:0:0:
402,363,38751,2,0,P|451:371|507:361,2,100,4|8|0,0:3|0:0|0:0,0:0:0:0:
384,266,39608,1,8,0:0:0:0:
384,266,39894,6,0,L|383:144,1,100,4|8,0:3|0:0,0:0:0:0:
379,116,40322,2,0,P|330:126|263:107,1,100,8|2,0:0|0:0,0:0:0:0:
239,88,40751,1,8,0:0:0:0:
329,31,41037,2,0,P|381:22|443:38,1,100,4|8,0:3|0:0,0:0:0:0:
471,115,41608,2,0,L|471:232,1,100,2|8,0:0|0:0,0:0:0:0:
412,296,42179,6,0,P|362:288|301:302,1,100,6|8,0:3|0:0,0:0:0:0:
211,322,42751,2,0,P|156:333|99:316,1,100,0|8,0:0|0:0,0:0:0:0:
162,235,43322,2,0,L|163:114,1,100,0|8,0:0|0:0,0:0:0:0:
110,46,43894,2,0,L|45:46,2,50,0|2|8,0:0|0:0|0:0,0:0:0:0:
209,35,44465,5,4,0:3:0:0:
209,35,44751,2,0,P|263:43|316:34,1,100,8|2,0:0|0:0,0:0:0:0:
406,29,45322,1,8,0:0:0:0:
406,29,45608,2,0,P|416:87|397:147,1,100,4|8,0:3|0:0,0:0:0:0:
379,222,46179,6,0,P|403:221|428:221,2,50,2|2|8,0:0|0:0|0:0,0:0:0:0:
274,226,46751,2,0,L|274:114,2,100,2|8|2,0:0|0:0|0:0,0:0:0:0:
183,268,47608,1,8,0:0:0:0:
183,268,47894,2,0,L|182:151,2,100,4|8|2,0:3|0:0|0:0,0:0:0:0:
274,226,48751,1,8,0:0:0:0:
274,226,49037,6,0,P|317:213|383:227,1,100,6|2,0:3|0:0,0:0:0:0:
414,245,49465,2,0,P|475:222|496:185,1,100,8|2,0:0|0:0,0:0:0:0:
505,145,49894,1,8,0:0:0:0:
459,56,50179,2,0,P|401:44|337:63,1,100,12|10,0:0|0:0,0:0:0:0:
314,68,50608,1,8,0:0:0:0:
252,146,50894,2,0,L|252:268,1,100,10|8,0:0|0:0,0:0:0:0:
252,296,51322,6,0,P|200:294|151:319,2,100,6|2|2,0:3|0:0|0:0,0:0:0:0:
385,363,52322,2,0,P|433:353|474:310,1,100,12|4,0:0|0:3,0:0:0:0:
477,269,52751,2,0,P|466:218|428:161,1,100,8|0,0:0|0:0,0:0:0:0:
368,108,53322,1,8,0:0:0:0:
368,108,53608,6,0,L|233:137,1,100,12|8,0:0|0:0,0:0:0:0:
172,150,54179,1,2,0:0:0:0:
252,276,54608,2,0,L|372:246,1,100,12|2,0:0|0:0,0:0:0:0:
398,260,55037,1,8,0:0:0:0:
398,260,55322,6,0,L|448:379,2,100,8|8|8,0:0|0:0|0:0,0:0:0:0:
255,216,56322,2,0,L|212:106,1,100,8|2,0:0|0:0,0:0:0:0:
177,93,56750,2,0,P|121:92|73:131,1,100,8|0,0:0|0:0,0:0:0:0:
57,215,57322,1,8,0:0:0:0:
57,215,57607,6,0,P|112:213|151:184,1,100,12|8,0:0|0:0,0:0:0:0:
200,172,58036,2,0,L|255:288,1,100,2|8,0:0|0:0,0:0:0:0:
295,359,58607,1,8,0:0:0:0:
311,109,59322,6,0,P|358:96|418:102,1,100,2|2,0:0|0:0,0:0:0:0:
487,167,59893,6,0,P|490:216|470:265,1,100,6|8,0:3|0:0,0:0:0:0:
386,209,60464,2,0,P|331:201|266:214,1,100,4|8,0:3|0:0,0:0:0:0:
196,249,61036,2,0,P|187:200|208:134,2,100,2|8|4,0:0|0:0|0:3,0:0:0:0:
287,206,61893,1,8,0:0:0:0:
287,206,62179,6,0,P|335:214|395:196,1,100,4|8,0:3|0:0,0:0:0:0:
395,153,62607,2,0,P|448:141|513:158,1,100,2|4,0:0|0:3,0:0:0:0:
491,248,63179,2,0,L|491:374,1,100,2|4,0:0|0:3,0:0:0:0:
390,350,63750,2,0,P|338:346|277:357,1,100,2|4,0:0|0:3,0:0:0:0:
245,361,64179,1,8,0:0:0:0:
245,361,64464,6,0,P|192:370|130:352,1,100,6|8,0:3|0:0,0:0:0:0:
111,324,64893,2,0,P|111:278|142:208,1,100,2|2,0:0|0:0,0:0:0:0:
223,194,65464,2,0,P|268:222|298:282,1,100,2|4,0:0|0:3,0:0:0:0:
334,289,65893,2,0,L|436:289,1,100,8|4,0:0|0:3,0:0:0:0:
467,194,66464,1,8,0:0:0:0:
467,194,66750,6,0,P|449:138|407:101,1,100,4|8,0:3|0:0,0:0:0:0:
371,98,67179,2,0,P|317:109|256:95,1,100,2|4,0:0|0:3,0:0:0:0:
193,161,67750,2,0,L|193:265,1,100,6|2,0:3|0:0,0:0:0:0:
191,313,68179,2,0,L|121:312,2,50,8|2|4,0:0|0:0|0:3,0:0:0:0:
288,288,68750,2,0,L|352:287,1,50,8|10,0:0|0:0,0:0:0:0:
387,277,69036,6,0,P|395:222|383:167,1,100,6|8,0:3|0:0,0:0:0:0:
288,160,69607,2,0,P|244:166|180:158,1,100,4|8,0:3|0:0,0:0:0:0:
92,186,70179,2,0,P|91:137|112:87,2,100,2|8|4,0:0|0:0|0:3,0:0:0:0:
189,161,71036,1,8,0:0:0:0:
189,161,71322,6,0,L|190:264,1,100,4|8,0:3|0:0,0:0:0:0:
191,311,71750,2,0,P|245:303|291:312,1,100,2|4,0:0|0:3,0:0:0:0:
386,289,72322,2,0,L|386:171,1,100,6|2,0:3|0:0,0:0:0:0:
387,88,72893,2,0,P|434:77|495:89,1,100,2|4,0:0|0:3,0:0:0:0:
508,128,73322,1,8,0:0:0:0:
508,128,73607,6,0,P|512:187|494:240,1,100,6|8,0:0|0:0,0:0:0:0:
471,266,74036,2,0,P|423:258|359:269,1,100,2|4,0:0|0:3,0:0:0:0:
277,295,74607,2,0,P|227:305|170:296,1,100,2|2,0:0|0:0,0:0:0:0:
80,284,75179,1,2,0:0:0:0:
80,284,75464,2,0,L|81:351,2,50,4|8|2,0:3|0:0|0:0,0:0:0:0:
53,240,75893,6,0,L|53:122,1,100,4|8,0:3|0:0,0:0:0:0:
64,40,76464,2,0,P|112:48|178:37,1,100,4|4,0:3|0:3,0:0:0:0:
212,36,76893,2,0,P|262:30|320:37,1,100,6|4,0:3|0:3,0:0:0:0:
411,48,77464,1,6,0:0:0:0:
491,174,77893,1,4,0:3:0:0:
491,174,78179,6,0,L|491:279,1,100,14|2,0:3|0:0,0:0:0:0:
480,322,78607,2,0,P|429:316|378:323,1,100,10|8,0:0|0:0,0:0:0:0:
286,292,79179,2,0,P|279:242|295:185,1,100,14|8,0:0|0:0,0:0:0:0:
379,148,79750,2,0,L|481:148,1,100,8|2,0:0|0:0,0:0:0:0:
502,103,80179,1,8,0:0:0:0:
426,38,80464,6,0,L|316:37,1,100,14|2,0:3|0:0,0:0:0:0:
276,45,80893,2,0,P|261:99|273:154,1,100,8|8,0:0|0:0,0:0:0:0:
267,247,81464,2,0,P|213:240|157:251,1,100,14|8,0:0|0:0,0:0:0:0:
71,275,82036,2,0,L|71:335,2,50,8|8|10,0:0|0:0|0:0,0:0:0:0:
71,224,82464,1,8,0:0:0:0:
77,124,82750,6,0,P|125:129|188:120,1,100,14|2,0:3|0:0,0:0:0:0:
224,107,83179,2,0,P|273:101|334:109,1,100,8|8,0:0|0:0,0:0:0:0:
381,187,83750,2,0,B|381:295,1,100,14|8,0:0|0:0,0:0:0:0:
305,353,84322,2,0,P|241:349|193:358,1,100,8|2,0:0|0:0,0:0:0:0:
156,362,84750,1,8,0:0:0:0:
160,262,85036,5,14,0:0:0:0:
309,260,85464,2,0,L|433:260,1,100,2|2,0:0|0:0,0:0:0:0:
407,159,86036,2,0,L|299:159,1,100,2|2,0:0|0:0,0:0:0:0:
206,161,86607,1,2,0:0:0:0:
204,261,86893,1,2,0:0:0:0:
