osu file format v14

[General]
AudioFilename: audio.mp3
AudioLeadIn: 0
PreviewTime: 55322
Countdown: 0
SampleSet: Soft
StackLeniency: 0.7
Mode: 0
LetterboxInBreaks: 0
WidescreenStoryboard: 0

[Editor]
DistanceSpacing: 0.4
BeatDivisor: 6
GridSize: 8
TimelineZoom: 1

[Metadata]
Title:Delusion Girl
TitleUnicode:Delusion Girl
Artist:TOUYU
ArtistUnicode:灯油
Creator:Hailie
Version:Expert
Source:
Tags:Sidu Norita Shun KaiseiP Shirakami Mashiro Hatsune Miku Vocaloid Akitoshi Cut Version
BeatmapID:1515406
BeatmapSetID:717276

[Difficulty]
HPDrainRate:6
CircleSize:4.2
OverallDifficulty:8.7
ApproachRate:9.2
SliderMultiplier:1.75
SliderTickRate:1

[Events]
//Background and Video events
0,0,"bg.jpg",0,0
Video,0,"Vid.avi"
//Break Periods
//Storyboard Layer 0 (Background)
//Storyboard Layer 1 (Fail)
//Storyboard Layer 2 (Pass)
//Storyboard Layer 3 (Foreground)
//Storyboard Sound Samples

[TimingPoints]
1037,285.714285714286,4,2,1,70,1,0
9465,-100,4,2,1,20,0,0
10179,-111.111111111111,4,2,1,50,0,0
19322,-99.9999999999999,4,2,1,60,0,0
27608,-99.9999999999999,4,2,1,70,0,0
28465,-99.9999999999999,4,2,1,60,0,0
33037,-99.9999999999999,4,2,1,55,0,0
55322,285.714285714286,4,2,1,55,1,0
59893,-83.3333333333333,4,2,1,80,0,1
85036,-83.3333333333333,4,2,1,80,0,0
85179,-83.3333333333333,4,2,0,25,0,0

[Colours]
Combo1 : 201,201,201
Combo2 : 128,0,128
Combo3 : 2,174,109
Combo4 : 248,129,165

[HitObjects]
417,15,1037,5,14,0:3:0:0:
469,191,1179,1,8,0:0:0:0:
293,137,1322,1,2,0:0:0:0:
497,94,1465,2,0,L|406:94,1,87.5,8|0,0:0|0:0,0:0:0:0:
245,213,1751,2,0,L|358:213,1,87.5,10|0,0:0|0:0,0:0:0:0:
151,281,2037,6,0,P|201:215|141:150,1,175,14|8,0:0|0:0,0:0:0:0:
245,213,2465,1,2,0:0:0:0:
114,89,2608,2,0,L|24:89,1,87.5,8|0,0:0|0:0,0:0:0:0:
245,213,2894,1,2,0:0:0:0:
87,55,3037,2,0,L|-18:55,1,87.5,8|0,0:0|0:0,0:0:0:0:
214,95,3322,5,14,0:3:0:0:
134,285,3465,1,10,0:0:0:0:
16,131,3608,1,2,0:0:0:0:
244,212,3751,2,0,L|139:212,1,87.5,8|0,0:0|0:0,0:0:0:0:
0,285,4037,2,0,L|121:285,1,87.5,8|0,0:0|0:0,0:0:0:0:
255,336,4322,6,0,P|299:294|245:213,1,175,14|8,0:0|0:0,0:0:0:0:
427,233,4751,1,2,0:0:0:0:
244,212,4894,1,8,0:0:0:0:
285,369,5037,1,8,0:0:0:0:
340,187,5179,1,8,0:0:0:0:
156,184,5322,1,8,0:0:0:0:
381,175,5465,1,2,0:0:0:0:
405,172,5537,1,2,0:0:0:0:
428,171,5608,6,0,L|423:72,1,87.5,14|0,0:3|0:0,0:0:0:0:
434,278,5894,1,8,0:0:0:0:
423,83,6037,2,0,B|363:88|363:88|320:116|320:116|236:122,1,175,8|2,0:0|0:0,0:0:0:0:
50,124,6465,1,2,0:0:0:0:
262,295,6608,6,0,L|255:93,1,175,14|8,0:0|0:0,0:0:0:0:
50,124,7037,1,2,0:0:0:0:
227,246,7179,2,0,L|232:347,1,87.5,8|0,0:0|0:0,0:0:0:0:
50,124,7465,1,2,0:0:0:0:
191,288,7608,2,0,L|194:391,1,87.5,8|0,0:0|0:0,0:0:0:0:
255,122,7894,5,14,0:0:0:0:
401,281,9465,6,0,P|360:319|391:210,1,350
338,254,10179,6,0,L|233:303,1,78.7499975967408,2|0,0:0|0:0,0:0:0:0:
197,317,10465,2,0,L|159:236,1,78.7499975967408,2|0,0:0|0:0,0:0:0:0:
225,199,10751,2,0,L|301:169,1,78.7499975967408,2|0,0:0|0:0,0:0:0:0:
372,140,11037,1,2,0:0:0:0:
329,243,11179,6,0,L|291:152,1,78.7499975967408,2|0,0:0|0:0,0:0:0:0:
334,309,11465,2,0,L|296:226,1,78.7499975967408,2|0,0:0|0:0,0:0:0:0:
324,375,11751,2,0,L|286:289,1,78.7499975967408,2|0,0:0|0:0,0:0:0:0:
299,170,12037,1,0,0:0:0:0:
293,303,12179,6,0,L|215:338,1,78.7499975967408,2|0,0:0|0:0,0:0:0:0:
273,229,12465,2,0,L|364:198,1,78.7499975967408,2|0,0:0|0:0,0:0:0:0:
213,169,12751,2,0,L|121:198,1,78.7499975967408,2|0,0:0|0:0,0:0:0:0:
218,95,13037,2,0,L|313:72,1,78.7499975967408,2|0,0:0|0:0,0:0:0:0:
157,266,13322,6,0,P|154:222|129:183,1,78.7499975967408,4|0,0:3|0:0,0:0:0:0:
181,284,13608,1,2,0:0:0:0:
199,298,13894,1,2,0:0:0:0:
221,315,14179,1,2,0:0:0:0:
326,334,14465,2,0,P|287:327|249:333,1,78.7499975967408,4|0,0:3|0:0,0:0:0:0:
400,342,14751,6,0,L|399:256,1,78.7499975967408,2|0,0:0|0:0,0:0:0:0:
400,178,15037,1,2,0:0:0:0:
400,178,15179,1,0,0:0:0:0:
304,178,15322,2,0,L|213:178,2,78.7499975967408,2|0|2,0:0|0:0|0:0,0:0:0:0:
371,107,15751,6,0,L|472:107,1,78.7499975967408,2|2,0:0|0:0,0:0:0:0:
368,35,16037,2,0,L|286:35,1,78.7499975967408,2|0,0:0|0:0,0:0:0:0:
227,115,16322,2,0,L|227:195,2,78.7499975967408,0|2|0,0:0|0:0|0:0,0:0:0:0:
328,115,16751,1,2,0:0:0:0:
328,115,16894,1,0,0:0:0:0:
327,269,17037,6,0,L|326:171,1,78.7499975967408,2|0,0:0|0:0,0:0:0:0:
227,193,17322,1,2,0:0:0:0:
328,115,17465,1,0,0:0:0:0:
227,115,17608,1,2,0:0:0:0:
227,193,17751,2,0,L|228:112,1,78.7499975967408,0|2,0:0|0:0,0:0:0:0:
406,115,18037,6,0,L|328:115,1,78.7499975967408,2|2,0:0|0:0,0:0:0:0:
512,22,18322,1,2,0:0:0:0:
350,36,18465,1,2,0:0:0:0:
491,198,18608,1,2,0:0:0:0:
491,198,18679,1,2,0:0:0:0:
491,198,18751,1,0,0:0:0:0:
386,320,18894,1,2,0:0:0:0:
270,193,19037,1,8,0:0:0:0:
197,334,19179,1,4,0:3:0:0:
187,350,19251,1,4,0:3:0:0:
178,365,19322,6,0,L|72:324,1,87.5,6|0,0:0|0:0,0:0:0:0:
222,296,19608,2,0,L|318:342,1,87.5,2|0,0:0|0:0,0:0:0:0:
453,364,19894,1,2,0:0:0:0:
383,233,20037,1,0,0:0:0:0:
386,320,20179,1,2,0:0:0:0:
465,187,20322,6,0,P|401:147|294:202,1,175,2|0,0:0|0:0,0:0:0:0:
383,234,20751,1,2,0:0:0:0:
384,57,20894,1,0,0:0:0:0:
218,183,21037,1,2,0:0:0:0:
225,199,21108,1,2,0:0:0:0:
232,212,21179,2,0,L|319:172,2,87.5,2|2|2,0:0|0:0|0:0,0:0:0:0:
383,142,21608,6,0,P|376:97|390:41,1,87.5,4|0,0:3|0:0,0:0:0:0:
474,221,21894,2,0,P|460:175|470:112,1,87.5,4|0,0:3|0:0,0:0:0:0:
406,312,22179,2,0,P|384:266|387:208,1,87.5,4|0,0:3|0:0,0:0:0:0:
280,368,22465,2,0,P|295:327|294:271,1,87.5,4|0,0:3|0:0,0:0:0:0:
400,112,22751,6,0,P|419:73|471:49,1,87.5,4|0,0:3|0:0,0:0:0:0:
270,102,23037,2,0,P|298:69|355:50,1,87.5,4|0,0:3|0:0,0:0:0:0:
125,129,23322,1,4,0:3:0:0:
145,103,23394,1,4,0:3:0:0:
178,86,23465,1,4,0:3:0:0:
349,195,23608,1,4,0:3:0:0:
270,102,23751,1,0,0:0:0:0:
178,261,23894,6,0,L|178:83,1,175,2|2,0:0|0:0,0:0:0:0:
269,101,24322,2,0,L|357:100,1,87.5,0|2,0:0|0:0,0:0:0:0:
351,195,24608,2,0,L|351:291,2,87.5,0|2|0,0:0|0:0|0:0,0:0:0:0:
357,100,25037,6,0,L|262:101,1,87.5,2|0,0:0|0:0,0:0:0:0:
178,86,25322,1,2,0:0:0:0:
178,86,25465,1,0,0:0:0:0:
106,195,25608,1,2,0:0:0:0:
269,100,25751,6,0,P|246:32|144:10,1,175,2|0,0:0|0:0,0:0:0:0:
265,148,26179,1,2,0:0:0:0:
370,0,26322,1,2,0:0:0:0:
370,0,26394,1,2,0:0:0:0:
370,0,26465,1,8,0:0:0:0:
252,353,26751,6,0,P|164:346|107:251,1,175,14|0,0:0|0:0,0:0:0:0:
249,45,27179,2,0,P|312:52|389:149,1,175,14|2,0:0|0:0,0:0:0:0:
247,246,27608,5,10,0:0:0:0:
249,45,27751,1,2,0:0:0:0:
395,177,27894,1,2,0:0:0:0:
395,177,27965,1,8,0:0:0:0:
395,177,28037,1,8,0:0:0:0:
185,8,28179,2,2,L|100:115,1,131.25,6|0,0:0|0:0,0:0:0:0:
247,245,28465,6,0,B|272:203|272:203|272:155,1,87.5,14|0,0:0|0:0,0:0:0:0:
103,110,28751,2,0,B|78:147|78:147|78:198,1,87.5,10|0,0:0|0:0,0:0:0:0:
214,67,29037,1,8,0:0:0:0:
209,328,29465,6,0,P|150:275|51:299,1,175,10|0,0:0|0:0,0:0:0:0:
103,110,29894,1,8,0:0:0:0:
209,328,30037,2,0,L|211:144,1,175,2|0,0:0|0:0,0:0:0:0:
285,315,30465,1,8,0:0:0:0:
225,85,30608,1,2,0:0:0:0:
254,86,30679,1,2,0:0:0:0:
284,85,30751,6,0,B|312:118|312:118|312:173,1,87.5,14|0,0:0|0:0,0:0:0:0:
128,164,31037,2,0,B|128:118|128:118|153:83,1,87.5,10|0,0:0|0:0,0:0:0:0:
224,251,31322,1,8,0:0:0:0:
178,16,31751,6,0,B|234:15|234:15|282:45|282:45|368:44,1,175,10|2,0:0|0:0,0:0:0:0:
414,187,32179,1,8,0:0:0:0:
202,106,32322,1,2,0:0:0:0:
344,44,32465,1,4,0:3:0:0:
276,242,32608,1,4,0:3:0:0:
264,63,32751,1,10,0:0:0:0:
442,110,32894,1,8,0:0:0:0:
276,242,33037,6,0,L|200:176,1,87.5,6|0,0:3|0:0,0:0:0:0:
345,295,33322,1,8,0:0:0:0:
335,177,33465,2,0,L|273:246,1,87.5,10|0,0:0|0:0,0:0:0:0:
189,337,33751,1,2,0:0:0:0:
276,242,33894,2,0,L|348:298,1,87.5,8|0,0:0|0:0,0:0:0:0:
449,277,34179,6,0,L|503:198,1,87.5,4|0,0:3|0:0,0:0:0:0:
400,340,34465,1,8,0:0:0:0:
487,149,34608,2,0,L|427:233,1,87.5,2|0,0:0|0:0,0:0:0:0:
253,96,34894,1,2,0:0:0:0:
380,177,35037,1,10,0:0:0:0:
317,134,35179,1,0,0:0:0:0:
331,249,35322,6,0,L|388:164,1,87.5,4|0,0:3|0:3,0:0:0:0:
287,309,35608,1,8,0:0:0:0:
379,176,35751,1,4,0:3:0:0:
375,333,35894,2,0,L|426:250,1,87.5,2|4,0:0|0:3,0:0:0:0:
285,176,36179,2,0,L|232:253,1,87.5,8|0,0:0|0:0,0:0:0:0:
375,333,36465,6,0,L|457:371,1,87.5,4|0,0:3|0:0,0:0:0:0:
308,299,36751,1,8,0:0:0:0:
454,369,36894,1,10,0:0:0:0:
403,254,37037,2,0,L|497:296,1,87.5,4|4,0:3|0:3,0:0:0:0:
332,384,37322,2,0,L|238:344,1,87.5,8|0,0:0|0:0,0:0:0:0:
260,152,37608,6,0,L|260:257,1,87.5,4|0,0:3|0:0,0:0:0:0:
259,71,37894,1,8,0:0:0:0:
260,239,38037,1,2,0:0:0:0:
174,148,38179,1,0,0:0:0:0:
344,147,38322,1,2,0:0:0:0:
260,239,38465,1,8,0:0:0:0:
259,71,38608,1,0,0:0:0:0:
244,271,38751,6,0,P|177:249|102:323,1,175,4|8,0:3|0:0,0:0:0:0:
174,148,39179,2,0,L|108:245,1,87.5,2|0,0:0|0:0,0:0:0:0:
259,71,39465,2,0,L|200:165,1,87.5,2|8,0:0|0:0,0:0:0:0:
302,12,39751,1,0,0:0:0:0:
251,189,39894,6,0,L|162:141,1,87.5,4|0,0:3|0:0,0:0:0:0:
317,228,40179,1,8,0:0:0:0:
173,147,40322,1,8,0:0:0:0:
173,147,40608,5,2,0:0:0:0:
317,228,40751,1,8,0:0:0:0:
301,89,40894,1,0,0:0:0:0:
207,259,41037,6,0,L|255:177,1,87.5,4|0,0:3|0:0,0:0:0:0:
160,325,41322,1,8,0:0:0:0:
251,183,41465,1,8,0:0:0:0:
275,198,41537,1,2,0:0:0:0:
297,211,41608,1,2,0:0:0:0:
173,147,41751,1,2,0:0:0:0:
362,249,41894,2,0,L|316:336,1,87.5,8|0,0:0|0:0,0:0:0:0:
454,263,42179,6,0,L|488:172,1,87.5,6|0,0:3|0:0,0:0:0:0:
512,321,42465,1,8,0:0:0:0:
498,147,42608,1,2,0:0:0:0:
454,263,42751,1,0,0:0:0:0:
362,249,42894,1,2,0:0:0:0:
498,147,43037,1,8,0:0:0:0:
512,321,43179,6,0,P|438:303|382:386,1,175,2|0,0:0|0:0,0:0:0:0:
420,200,43608,1,8,0:0:0:0:
382,376,43751,2,0,L|296:338,1,87.5,10|0,0:0|0:0,0:0:0:0:
173,384,44037,1,2,0:0:0:0:
261,207,44179,1,8,0:0:0:0:
301,340,44322,1,0,0:0:0:0:
92,301,44465,6,0,L|195:282,1,87.5,4|0,0:3|0:0,0:0:0:0:
10,317,44751,1,8,0:0:0:0:
179,286,44894,2,0,L|195:373,1,87.5,10|2,0:0|0:0,0:0:0:0:
164,202,45179,1,2,0:0:0:0:
194,372,45322,1,8,0:0:0:0:
164,202,45465,1,0,0:0:0:0:
200,376,45608,6,0,L|304:350,1,87.5,4|0,0:3|0:0,0:0:0:0:
112,368,45894,1,8,0:0:0:0:
247,270,46037,1,10,0:0:0:0:
282,263,46108,1,2,0:0:0:0:
318,255,46179,1,2,0:0:0:0:
408,371,46322,1,2,0:0:0:0:
355,189,46465,1,8,0:0:0:0:
355,189,46751,6,0,L|321:87,1,87.5,2|0,0:0|0:0,0:0:0:0:
384,290,47037,1,8,0:0:0:0:
327,105,47179,1,2,0:0:0:0:
355,189,47322,1,2,0:0:0:0:
439,166,47465,1,2,0:0:0:0:
264,216,47608,1,8,0:0:0:0:
355,189,47751,1,2,0:0:0:0:
304,23,47894,6,0,L|330:115,1,87.5,4|0,0:3|0:0,0:0:0:0:
384,290,48179,1,8,0:0:0:0:
327,107,48322,1,8,0:0:0:0:
355,189,48465,1,2,0:0:0:0:
264,216,48608,1,0,0:0:0:0:
439,166,48751,2,0,L|354:189,1,87.5,8|0,0:0|0:0,0:0:0:0:
141,288,49037,6,0,B|200:277|200:277|250:300|250:300|322:289,1,175,6|2,0:3|0:0,0:0:0:0:
69,305,49465,1,8,0:0:0:0:
175,207,49608,1,0,0:0:0:0:
251,382,49751,1,2,0:0:0:0:
309,292,49894,1,8,0:0:0:0:
204,289,50037,1,0,0:0:0:0:
418,369,50179,6,0,L|315:377,1,87.5,12|0,0:0|0:0,0:0:0:0:
496,271,50465,1,10,0:0:0:0:
309,292,50608,1,0,0:0:0:0:
396,144,50751,1,2,0:0:0:0:
418,369,50894,1,10,0:0:0:0:
309,213,51037,1,10,0:0:0:0:
494,188,51179,1,8,0:0:0:0:
309,292,51322,5,6,0:3:0:0:
222,233,51465,1,0,0:0:0:0:
214,338,51608,1,2,0:0:0:0:
186,166,51751,1,10,0:0:0:0:
186,166,52037,1,4,0:3:0:0:
261,168,52179,1,2,0:0:0:0:
214,338,52322,6,0,L|26:343,1,175,12|4,0:0|0:3,0:0:0:0:
176,266,52751,2,0,L|289:265,1,87.5,8|0,0:0|0:0,0:0:0:0:
420,254,53037,1,0,0:0:0:0:
263,265,53179,1,2,0:0:0:0:
334,133,53322,1,8,0:0:0:0:
340,225,53465,1,2,0:0:0:0:
377,39,53608,6,0,B|319:34|319:34|266:58|266:58|176:50,1,175,12|8,0:0|0:0,0:0:0:0:
340,225,54037,1,2,0:0:0:0:
377,39,54179,1,8,0:0:0:0:
512,170,54322,1,4,0:3:0:0:
512,170,54608,2,0,L|485:349,1,175,12|2,0:0|0:0,0:0:0:0:
434,181,55037,2,0,L|450:85,1,87.5,8|0,0:0|0:0,0:0:0:0:
406,306,55322,5,8,0:0:0:0:
434,181,55464,1,0,0:0:0:0:
331,340,55607,1,10,0:0:0:0:
361,215,55750,1,0,0:0:0:0:
255,368,55893,1,8,0:0:0:0:
285,218,56036,1,0,0:0:0:0:
210,192,56179,1,0,0:0:0:0:
187,383,56322,6,0,P|122:330|48:365,1,175,10|2,0:0|0:0,0:0:0:0:
137,169,56750,1,8,0:0:0:0:
187,383,56893,1,2,0:0:0:0:
187,383,57179,1,2,0:0:0:0:
374,332,57322,1,8,0:0:0:0:
280,359,57464,1,0,0:0:0:0:
225,135,57607,6,0,L|251:232,1,87.5,12|0,0:0|0:0,0:0:0:0:
409,359,57893,2,0,L|376:261,1,87.5,8|0,0:0|0:0,0:0:0:0:
324,102,58179,1,8,0:0:0:0:
225,135,58322,1,0,0:0:0:0:
79,186,58464,1,2,0:0:0:0:
426,72,58607,1,8,0:0:0:0:
477,263,59179,5,2,0:0:0:0:
477,263,59250,1,2,0:0:0:0:
481,246,59322,1,2,0:0:0:0:
481,228,59393,1,2,0:0:0:0:
473,212,59464,1,2,0:0:0:0:
461,198,59536,1,2,0:0:0:0:
419,184,59607,1,2,0:0:0:0:
367,204,59679,1,2,0:0:0:0:
321,237,59750,1,2,0:0:0:0:
251,227,59822,1,2,0:0:0:0:
202,169,59893,6,0,B|194:53,1,104.999996795654,6|0,0:3|0:0,0:0:0:0:
367,204,60179,2,0,L|376:336,1,104.999996795654,8|0,0:0|0:0,0:0:0:0:
223,362,60464,1,4,0:3:0:0:
374,308,60607,1,2,0:0:0:0:
172,285,60750,1,8,0:0:0:0:
321,237,60893,1,2,0:0:0:0:
223,362,61036,5,2,0:0:0:0:
273,187,61179,1,4,0:3:0:0:
374,308,61322,1,8,0:0:0:0:
273,187,61464,2,0,L|158:222,1,104.999996795654,2|4,0:0|0:3,0:0:0:0:
223,362,61750,1,2,0:0:0:0:
215,128,61893,2,0,L|340:98,1,104.999996795654,8|0,0:0|0:0,0:0:0:0:
163,318,62179,6,0,P|155:278|181:206,1,104.999996795654,4|0,0:3|0:0,0:0:0:0:
317,103,62464,2,0,P|351:125|375:200,1,104.999996795654,8|0,0:0|0:0,0:0:0:0:
305,353,62750,1,4,0:3:0:0:
172,217,62893,1,4,0:3:0:0:
375,182,63036,1,8,0:0:0:0:
234,339,63179,6,0,P|202:250|101:273,1,209.999993591309,2|4,0:0|0:3,0:0:0:0:
44,92,63607,2,0,L|44:223,1,104.999996795654,8|0,0:0|0:0,0:0:0:0:
48,15,63893,1,4,0:3:0:0:
48,15,63964,1,4,0:3:0:0:
48,15,64036,1,4,0:3:0:0:
224,120,64179,1,8,0:0:0:0:
70,268,64322,1,10,0:0:0:0:
45,267,64393,1,2,0:0:0:0:
20,266,64464,6,0,L|20:373,1,104.999996795654,6|0,0:3|0:0,0:0:0:0:
199,307,64750,1,8,0:0:0:0:
253,199,64893,2,0,L|120:199,1,104.999996795654,2|2,0:0|0:0,0:0:0:0:
199,307,65179,1,2,0:0:0:0:
87,156,65322,1,8,0:0:0:0:
218,331,65464,6,0,L|395:207,1,209.999993591309,2|4,0:0|0:3,0:0:0:0:
472,344,65893,1,8,0:0:0:0:
512,200,66036,1,2,0:0:0:0:
336,119,66179,2,0,L|401:230,1,104.999996795654,2|0,0:0|0:0,0:0:0:0:
455,136,66464,1,8,0:0:0:0:
344,268,66607,1,0,0:0:0:0:
231,119,66750,6,0,L|369:119,1,104.999996795654,4|0,0:3|0:0,0:0:0:0:
185,211,67036,2,0,L|50:211,1,104.999996795654,8|0,0:0|0:0,0:0:0:0:
236,307,67322,1,4,0:3:0:0:
151,123,67464,1,4,0:3:0:0:
67,310,67607,1,10,0:0:0:0:
46,122,67750,6,0,B|160:122,1,104.999996795654,6|0,0:3|0:0,0:0:0:0:
354,122,68036,1,2,0:0:0:0:
206,238,68179,1,8,0:0:0:0:
268,27,68322,2,0,L|268:153,1,104.999996795654,2|2,0:0|0:0,0:0:0:0:
151,122,68607,1,4,0:3:0:0:
391,123,68750,1,8,0:0:0:0:
178,239,68893,1,10,0:0:0:0:
154,239,68964,1,10,0:0:0:0:
133,239,69036,6,0,L|133:351,1,104.999996795654,6|0,0:3|0:0,0:0:0:0:
63,173,69322,2,0,L|63:37,1,104.999996795654,8|0,0:0|0:0,0:0:0:0:
268,69,69607,1,4,0:3:0:0:
63,68,69750,1,0,0:0:0:0:
165,204,69893,1,8,0:0:0:0:
165,14,70036,1,2,0:0:0:0:
63,173,70179,5,2,0:0:0:0:
264,167,70322,1,4,0:3:0:0:
90,268,70464,2,0,L|90:158,1,104.999996795654,8|0,0:0|0:0,0:0:0:0:
254,263,70750,1,4,0:3:0:0:
169,95,70893,1,4,0:3:0:0:
65,300,71036,2,0,L|65:183,1,104.999996795654,8|0,0:0|0:0,0:0:0:0:
3,60,71322,6,0,P|45:74|114:60,1,104.999996795654,4|0,0:3|0:0,0:0:0:0:
238,215,71607,2,0,P|175:199|131:218,1,104.999996795654,8|0,0:0|0:0,0:0:0:0:
276,333,71893,1,4,0:3:0:0:
257,123,72036,1,4,0:3:0:0:
77,255,72179,1,8,0:0:0:0:
293,153,72322,6,0,P|245:94|361:25,1,209.999993591309,6|2,0:3|0:0,0:0:0:0:
281,230,72750,2,0,L|162:230,1,104.999996795654,8|0,0:0|0:0,0:0:0:0:
365,330,73036,1,4,0:3:0:0:
293,153,73179,1,4,0:3:0:0:
206,334,73322,1,8,0:0:0:0:
366,154,73464,1,8,0:0:0:0:
389,154,73536,1,8,0:0:0:0:
413,155,73607,6,0,L|409:49,1,104.999996795654,6|0,0:0|0:0,0:0:0:0:
494,201,73893,1,8,0:0:0:0:
308,216,74036,1,2,0:0:0:0:
487,76,74179,1,4,0:3:0:0:
408,241,74322,1,4,0:3:0:0:
312,80,74464,1,8,0:0:0:0:
414,282,74607,6,0,B|346:292|346:292|291:338|291:338|207:349,1,209.999993591309,2|2,0:0|0:0,0:0:0:0:
397,196,75036,2,0,L|522:180,1,104.999996795654,8|0,0:0|0:0,0:0:0:0:
512,348,75322,1,4,0:3:0:0:
501,182,75464,1,4,0:3:0:0:
380,325,75607,1,8,0:0:0:0:
275,205,75750,1,2,0:0:0:0:
399,138,75893,6,0,L|508:138,1,104.999996795654,4|0,0:3|0:0,0:0:0:0:
354,248,76179,2,0,L|244:248,1,104.999996795654,8|0,0:0|0:0,0:0:0:0:
249,77,76464,1,4,0:3:0:0:
152,254,76607,1,4,0:3:0:0:
400,250,76750,1,8,0:0:0:0:
119,292,76893,6,0,P|118:198|2:172,1,209.999993591309,6|4,0:3|0:3,0:0:0:0:
151,377,77322,1,8,0:0:0:0:
195,109,77464,2,0,L|105:184,1,104.999996795654,6|0,0:3|0:0,0:0:0:0:
303,294,77750,1,4,0:3:0:0:
303,36,77893,1,8,0:0:0:0:
364,34,77964,1,2,0:0:0:0:
414,79,78036,1,2,0:0:0:0:
420,154,78107,1,2,0:0:0:0:
363,226,78179,5,14,0:3:0:0:
196,109,78322,1,8,0:0:0:0:
364,34,78464,1,2,0:0:0:0:
267,214,78607,2,0,L|173:152,1,104.999996795654,10|0,0:0|0:0,0:0:0:0:
243,327,78893,2,0,L|353:397,1,104.999996795654,8|0,0:0|0:0,0:0:0:0:
119,316,79179,6,2,P|198:317|191:198,1,209.999993591309,14|8,0:0|0:0,0:0:0:0:
243,327,79607,1,0,0:0:0:0:
144,171,79750,2,0,L|46:131,1,104.999996795654,8|0,0:0|0:0,0:0:0:0:
243,327,80036,1,2,0:0:0:0:
129,135,80179,2,0,L|27:92,1,104.999996795654,8|0,0:0|0:0,0:0:0:0:
236,58,80464,5,14,0:3:0:0:
160,238,80607,1,8,0:0:0:0:
366,205,80750,1,2,0:0:0:0:
194,63,80893,2,0,L|256:158,1,104.999996795654,8|0,0:0|0:0,0:0:0:0:
245,322,81179,2,0,L|187:228,1,104.999996795654,8|0,0:0|0:0,0:0:0:0:
166,38,81464,6,0,P|137:124|18:99,1,209.999993591309,14|8,0:0|0:0,0:0:0:0:
121,271,81893,1,2,0:0:0:0:
32,117,82036,1,8,0:0:0:0:
235,146,82179,1,8,0:0:0:0:
86,297,82322,1,10,0:0:0:0:
115,110,82464,1,8,0:0:0:0:
307,187,82607,1,4,0:3:0:0:
328,187,82679,1,4,0:3:0:0:
350,186,82750,6,0,L|350:317,1,104.999996795654,14|0,0:3|0:0,0:0:0:0:
351,105,83036,1,2,0:0:0:0:
351,364,83179,2,0,B|267:364|267:364|206:341|206:341|128:341,1,209.999993591309,8|8,0:0|0:0,0:0:0:0:
113,193,83607,1,2,0:0:0:0:
351,154,83750,6,0,L|351:375,1,209.999993591309,14|8,0:0|0:0,0:0:0:0:
498,248,84179,1,2,0:0:0:0:
351,154,84322,2,0,L|218:154,1,104.999996795654,8|0,0:0|0:0,0:0:0:0:
498,248,84607,1,2,0:0:0:0:
306,126,84750,2,0,L|181:126,1,104.999996795654,8|0,0:0|0:0,0:0:0:0:
351,364,85036,5,14,0:0:0:0:
403,306,85179,1,2,0:0:0:0:
314,297,85322,1,2,0:0:0:0:
443,244,85464,1,2,0:0:0:0:
271,228,85750,1,2,0:0:0:0:
485,178,86036,1,2,0:0:0:0:
238,140,86322,1,2,0:0:0:0:
511,88,86607,1,2,0:0:0:0:
203,13,86893,1,2,0:0:0:0:
203,13,87179,6,2,L|203:47,1,34.9999989318848
