osu file format v14

[General]
AudioFilename: audio.mp3
AudioLeadIn: 0
PreviewTime: 55322
Countdown: 0
SampleSet: Soft
StackLeniency: 0.7
Mode: 0
LetterboxInBreaks: 0
WidescreenStoryboard: 0

[Editor]
DistanceSpacing: 1.1
BeatDivisor: 4
GridSize: 8
TimelineZoom: 1

[Metadata]
Title:Delusion Girl
TitleUnicode:Delusion Girl
Artist:TOUYU
ArtistUnicode:灯油
Creator:Hailie
Version:Advanced
Source:
Tags:Sidu Norita Shun KaiseiP Shirakami Mashiro Hatsune Miku Vocaloid Akitoshi Cut Version
BeatmapID:1516728
BeatmapSetID:717276

[Difficulty]
HPDrainRate:4.5
CircleSize:3
OverallDifficulty:4
ApproachRate:5.5
SliderMultiplier:1.15
SliderTickRate:1

[Events]
//Background and Video events
0,0,"bg.jpg",0,0
Video,0,"Vid.avi"
//Break Periods
2,8094,9054
//Storyboard Layer 0 (Background)
//Storyboard Layer 1 (Fail)
//Storyboard Layer 2 (Pass)
//Storyboard Layer 3 (Foreground)
//Storyboard Sound Samples

[TimingPoints]
1037,285.714285714286,4,2,1,70,1,0
10179,-100,4,2,1,50,0,0
19322,-99.9999999999999,4,2,1,60,0,0
27608,-99.9999999999999,4,2,1,70,0,0
28465,-99.9999999999999,4,2,1,60,0,0
33037,-99.9999999999999,4,2,1,55,0,0
55322,285.714285714286,4,2,1,55,1,0
59893,-100,4,2,1,80,0,1
85036,-100,4,2,1,80,0,0
85179,-100,4,2,0,25,0,0

[Colours]
Combo1 : 201,201,201
Combo2 : 128,0,128
Combo3 : 2,174,109
Combo4 : 248,129,165

[HitObjects]
57,58,1037,6,0,L|58:123,1,57.5,14|8,0:3|0:0,0:0:0:0:
57,178,1322,1,2,0:0:0:0:
57,178,1465,2,0,L|188:178,1,115,8|10,0:0|0:0,0:0:0:0:
296,150,2037,2,0,L|296:21,1,115,14|8,0:0|0:0,0:0:0:0:
378,130,2608,2,0,L|379:210,2,57.5,8|0|2,0:0|0:0|0:0,0:0:0:0:
387,66,3037,2,0,P|421:64|466:68,1,57.5,8|0,0:0|0:0,0:0:0:0:
506,80,3322,6,0,L|506:205,1,115,14|2,0:3|0:0,0:0:0:0:
498,258,3751,2,0,P|442:255|370:272,1,115,8|8,0:0|0:0,0:0:0:0:
300,361,4322,2,0,P|255:315|258:245,1,115,14|8,0:0|0:0,0:0:0:0:
128,230,4894,2,0,L|61:230,2,57.5,8|8|8,0:0|0:0|0:0,0:0:0:0:
177,190,5322,1,8,0:0:0:0:
289,132,5608,6,0,L|288:-5,1,115,14|8,0:3|0:0,0:0:0:0:
351,19,6037,2,0,B|388:19|388:19|429:1|429:1|479:-1,1,115,8|2,0:0|0:0,0:0:0:0:
484,124,6608,2,0,L|356:124,1,115,14|8,0:0|0:0,0:0:0:0:
283,217,7179,2,0,L|283:292,2,57.5,8|0|2,0:0|0:0|0:0,0:0:0:0:
223,194,7608,2,0,L|224:132,1,57.5,8|0,0:0|0:0,0:0:0:0:
231,73,7894,1,14,0:0:0:0:
331,43,10179,6,0,L|468:43,1,115,2|2,0:0|0:0,0:0:0:0:
497,146,10751,2,0,L|367:146,1,115,2|2,0:0|0:0,0:0:0:0:
336,179,11179,2,0,L|336:257,2,57.5,2|0|2,0:0|0:0|0:0,0:0:0:0:
224,149,11751,2,0,L|224:285,1,115,2|0,0:0|0:0,0:0:0:0:
220,322,12179,1,2,0:0:0:0:
335,319,12465,6,0,L|460:319,2,115,2|2|2,0:0|0:0|0:0,0:0:0:0:
220,322,13322,2,0,P|183:322|141:323,1,57.5,4|0,0:3|0:0,0:0:0:0:
104,323,13608,5,2,0:0:0:0:
101,207,13894,1,2,0:0:0:0:
215,206,14179,1,2,0:0:0:0:
220,322,14465,2,0,P|250:320|304:322,1,57.5,4|0,0:3|0:0,0:0:0:0:
335,318,14751,6,0,L|335:188,1,115,2|2,0:0|0:0,0:0:0:0:
424,130,15322,2,0,L|424:244,1,115,2|2,0:0|0:0,0:0:0:0:
335,318,15894,1,2,0:0:0:0:
335,318,16179,2,0,L|205:319,1,115,0|2,0:0|0:0,0:0:0:0:
166,297,16608,2,0,L|105:297,2,57.5,0|2|0,0:0|0:0|0:0,0:0:0:0:
151,241,17037,6,0,P|123:175|143:115,1,115,2|2,0:0|0:0,0:0:0:0:
239,96,17608,2,0,P|270:142|262:214,1,115,2|0,0:0|0:0,0:0:0:0:
257,256,18037,2,0,P|313:245|378:258,1,115,2|2,0:0|0:0,0:0:0:0:
423,273,18465,1,2,0:0:0:0:
461,164,18751,1,0,0:0:0:0:
461,164,18894,2,0,L|461:104,2,57.5,2|8|4,0:0|0:0|0:3,0:0:0:0:
501,215,19322,6,0,L|501:336,1,115,6|2,0:0|0:0,0:0:0:0:
376,350,19894,2,0,P|333:347|296:351,1,57.5,2|0,0:0|0:0,0:0:0:0:
255,348,20179,1,2,0:0:0:0:
255,348,20322,2,0,P|198:337|165:282,1,115,2|0,0:0|0:0,0:0:0:0:
234,184,20894,2,0,P|285:194|324:264,1,115,2|0,0:0|0:0,0:0:0:0:
361,291,21322,1,2,0:0:0:0:
361,291,21608,6,0,P|394:297|442:290,1,57.5,4|0,0:3|0:0,0:0:0:0:
471,265,21894,2,0,P|482:233|484:192,1,57.5,4|0,0:3|0:0,0:0:0:0:
482,147,22179,2,0,P|476:110|459:71,2,57.5,4|0|4,0:3|0:0|0:3,0:0:0:0:
355,138,22751,6,0,P|314:149|283:168,1,57.5,4|0,0:3|0:0,0:0:0:0:
240,176,23037,2,0,P|203:179|173:170,1,57.5,4|0,0:3|0:0,0:0:0:0:
128,142,23322,2,0,P|120:115|120:73,2,57.5,4|4|4,0:3|0:3|0:3,0:0:0:0:
196,35,23894,6,0,L|326:35,1,115,2|2,0:0|0:0,0:0:0:0:
317,163,24465,2,0,L|317:242,2,57.5,2|0|2,0:0|0:0|0:0,0:0:0:0:
416,84,25037,2,0,L|416:216,1,115,2|2,0:0|0:0,0:0:0:0:
383,327,25608,2,0,P|342:324|306:329,1,57.5,2|2,0:0|0:0,0:0:0:0:
262,332,25894,2,0,P|222:333|183:323,1,57.5
152,297,26179,6,0,P|123:248|136:171,1,115,2|8,0:0|0:0,0:0:0:0:
217,105,26751,1,14,0:0:0:0:
217,105,27179,2,0,B|257:105|257:105|290:125|290:125|338:125,1,115,14|2,0:0|0:0,0:0:0:0:
355,181,27608,2,0,L|356:241,2,57.5,10|2|2,0:0|0:0|0:0,0:0:0:0:
404,140,28037,2,0,L|404:79,1,57.5,8|6,0:0|0:0,0:0:0:0:
501,162,28465,6,0,L|501:292,1,115,14|10,0:0|0:0,0:0:0:0:
408,364,29037,2,0,B|379:364|379:364|348:379|348:379|296:378,1,115,8|0,0:0|0:0,0:0:0:0:
233,373,29465,2,0,P|216:320|247:258,1,115,10|0,0:0|0:0,0:0:0:0:
262,142,30037,2,0,L|134:142,1,115,2|0,0:0|0:0,0:0:0:0:
84,144,30465,1,8,0:0:0:0:
106,19,30751,6,0,L|225:19,1,115,14|10,0:0|0:0,0:0:0:0:
347,26,31322,2,0,B|347:67|347:67|362:99|362:99|362:159,1,115,8|0,0:0|0:0,0:0:0:0:
367,201,31751,2,0,L|508:200,1,115,10|0,0:0|0:0,0:0:0:0:
487,326,32322,2,0,L|352:325,1,115,4|4,0:3|0:3,0:0:0:0:
308,326,32751,1,10,0:0:0:0:
245,228,33037,6,0,L|112:228,1,115,6|8,0:3|0:0,0:0:0:0:
66,226,33465,2,0,L|66:147,1,57.5,10|0,0:0|0:0,0:0:0:0:
163,82,33894,1,8,0:0:0:0:
163,82,34037,2,0,L|286:82,2,115,2|2|8,0:0|0:0|0:0,0:0:0:0:
38,56,34894,2,0,L|38:-20,2,57.5,2|10|0,0:0|0:0|0:0,0:0:0:0:
16,115,35322,6,0,L|16:238,1,115,4|8,0:3|0:0,0:0:0:0:
112,312,35894,2,0,P|147:309|187:312,1,57.5,2|4,0:0|0:3,0:0:0:0:
229,329,36179,2,0,P|259:331|312:326,1,57.5,8|0,0:0|0:0,0:0:0:0:
348,321,36465,6,0,L|348:184,1,115,4|8,0:3|0:0,0:0:0:0:
261,113,37037,2,0,P|231:115|190:114,1,57.5,4|4,0:3|0:3,0:0:0:0:
140,115,37322,2,0,P|109:113|73:114,1,57.5,8|0,0:0|0:0,0:0:0:0:
20,125,37608,6,0,L|20:256,1,115,4|8,0:3|0:0,0:0:0:0:
16,303,38037,2,0,L|17:373,2,57.5,2|0|2,0:0|0:0|0:0,0:0:0:0:
79,301,38465,1,8,0:0:0:0:
79,301,38751,2,0,L|213:301,1,115,4|8,0:3|0:0,0:0:0:0:
257,294,39179,2,0,P|270:224|253:174,1,115,2|2,0:0|0:0,0:0:0:0:
198,159,39608,1,8,0:0:0:0:
198,159,39894,6,0,L|60:159,1,115,4|8,0:3|0:0,0:0:0:0:
19,159,40322,2,0,L|19:95,2,57.5,8|0|2,0:0|0:0|0:0,0:0:0:0:
19,222,40751,1,8,0:0:0:0:
104,315,41037,2,0,P|161:310|230:322,1,115,4|8,0:3|0:0,0:0:0:0:
280,312,41465,2,0,P|305:295|325:253,1,57.5,8|2,0:0|0:0,0:0:0:0:
318,208,41751,2,0,P|315:163|301:128,1,57.5,2|8,0:0|0:0,0:0:0:0:
190,114,42179,6,0,L|57:114,2,115,6|8|0,0:3|0:0|0:0,0:0:0:0:
300,50,43037,1,8,0:0:0:0:
300,50,43179,2,0,L|433:52,1,115,2|2,0:0|0:0,0:0:0:0:
422,178,43751,2,0,L|485:177,2,57.5,10|0|2,0:0|0:0|0:0,0:0:0:0:
359,185,44179,1,8,0:0:0:0:
244,238,44465,6,0,P|265:301|241:351,1,115,4|8,0:3|0:0,0:0:0:0:
186,358,44894,2,0,P|147:335|129:262,1,115,10|2,0:0|0:0,0:0:0:0:
159,147,45465,2,0,P|224:148|285:148,1,115,2|0,0:0|0:0,0:0:0:0:
332,173,45894,2,0,L|395:173,2,57.5,8|10|0,0:0|0:0|0:0,0:0:0:0:
295,51,46465,2,0,L|215:51,1,57.5,8|0,0:0|0:0,0:0:0:0:
181,81,46751,6,0,L|49:81,1,115,2|8,0:0|0:0,0:0:0:0:
3,90,47179,2,0,L|4:25,2,57.5,2|2|2,0:0|0:0|0:0,0:0:0:0:
0,153,47608,1,8,0:0:0:0:
124,178,47894,6,0,L|124:298,1,115,4|8,0:3|0:0,0:0:0:0:
124,356,48322,2,0,L|62:356,2,57.5,8|2|0,0:0|0:0|0:0,0:0:0:0:
187,354,48751,1,8,0:0:0:0:
317,349,49037,6,0,L|449:348,1,115,6|2,0:3|0:0,0:0:0:0:
493,334,49465,2,0,P|520:275|506:220,1,115,8|2,0:0|0:0,0:0:0:0:
470,177,49894,1,8,0:0:0:0:
418,61,50179,6,0,L|336:72,1,57.5,12|0,0:0|0:0,0:0:0:0:
302,43,50465,2,0,L|226:52,1,57.5,10|0,0:0|0:0,0:0:0:0:
182,38,50751,2,0,L|112:48,1,57.5,2|10,0:0|0:0,0:0:0:0:
62,57,51037,1,10,0:0:0:0:
76,182,51322,6,0,L|101:321,1,115,6|2,0:3|0:0,0:0:0:0:
118,354,51751,2,0,P|162:321|224:324,1,115,10|4,0:0|0:3,0:0:0:0:
279,344,52179,1,2,0:0:0:0:
279,344,52322,2,0,P|305:317|301:221,1,115,12|4,0:0|0:3,0:0:0:0:
386,139,52894,2,0,L|459:139,2,57.5,2|2|2,0:0|0:0|0:0,0:0:0:0:
322,139,53322,1,8,0:0:0:0:
212,79,53608,6,0,L|83:79,1,115,12|8,0:0|0:0,0:0:0:0:
33,83,54037,2,0,P|12:145|30:196,1,115,2|4,0:0|0:3,0:0:0:0:
152,166,54608,2,0,P|201:129|207:59,1,115,12|2,0:0|0:0,0:0:0:0:
200,16,55037,1,8,0:0:0:0:
323,41,55322,6,0,B|361:45|361:45|399:63|399:63|450:66,1,115,8|8,0:0|0:0,0:0:0:0:
507,168,55893,2,0,L|494:310,1,115,8|0,0:0|0:0,0:0:0:0:
455,330,56322,2,0,L|390:323,1,57.5,8|0,0:0|0:0,0:0:0:0:
355,276,56607,1,2,0:0:0:0:
355,276,56750,2,0,L|280:265,1,57.5,8|2,0:0|0:0,0:0:0:0:
172,248,57179,1,2,0:0:0:0:
172,248,57322,2,0,L|184:176,1,57.5,8|0,0:0|0:0,0:0:0:0:
203,131,57607,6,0,P|256:143|322:122,1,115,12|8,0:0|0:0,0:0:0:0:
372,102,58036,1,0,0:0:0:0:
434,91,58179,2,0,P|459:144|455:206,1,115,8|2,0:0|0:0,0:0:0:0:
403,232,58607,1,8,0:0:0:0:
403,232,59322,6,0,B|351:219|342:253|269:229,1,115,2|2,0:0|0:0,0:0:0:0:
191,317,59893,6,0,L|190:391,2,57.5,6|0|8,0:3|0:0|0:0,0:0:0:0:
194,190,60464,2,0,L|195:123,2,57.5,4|2|8,0:3|0:0|0:0,0:0:0:0:
191,317,61036,2,0,L|113:316,1,57.5,2|4,0:0|0:3,0:0:0:0:
114,255,61322,1,8,0:0:0:0:
114,255,61464,2,0,L|-12:255,1,115,2|0,0:0|0:0,0:0:0:0:
6,191,61893,1,8,0:0:0:0:
95,100,62179,6,0,P|109:44|165:16,1,115,4|8,0:3|0:0,0:0:0:0:
212,44,62607,2,0,P|208:102|145:146,1,115,2|4,0:0|0:3,0:0:0:0:
122,161,63036,1,8,0:0:0:0:
122,161,63179,2,0,L|3:160,1,115,2|4,0:0|0:3,0:0:0:0:
3,96,63607,2,0,L|3:23,1,57.5,8|0,0:0|0:0,0:0:0:0:
126,16,64036,2,0,L|126:83,2,57.5,4|8|10,0:3|0:0|0:0,0:0:0:0:
189,14,64464,6,0,L|320:14,1,115,6|8,0:3|0:0,0:0:0:0:
354,49,64893,2,0,L|354:183,1,115,2|4,0:0|0:3,0:0:0:0:
402,204,65322,1,8,0:0:0:0:
402,204,65464,2,0,L|402:334,1,115,2|4,0:0|0:3,0:0:0:0:
358,363,65893,2,0,P|315:364|291:362,1,57.5,8|2,0:0|0:0,0:0:0:0:
237,367,66179,2,0,P|207:367|173:365,1,57.5,4|4,0:3|0:3,0:0:0:0:
90,276,66607,1,0,0:0:0:0:
90,276,66750,6,0,P|73:223|98:151,1,115,4|8,0:3|0:0,0:0:0:0:
148,151,67179,2,0,P|190:162|266:144,1,115,2|4,0:0|0:3,0:0:0:0:
319,130,67607,1,10,0:0:0:0:
319,130,67750,2,0,B|328:256,1,115,6|2,0:3|0:0,0:0:0:0:
335,307,68179,2,0,L|402:302,2,57.5,8|2|4,0:0|0:0|0:3,0:0:0:0:
219,255,68750,2,0,L|160:258,1,57.5,8|10,0:0|0:0,0:0:0:0:
106,280,69036,6,0,L|108:349,2,57.5,6|0|8,0:3|0:0|0:0,0:0:0:0:
49,166,69607,2,0,L|49:107,2,57.5,4|0|8,0:3|0:0|0:0,0:0:0:0:
106,280,70179,2,0,L|183:278,1,57.5,2|4,0:0|0:3,0:0:0:0:
219,306,70464,1,8,0:0:0:0:
219,306,70607,2,0,L|347:298,1,115,2|0,0:0|0:0,0:0:0:0:
397,295,71036,1,8,0:0:0:0:
397,168,71322,6,0,P|392:114|339:70,1,115,4|8,0:3|0:0,0:0:0:0:
288,90,71750,2,0,P|271:150|312:207,1,115,2|4,0:0|0:3,0:0:0:0:
353,210,72179,1,8,0:0:0:0:
353,210,72322,2,0,B|395:211|395:211|431:227|431:227|476:227,1,115,6|2,0:3|0:0,0:0:0:0:
465,290,72750,2,0,L|466:347,1,57.5,8|0,0:0|0:0,0:0:0:0:
338,350,73179,2,0,L|338:289,2,57.5,4|8|8,0:3|0:0|0:0,0:0:0:0:
275,357,73607,6,0,L|154:355,1,115,6|8,0:0|0:0,0:0:0:0:
156,292,74036,2,0,L|156:163,1,115,2|4,0:0|0:3,0:0:0:0:
199,131,74464,1,8,0:0:0:0:
199,131,74607,2,0,P|254:117|321:146,1,115,2|2,0:0|0:0,0:0:0:0:
351,181,75036,2,0,L|351:250,1,57.5,8|0,0:0|0:0,0:0:0:0:
329,296,75322,2,0,P|295:294|260:296,1,57.5,4|4,0:3|0:3,0:0:0:0:
156,242,75750,1,2,0:0:0:0:
156,242,75893,6,0,P|97:258|44:247,1,115,4|8,0:3|0:0,0:0:0:0:
43,183,76322,2,0,L|43:57,1,115,2|4,0:0|0:3,0:0:0:0:
160,21,76893,2,0,B|159:151,1,115,6|4,0:3|0:3,0:0:0:0:
220,153,77322,2,0,L|278:153,2,57.5,8|6|0,0:0|0:3|0:0,0:0:0:0:
146,255,77893,2,0,L|75:255,1,57.5,8|2,0:0|0:0,0:0:0:0:
24,258,78179,6,0,L|23:325,1,57.5,14|8,0:3|0:0,0:0:0:0:
68,359,78464,1,2,0:0:0:0:
68,359,78607,2,0,L|200:362,1,115,10|8,0:0|0:0,0:0:0:0:
309,355,79179,2,0,P|329:310|297:244,1,115,14|8,0:0|0:0,0:0:0:0:
301,123,79750,2,0,L|374:122,2,57.5,8|0|2,0:0|0:0|0:0,0:0:0:0:
237,124,80179,2,0,P|207:126|172:124,1,57.5,8|0,0:0|0:0,0:0:0:0:
116,134,80464,6,0,L|116:259,1,115,14|2,0:3|0:0,0:0:0:0:
179,251,80893,2,0,P|234:248|298:261,1,115,8|8,0:0|0:0,0:0:0:0:
386,343,81464,2,0,P|416:287|398:222,1,115,14|8,0:0|0:0,0:0:0:0:
431,113,82036,2,0,L|496:113,2,57.5,8|8|10,0:0|0:0|0:0,0:0:0:0:
370,97,82464,1,8,0:0:0:0:
370,97,82750,6,0,L|240:97,1,115,14|2,0:3|0:0,0:0:0:0:
210,147,83179,2,0,B|210:186|210:186|201:229|201:229|201:282,1,115,8|8,0:0|0:0,0:0:0:0:
94,328,83750,2,0,L|94:196,1,115,14|8,0:0|0:0,0:0:0:0:
210,147,84322,2,0,L|276:146,2,57.5,8|0|2,0:0|0:0|0:0,0:0:0:0:
162,105,84750,2,0,L|91:105,1,57.5,8|0,0:0|0:0,0:0:0:0:
40,108,85036,6,0,P|12:172|26:236,1,115,14|2,0:0|0:0,0:0:0:0:
37,269,85464,2,0,P|90:258|164:277,1,115,2|2,0:0|0:0,0:0:0:0:
263,281,86036,2,0,P|297:253|311:182,1,115,2|2,0:0|0:0,0:0:0:0:
265,80,86607,1,2,0:0:0:0:
265,80,86893,1,2,0:0:0:0:
