osu file format v14

[General]
AudioFilename: audio.mp3
AudioLeadIn: 0
PreviewTime: 55322
Countdown: 0
SampleSet: Soft
StackLeniency: 0.7
Mode: 0
LetterboxInBreaks: 0
WidescreenStoryboard: 0

[Editor]
DistanceSpacing: 0.3
BeatDivisor: 4
GridSize: 8
TimelineZoom: 1.6

[Metadata]
Title:Delusion Girl
TitleUnicode:Delusion Girl
Artist:TOUYU
ArtistUnicode:灯油
Creator:Hailie
Version:Hard
Source:
Tags:Sidu Norita Shun KaiseiP Shirakami Mashiro Hatsune Miku Vocaloid Akitoshi Cut Version
BeatmapID:1515847
BeatmapSetID:717276

[Difficulty]
HPDrainRate:5
CircleSize:3.5
OverallDifficulty:5.5
ApproachRate:8
SliderMultiplier:1.35
SliderTickRate:1

[Events]
//Background and Video events
0,0,"bg.jpg",0,0
Video,0,"Vid.avi"
//Break Periods
2,8094,9429
//Storyboard Layer 0 (Background)
//Storyboard Layer 1 (Fail)
//Storyboard Layer 2 (Pass)
//Storyboard Layer 3 (Foreground)
//Storyboard Sound Samples

[TimingPoints]
1037,285.714285714286,4,2,1,70,1,0
10179,-125,4,2,1,50,0,0
19322,-99.9999999999999,4,2,1,60,0,0
27608,-99.9999999999999,4,2,1,70,0,0
28465,-99.9999999999999,4,2,1,60,0,0
33037,-99.9999999999999,4,2,1,55,0,0
55322,285.714285714286,4,2,1,55,1,0
59893,-100,4,2,1,80,0,1
85036,-100,4,2,1,80,0,0
85179,-100,4,2,0,25,0,0

[Colours]
Combo1 : 201,201,201
Combo2 : 128,0,128
Combo3 : 2,174,109
Combo4 : 248,129,165

[HitObjects]
163,26,1037,5,14,0:3:0:0:
163,26,1179,2,0,L|250:26,1,67.5,8|2,0:0|0:0,0:0:0:0:
158,116,1465,2,0,L|321:116,1,135,8|10,0:0|0:0,0:0:0:0:
294,225,1894,1,0,0:0:0:0:
294,225,2037,6,0,P|326:165|277:109,1,135,14|8,0:0|0:0,0:0:0:0:
226,225,2465,1,2,0:0:0:0:
226,225,2608,2,0,L|304:225,1,67.5,8|0,0:0|0:0,0:0:0:0:
367,298,2894,1,2,0:0:0:0:
466,245,3037,2,0,P|467:206|464:156,1,67.5,8|0,0:0|0:0,0:0:0:0:
388,103,3322,5,14,0:3:0:0:
388,103,3465,2,0,L|302:103,1,67.5,8|2,0:0|0:0,0:0:0:0:
371,191,3751,2,0,L|219:191,1,135,8|8,0:0|0:0,0:0:0:0:
170,288,4179,1,0,0:0:0:0:
170,288,4322,6,0,P|221:267|309:308,1,135,14|8,0:0|0:0,0:0:0:0:
309,384,4751,1,2,0:0:0:0:
309,384,4894,2,0,L|402:382,1,67.5,8|8,0:0|0:0,0:0:0:0:
372,280,5179,1,8,0:0:0:0:
483,281,5322,1,8,0:0:0:0:
483,169,5465,1,2,0:0:0:0:
483,169,5608,6,0,L|482:74,1,67.5,14|0,0:3|0:0,0:0:0:0:
372,102,5894,1,8,0:0:0:0:
374,199,6037,2,0,B|320:199|320:199|285:180|285:180|231:180,1,135,8|2,0:0|0:0,0:0:0:0:
134,140,6465,1,2,0:0:0:0:
134,140,6608,6,0,L|134:284,1,135,14|8,0:0|0:0,0:0:0:0:
159,384,7037,1,2,0:0:0:0:
159,384,7179,2,0,L|66:384,1,67.5,8|0,0:0|0:0,0:0:0:0:
66,275,7465,1,2,0:0:0:0:
66,275,7608,2,0,L|151:274,1,67.5,8|0,0:0|0:0,0:0:0:0:
337,271,7894,5,14,0:0:0:0:
24,227,10179,5,2,0:0:0:0:
24,227,10465,2,0,L|101:227,1,54,2|0,0:0|0:0,0:0:0:0:
146,171,10751,2,0,L|214:171,1,54,2|0,0:0|0:0,0:0:0:0:
304,175,11037,1,2,0:0:0:0:
304,175,11179,6,0,L|308:107,1,54,2|0,0:0|0:0,0:0:0:0:
328,182,11465,2,0,L|332:122,1,54,2|0,0:0|0:0,0:0:0:0:
354,191,11751,2,0,L|358:122,1,54,2|0,0:0|0:0,0:0:0:0:
444,193,12037,1,0,0:0:0:0:
444,193,12179,2,0,L|444:258,1,54,2|0,0:0|0:0,0:0:0:0:
464,350,12465,6,0,L|385:352,1,54,2|0,0:0|0:0,0:0:0:0:
319,306,12751,2,0,L|249:311,1,54,2|0,0:0|0:0,0:0:0:0:
182,372,13037,2,0,L|116:380,1,54,2|0,0:0|0:0,0:0:0:0:
36,310,13322,6,0,P|42:336|45:372,1,54,4|0,0:3|0:0,0:0:0:0:
156,300,13608,1,2,0:0:0:0:
156,300,13894,1,2,0:0:0:0:
156,300,14179,1,2,0:0:0:0:
156,300,14465,2,0,L|226:308,1,54,4|0,0:3|0:0,0:0:0:0:
329,355,14751,5,2,0:0:0:0:
329,355,15037,2,0,L|335:281,1,54,2|0,0:0|0:0,0:0:0:0:
274,231,15322,2,0,L|198:220,1,54,2|0,0:0|0:0,0:0:0:0:
126,264,15608,1,2,0:0:0:0:
126,264,15751,6,0,L|132:200,1,54,0|2,0:0|0:0,0:0:0:0:
46,158,16037,2,0,L|38:215,1,54,2|2,0:0|0:0,0:0:0:0:
24,315,16322,2,0,L|96:326,1,54,2|2,0:0|0:0,0:0:0:0:
177,341,16608,2,0,L|242:349,1,54,2|2,0:0|0:0,0:0:0:0:
330,360,16894,1,2,0:0:0:0:
330,360,17037,6,0,P|351:307|329:257,1,108,2|2,0:0|0:0,0:0:0:0:
349,172,17465,1,0,0:0:0:0:
349,172,17608,2,0,P|281:182|246:228,1,108,2|0,0:0|0:0,0:0:0:0:
223,296,18037,6,0,P|172:305|117:280,1,108,2|0,0:0|0:0,0:0:0:0:
53,210,18465,2,0,L|53:132,2,54,2|0|2,0:0|0:0|0:0,0:0:0:0:
158,206,18894,1,2,0:0:0:0:
214,112,19037,1,8,0:0:0:0:
347,109,19179,1,4,0:3:0:0:
347,109,19251,1,0,0:0:0:0:
347,109,19322,6,0,L|347:253,1,135,6|2,0:0|0:0,0:0:0:0:
320,341,19751,2,0,P|281:339|241:347,1,67.5,0|2,0:0|0:0,0:0:0:0:
142,346,20037,2,0,P|112:334|79:297,1,67.5,0|2,0:0|0:0,0:0:0:0:
53,210,20322,6,0,P|57:142|125:100,1,135,2|0,0:0|0:0,0:0:0:0:
217,117,20751,1,2,0:0:0:0:
217,117,20894,2,0,P|260:128|357:103,1,135,2|0,0:0|0:0,0:0:0:0:
440,172,21322,1,2,0:0:0:0:
473,77,21465,1,0,0:0:0:0:
347,109,21608,6,0,L|354:189,1,67.5,4|0,0:3|0:0,0:0:0:0:
387,262,21894,2,0,L|369:333,1,67.5,4|0,0:3|0:0,0:0:0:0:
272,338,22179,2,0,L|200:358,1,67.5,4|0,0:3|0:0,0:0:0:0:
112,318,22465,2,0,L|40:278,1,67.5,4|0,0:3|0:0,0:0:0:0:
70,167,22751,6,0,L|118:105,1,67.5,4|0,0:3|0:0,0:0:0:0:
222,107,23037,2,0,L|285:59,1,67.5,4|0,0:3|0:0,0:0:0:0:
398,41,23322,2,0,L|380:0,2,33.75,4|4|4,0:3|0:3|0:3,0:0:0:0:
430,136,23608,2,0,L|458:228,1,67.5,4|0,0:3|0:0,0:0:0:0:
491,300,23894,6,0,P|435:292|368:340,1,135,2|2,0:0|0:0,0:0:0:0:
263,355,24322,2,0,P|225:354|173:356,1,67.5,0|2,0:0|0:0,0:0:0:0:
212,238,24608,2,0,P|247:241|303:235,1,67.5,0|2,0:0|0:0,0:0:0:0:
390,209,24894,1,0,0:0:0:0:
390,209,25037,6,0,L|389:50,1,135,2|2,0:0|0:0,0:0:0:0:
473,132,25465,1,0,0:0:0:0:
473,132,25608,2,0,L|473:221,1,67.5,2|2,0:0|0:0,0:0:0:0:
506,292,25894,2,0,P|465:286|423:294,1,67.5
350,319,26179,1,2,0:0:0:0:
354,218,26322,1,2,0:0:0:0:
354,218,26465,2,0,L|354:121,1,67.5,8|0,0:0|0:0,0:0:0:0:
239,128,26751,6,0,L|240:282,1,135,14|0,0:0|0:0,0:0:0:0:
145,216,27179,2,0,L|145:67,1,135,14|2,0:0|0:0,0:0:0:0:
239,128,27608,2,0,L|328:127,1,67.5,10|2,0:0|0:0,0:0:0:0:
429,126,27894,2,0,L|429:87,2,33.75,2|8|8,0:0|0:0|0:0,0:0:0:0:
433,252,28179,1,6,0:0:0:0:
433,252,28465,6,0,L|336:252,1,67.5,14|0,0:0|0:0,0:0:0:0:
299,339,28751,2,0,L|387:339,1,67.5,10|0,0:0|0:0,0:0:0:0:
221,358,29037,2,0,B|223:311|223:311|207:266|207:266|206:208,1,135,8|0,0:0|0:0,0:0:0:0:
270,152,29465,6,0,P|206:127|138:161,1,135,10|0,0:0|0:0,0:0:0:0:
102,232,29894,2,0,L|100:314,1,67.5,8|0,0:0|0:0,0:0:0:0:
20,226,30179,2,0,L|21:155,2,67.5,2|0|8,0:0|0:0|0:0,0:0:0:0:
17,338,30608,1,2,0:0:0:0:
171,359,30751,6,0,B|248:359,1,67.5,14|0,0:0|0:0,0:0:0:0:
265,266,31037,2,0,B|171:266,1,67.5,10|0,0:0|0:0,0:0:0:0:
343,251,31322,2,0,B|342:298|342:298|333:329|333:329|334:405,1,135,8|0,0:0|0:0,0:0:0:0:
456,346,31751,6,0,L|456:206,1,135,10|0,0:0|0:0,0:0:0:0:
352,174,32179,2,0,L|276:174,2,67.5,2|8|4,0:0|0:0|0:3,0:0:0:0:
455,133,32608,1,4,0:3:0:0:
356,79,32751,1,10,0:0:0:0:
356,79,32894,1,8,0:0:0:0:
356,79,33037,6,0,L|222:79,1,135,6|8,0:3|0:0,0:0:0:0:
217,174,33465,2,0,L|368:174,1,135,10|2,0:0|0:0,0:0:0:0:
496,194,33894,1,8,0:0:0:0:
496,194,34037,6,0,P|462:144|508:93,2,135,8|2|10,0:0|0:0|0:0,0:0:0:0:
495,294,34751,2,0,L|496:368,1,67.5,0|2,0:0|0:0,0:0:0:0:
402,298,35037,2,0,L|401:224,1,67.5,10|0,0:0|0:0,0:0:0:0:
372,121,35322,5,4,0:3:0:0:
372,121,35465,2,0,L|281:121,2,67.5,0|8|4,0:3|0:0|0:3,0:0:0:0:
413,40,35894,1,2,0:0:0:0:
413,40,36037,2,0,L|490:41,2,67.5,4|8|0,0:3|0:0|0:0,0:0:0:0:
372,121,36465,5,4,0:3:0:0:
372,121,36608,2,0,L|372:211,2,67.5,0|8|10,0:0|0:0|0:0,0:0:0:0:
480,109,37037,1,4,0:3:0:0:
480,109,37179,2,0,L|480:33,2,67.5,4|8|0,0:3|0:0|0:0,0:0:0:0:
502,203,37608,6,0,P|439:183|351:195,1,135,4|8,0:3|0:0,0:0:0:0:
303,261,38037,2,0,P|270:215|300:130,1,135,2|2,0:0|0:0,0:0:0:0:
209,107,38465,1,8,0:0:0:0:
209,107,38608,1,0,0:0:0:0:
287,143,38751,6,0,P|243:196|158:184,1,135,4|8,0:3|0:0,0:0:0:0:
115,117,39179,2,0,P|117:85|134:50,1,67.5,2|0,0:0|0:0,0:0:0:0:
218,8,39465,2,0,P|254:24|280:62,1,67.5,2|8,0:0|0:0,0:0:0:0:
287,143,39751,6,0,L|256:307,1,135,2|2,0:0|0:0,0:0:0:0:
360,343,40179,1,8,0:0:0:0:
360,343,40322,2,0,L|384:198,1,135,8|2,0:0|0:0,0:0:0:0:
287,143,40751,2,0,L|198:113,1,67.5,8|0,0:0|0:0,0:0:0:0:
142,175,41037,6,0,L|219:205,2,67.5,4|0|8,0:3|0:0|0:0,0:0:0:0:
121,251,41465,2,0,L|50:220,1,67.5,8|2,0:0|0:0,0:0:0:0:
1,290,41751,1,2,0:0:0:0:
1,290,41894,2,0,L|69:321,1,67.5,8|0,0:0|0:0,0:0:0:0:
180,365,42179,6,0,P|216:364|263:367,1,67.5,6|0,0:3|0:0,0:0:0:0:
359,358,42465,2,0,P|389:298|343:239,1,135,8|0,0:0|0:0,0:0:0:0:
257,211,42894,2,0,P|217:213|169:209,1,67.5,2|8,0:0|0:0,0:0:0:0:
66,208,43179,6,0,L|64:60,1,135,2|0,0:0|0:0,0:0:0:0:
155,31,43608,1,8,0:0:0:0:
155,31,43751,2,0,L|157:178,1,135,10|2,0:0|0:0,0:0:0:0:
160,264,44179,1,8,0:0:0:0:
160,264,44322,1,0,0:0:0:0:
257,211,44465,6,0,P|310:194|396:226,1,135,4|8,0:3|0:0,0:0:0:0:
473,247,44894,2,0,P|505:206|458:120,1,135,10|2,0:0|0:0,0:0:0:0:
385,102,45322,1,8,0:0:0:0:
385,102,45465,6,0,L|233:101,1,135,2|0,0:0|0:0,0:0:0:0:
148,102,45894,1,8,0:0:0:0:
148,102,46037,2,0,L|147:24,2,67.5,10|0|2,0:0|0:0|0:0,0:0:0:0:
68,138,46465,2,0,L|67:224,1,67.5,8|0,0:0|0:0,0:0:0:0:
75,308,46751,6,0,P|123:284|209:318,1,135,2|8,0:0|0:0,0:0:0:0:
291,313,47179,2,0,L|366:313,2,67.5,2|2|2,0:0|0:0|0:0,0:0:0:0:
203,384,47608,2,0,L|122:383,1,67.5,8|2,0:0|0:0,0:0:0:0:
75,307,47894,6,0,L|75:151,1,135,4|8,0:3|0:0,0:0:0:0:
174,106,48322,1,8,0:0:0:0:
174,106,48465,2,0,L|172:263,1,135,2|8,0:0|0:0,0:0:0:0:
269,196,48894,1,0,0:0:0:0:
269,196,49037,6,0,P|301:198|362:194,2,67.5,6|0|2,0:3|0:0|0:0,0:0:0:0:
339,110,49465,2,0,P|376:108|419:109,1,67.5,8|0,0:0|0:0,0:0:0:0:
471,188,49751,2,0,L|471:283,1,67.5,2|8,0:0|0:0,0:0:0:0:
377,334,50037,1,0,0:0:0:0:
377,334,50179,6,0,P|341:308|295:300,1,67.5,12|0,0:0|0:0,0:0:0:0:
218,326,50465,1,10,0:0:0:0:
218,326,50608,2,0,P|190:309|159:263,1,67.5,2|2,0:0|0:0,0:0:0:0:
219,212,50894,2,0,P|182:183|155:174,1,67.5,10|10,0:0|0:0,0:0:0:0:
37,155,51179,1,8,0:0:0:0:
37,155,51322,6,0,P|83:114|49:41,1,135,6|2,0:3|0:0,0:0:0:0:
177,35,51751,2,0,P|235:14|309:52,1,135,10|4,0:0|0:3,0:0:0:0:
367,134,52179,1,2,0:0:0:0:
367,134,52322,6,0,L|348:283,1,135,12|4,0:0|0:3,0:0:0:0:
327,366,52751,2,0,P|289:358|231:362,1,67.5,8|0,0:0|0:0,0:0:0:0:
151,352,53037,2,0,P|111:348|73:322,1,67.5,0|2,0:0|0:0,0:0:0:0:
35,264,53322,1,8,0:0:0:0:
35,264,53465,1,0,0:0:0:0:
92,186,53608,6,0,L|173:50,1,135,12|8,0:0|0:0,0:0:0:0:
275,41,54037,2,0,L|201:172,1,135,2|4,0:0|0:3,0:0:0:0:
208,158,54608,6,0,P|273:160|306:216,1,135,12|2,0:0|0:0,0:0:0:0:
234,287,55037,2,0,P|201:278|173:247,1,67.5,8|0,0:0|0:0,0:0:0:0:
207,157,55322,6,0,L|264:92,2,67.5,8|0|8,0:0|0:0|0:0,0:0:0:0:
234,287,55750,1,0,0:0:0:0:
234,287,55893,2,0,L|170:355,1,67.5,8|0,0:0|0:0,0:0:0:0:
95,298,56179,1,0,0:0:0:0:
95,298,56322,6,0,P|77:238|6:213,1,135,8|2,0:0|0:0,0:0:0:0:
73,103,56750,2,0,P|131:86|149:15,1,135,8|0,0:0|0:0,0:0:0:0:
271,15,57179,1,2,0:0:0:0:
271,15,57322,2,0,P|307:12|349:19,1,67.5,8|0,0:0|0:0,0:0:0:0:
452,64,57607,6,0,L|448:137,1,67.5,12|0,0:0|0:0,0:0:0:0:
441,238,57893,1,8,0:0:0:0:
441,238,58035,1,0,0:0:0:0:
341,182,58179,2,0,L|347:99,2,67.5,8|0|2,0:0|0:0|0:0,0:0:0:0:
277,280,58607,2,0,L|271:377,1,67.5,8|0,0:0|0:0,0:0:0:0:
273,348,59607,6,0,L|234:348,3,33.75,2|2|2|2,0:0|0:0|0:0|0:0,0:0:0:0:
216,348,59893,6,0,L|81:348,1,135,6|8,0:3|0:0,0:0:0:0:
34,253,60322,1,0,0:0:0:0:
34,253,60464,2,0,L|34:175,1,67.5,4|2,0:3|0:0,0:0:0:0:
138,92,60750,2,0,L|138:178,1,67.5,8|2,0:0|0:0,0:0:0:0:
249,119,61036,6,0,P|287:120|337:118,2,67.5,2|4|8,0:0|0:3|0:0,0:0:0:0:
138,93,61464,2,0,P|77:69|6:105,1,135,2|2,0:0|0:0,0:0:0:0:
0,216,61893,2,0,L|3:301,1,67.5,8|0,0:0|0:0,0:0:0:0:
102,354,62179,2,0,B|144:352|144:352|190:372|190:372|248:367,1,135,4|8,0:3|0:0,0:0:0:0:
334,314,62607,1,0,0:0:0:0:
334,314,62750,2,0,L|425:311,2,67.5,4|4|8,0:3|0:3|0:0,0:0:0:0:
265,235,63179,6,0,L|418:231,1,135,2|4,0:0|0:3,0:0:0:0:
313,146,63607,2,0,L|222:148,1,67.5,8|0,0:0|0:0,0:0:0:0:
127,147,63893,2,0,L|126:94,2,33.75,4|4|4,0:3|0:3|0:3,0:0:0:0:
127,244,64179,1,8,0:0:0:0:
134,342,64322,1,10,0:0:0:0:
134,342,64393,1,2,0:0:0:0:
134,342,64464,6,0,P|70:322|8:345,1,135,6|8,0:3|0:0,0:0:0:0:
5,216,64893,2,0,L|5:78,1,135,2|2,0:0|0:0,0:0:0:0:
114,28,65322,1,8,0:0:0:0:
114,28,65464,6,0,P|155:6|241:24,1,135,2|4,0:0|0:3,0:0:0:0:
244,147,65893,2,0,L|245:219,1,67.5,8|2,0:0|0:0,0:0:0:0:
175,286,66179,1,4,0:3:0:0:
175,286,66322,2,0,L|175:382,2,67.5,4|8|0,0:3|0:0|0:0,0:0:0:0:
245,215,66750,6,0,L|330:212,1,67.5,4|0,0:3|0:0,0:0:0:0:
409,286,67036,2,0,L|501:280,1,67.5,8|0,0:0|0:0,0:0:0:0:
480,169,67322,1,4,0:3:0:0:
480,169,67464,2,0,P|469:121|449:91,1,67.5,4|10,0:3|0:0,0:0:0:0:
343,41,67750,6,0,P|279:19|199:56,1,135,6|2,0:3|0:0,0:0:0:0:
158,144,68179,1,8,0:0:0:0:
158,144,68322,2,0,P|191:212|266:232,1,135,2|4,0:0|0:3,0:0:0:0:
256,130,68750,1,8,0:0:0:0:
343,41,68893,1,10,0:0:0:0:
343,41,68964,1,10,0:0:0:0:
343,41,69036,6,0,L|504:43,1,135,6|8,0:3|0:0,0:0:0:0:
505,143,69464,1,0,0:0:0:0:
505,143,69607,2,0,L|505:228,1,67.5,4|0,0:3|0:0,0:0:0:0:
398,272,69893,2,0,L|398:347,1,67.5,8|2,0:0|0:0,0:0:0:0:
291,345,70179,6,0,P|256:343|213:347,2,67.5,2|4|8,0:0|0:3|0:0,0:0:0:0:
398,272,70607,2,0,B|397:222|397:222|410:172|410:172|407:122,1,135,2|4,0:0|0:3,0:0:0:0:
343,35,71036,2,0,L|266:35,1,67.5,8|0,0:0|0:0,0:0:0:0:
155,14,71322,6,0,P|130:73|168:144,1,135,4|8,0:3|0:0,0:0:0:0:
283,129,71750,1,0,0:0:0:0:
283,129,71893,2,0,P|318:131|356:130,2,67.5,4|4|8,0:3|0:3|0:0,0:0:0:0:
157,135,72322,6,0,L|157:281,1,135,6|2,0:3|0:0,0:0:0:0:
277,268,72750,2,0,L|277:190,1,67.5,8|0,0:0|0:0,0:0:0:0:
394,127,73036,2,0,L|392:68,2,33.75,4|2|4,0:3|0:0|0:3,0:0:0:0:
392,226,73322,1,8,0:0:0:0:
398,323,73464,1,8,0:0:0:0:
398,323,73536,1,2,0:0:0:0:
398,323,73607,6,0,L|242:323,1,135,6|8,0:0|0:0,0:0:0:0:
156,274,74036,2,0,P|126:218|143:151,1,135,2|4,0:0|0:3,0:0:0:0:
188,40,74464,1,8,0:0:0:0:
188,40,74607,6,0,B|234:40|234:40|279:20|279:20|328:20,1,135,2|2,0:0|0:0,0:0:0:0:
446,24,75036,2,0,L|536:22,1,67.5,8|0,0:0|0:0,0:0:0:0:
436,112,75322,1,4,0:3:0:0:
436,112,75464,2,0,L|359:112,2,67.5,4|8|2,0:3|0:0|0:0,0:0:0:0:
512,226,75893,6,0,L|512:367,1,135,4|8,0:3|0:0,0:0:0:0:
418,372,76322,1,0,0:0:0:0:
418,372,76464,2,0,L|328:368,1,67.5,4|4,0:3|0:3,0:0:0:0:
224,322,76750,1,8,0:0:0:0:
224,322,76893,6,0,P|193:237|153:232,1,135,6|4,0:3|0:3,0:0:0:0:
52,284,77322,1,8,0:0:0:0:
52,284,77464,2,0,P|44:247|53:198,1,67.5,6|0,0:3|0:0,0:0:0:0:
130,133,77750,2,0,P|158:129|207:138,1,67.5,4|8,0:3|0:0,0:0:0:0:
290,210,78036,1,2,0:0:0:0:
380,135,78179,5,14,0:3:0:0:
380,135,78322,2,0,L|379:51,1,67.5,8|2,0:0|0:0,0:0:0:0:
466,167,78607,2,0,L|465:9,1,135,10|8,0:0|0:0,0:0:0:0:
319,14,79036,1,0,0:0:0:0:
319,14,79179,6,0,P|251:18|169:16,1,135,14|8,0:0|0:0,0:0:0:0:
82,77,79607,1,0,0:0:0:0:
82,77,79750,2,0,L|82:148,1,67.5,8|0,0:0|0:0,0:0:0:0:
109,269,80036,1,2,0:0:0:0:
109,269,80179,2,0,L|25:269,1,67.5,8|0,0:0|0:0,0:0:0:0:
72,366,80464,5,14,0:3:0:0:
72,366,80607,2,0,L|162:366,1,67.5,8|2,0:0|0:0,0:0:0:0:
109,269,80893,2,0,L|264:268,1,135,8|8,0:0|0:0,0:0:0:0:
253,373,81322,1,0,0:0:0:0:
253,373,81464,6,0,P|284:321|235:266,1,135,14|8,0:0|0:0,0:0:0:0:
260,151,81893,1,2,0:0:0:0:
260,151,82036,2,0,L|258:75,1,67.5,8|8,0:0|0:0,0:0:0:0:
388,85,82322,1,10,0:0:0:0:
388,85,82464,1,8,0:0:0:0:
394,200,82607,1,4,0:3:0:0:
394,200,82750,6,0,L|306:200,1,67.5,14|0,0:3|0:0,0:0:0:0:
199,207,83036,1,2,0:0:0:0:
277,303,83179,2,0,B|317:303|317:303|361:330|361:330|430:330,1,135,8|8,0:0|0:0,0:0:0:0:
488,245,83607,1,2,0:0:0:0:
488,245,83750,6,0,L|479:107,1,135,14|8,0:0|0:0,0:0:0:0:
475,0,84179,1,2,0:0:0:0:
475,0,84322,2,0,L|389:7,1,67.5,8|0,0:0|0:0,0:0:0:0:
412,116,84607,1,2,0:0:0:0:
412,116,84750,2,0,L|503:107,1,67.5,8|0,0:0|0:0,0:0:0:0:
488,245,85036,6,0,L|352:255,1,135,14|2,0:0|0:0,0:0:0:0:
257,261,85464,5,2,0:0:0:0:
246,222,85750,1,2,0:0:0:0:
219,191,86036,1,2,0:0:0:0:
180,178,86322,1,2,0:0:0:0:
135,182,86607,1,2,0:0:0:0:
105,210,86893,1,2,0:0:0:0:
