osu file format v14

[General]
AudioFilename: audio.mp3
AudioLeadIn: 1000
PreviewTime: 71667
Countdown: 0
SampleSet: Soft
StackLeniency: 0.5
Mode: 2
LetterboxInBreaks: 0
WidescreenStoryboard: 1

[Editor]
Bookmarks: 67223
DistanceSpacing: 1
BeatDivisor: 4
GridSize: 4
TimelineZoom: 2.600005

[Metadata]
Title:Wadatsumi
TitleUnicode:海神
Artist:TOTTO
ArtistUnicode:兎々
Creator:Nidoking
Version:Rain
Source:REFLEC BEAT colette -Summer-
Tags:konami コレットフィッシング
BeatmapID:2014341
BeatmapSetID:962014

[Difficulty]
HPDrainRate:6
CircleSize:3
OverallDifficulty:9
ApproachRate:9
SliderMultiplier:1.6
SliderTickRate:1

[Events]
//Background and Video events
0,0,"wadatsumi.jpg",0,0
//Break Periods
//Storyboard Layer 0 (Background)
//Storyboard Layer 1 (Fail)
//Storyboard Layer 2 (Pass)
//Storyboard Layer 3 (Foreground)
//Storyboard Layer 4 (Overlay)
//Storyboard Sound Samples

[TimingPoints]
1162,377.358490566038,4,2,2,70,1,0
1224,-100,4,2,0,10,0,0
2294,-100,4,2,0,70,0,0
2671,-100,4,2,2,70,0,0
3803,-100,4,2,0,70,0,0
4180,-100,4,2,2,70,0,0
4243,-100,4,2,2,15,0,0
4935,-100,4,2,0,70,0,0
5312,-100,4,2,0,70,0,0
7199,-100,4,2,2,70,0,0
7262,-100,4,2,0,15,0,0
7954,-100,4,2,0,70,0,0
9086,-100,4,2,0,70,0,0
9487,-100,4,2,0,70,0,0
10029,-100,4,2,0,5,0,0
10242,-100,4,2,0,70,0,0
13048,-100,4,2,0,10,0,0
13261,377.358490566038,4,2,0,70,1,0
19110,-100,4,2,2,40,0,0
19298,-100,4,2,0,70,0,0
22317,-100,4,1,2,70,0,0
22411,-100,4,2,0,70,0,0
22694,-100,4,2,2,55,0,0
23921,-100,4,2,0,70,0,0
24959,-100,4,2,2,55,0,0
25336,-200,4,2,0,70,0,0
25430,-200,4,2,0,10,0,0
26091,-100,4,2,0,70,0,0
26845,-100,4,2,0,70,0,0
26940,-100,4,2,2,50,0,0
29676,-100,4,2,0,70,0,0
29864,-100,4,2,2,50,0,0
31751,-100,4,2,1,50,0,0
32317,-100,4,2,2,50,0,0
32411,-100,4,2,1,50,0,0
32600,-100,4,2,2,50,0,0
32883,-100,4,2,0,70,0,0
35336,-100,4,2,2,50,0,0
35713,-100,4,2,0,70,0,0
38166,-100,4,2,2,50,0,0
38544,-100,4,2,2,50,0,0
38921,-100,4,2,2,50,0,0
43827,-100,4,2,1,50,0,0
43921,-100,4,2,2,50,0,0
44015,-100,4,2,1,50,0,0
44204,-100,4,2,1,50,0,0
44393,-100,4,2,2,50,0,0
44487,-100,4,2,1,50,0,0
44676,-100,4,2,2,50,0,0
44686,-100,4,2,2,50,0,0
50996,-100,4,2,2,50,0,0
51374,-100,4,2,2,50,0,0
51751,-100,4,2,0,50,0,0
57034,-100,4,2,0,70,0,0
66091,-100,4,2,2,70,0,0
69110,-100,4,1,2,70,0,0
70619,-100,4,1,2,50,0,0
71752,-100,4,2,0,70,0,0
72129,-100,4,2,0,70,0,0
82694,-100,4,2,0,70,0,0
83827,-100,4,2,2,70,0,0
84204,-100,4,2,0,70,0,0
90053,-100,4,2,2,40,0,0
90242,-100,4,2,0,70,0,0
94015,-100,4,2,0,70,0,0
94770,-100,4,2,0,70,0,0
95053,-100,4,2,1,40,0,0
95336,-100,4,2,1,60,0,0
95430,-66.6666666666667,4,2,0,60,0,0
95902,-66.6666666666667,4,2,0,70,0,0
96279,-100,4,2,0,70,0,0
102128,-100,4,2,2,40,0,0
102317,-100,4,2,0,40,0,0
106845,-100,4,2,2,40,0,0
107977,-100,4,2,2,70,0,1
108072,-100,4,2,2,70,0,0
108355,-100,4,2,0,70,0,1
117789,-100,4,2,2,70,0,1
117883,-100,4,2,0,70,0,1
118072,-100,4,2,0,70,0,1
118544,-100,4,2,2,70,0,1
118921,-100,4,2,1,70,0,1
119015,-100,4,2,2,70,0,1
119298,-100,4,2,1,70,0,1
119393,-100,4,2,2,70,0,1
119581,-100,4,2,2,70,0,1
119676,-100,4,2,1,70,0,1
119770,-100,4,2,2,70,0,1
120053,-100,4,2,1,70,0,1
120997,-100,4,2,0,70,0,1
121374,-100,4,2,0,70,0,1
125336,-100,4,2,0,10,0,0

[Colours]
Combo1 : 193,132,255
Combo2 : 255,128,128
Combo3 : 128,255,255
Combo4 : 255,255,128
Combo5 : 128,255,128
Combo6 : 255,255,255

[HitObjects]
255,193,1067,5,0,0:0:0:0:
255,193,1114,1,0,0:0:0:0:
255,193,1162,1,0,0:0:0:0:
182,191,2294,5,2,0:0:0:0:
326,192,2483,1,0,0:0:0:0:
182,191,2624,1,0,0:0:0:0:
182,191,2671,1,4,0:0:0:0:
181,191,3803,5,2,0:0:0:0:
304,191,3992,1,0,0:0:0:0:
424,193,4133,1,0,0:0:0:0:
424,193,4180,1,4,0:0:0:0:
239,195,4888,5,0,0:0:0:0:
239,195,4935,1,0,0:0:0:0:
40,192,5312,1,0,0:0:0:0:
239,195,5643,1,0,0:0:0:0:
239,195,5690,1,2,0:0:0:0:
256,192,6822,5,0,0:0:0:0:
351,193,7011,1,0,0:0:0:0:
168,192,7152,1,0,0:0:0:0:
145,192,7199,2,0,L|145:22,1,160,4|0,0:0|0:0,0:0:0:0:
261,193,7907,1,0,0:0:0:0:
281,192,7954,2,0,L|281:27,1,160,2|0,0:0|0:0,0:0:0:0:
120,141,8520,5,2,0:0:0:0:
159,147,8614,1,0,0:0:0:0:
198,154,8709,2,0,P|305:139|158:237,1,560,2|0,0:0|0:0,0:0:0:0:
256,192,10218,12,0,13048,0:0:0:0:
105,283,13261,6,0,L|197:283,1,80,6|0,0:0|0:0,0:0:0:0:
285,205,13544,2,0,L|193:205,1,80,0|0,0:0|0:0,0:0:0:0:
305,128,13827,1,2,0:0:0:0:
156,125,14015,5,0,0:0:0:0:
226,127,14110,1,0,0:0:0:0:
156,125,14204,1,0,0:0:0:0:
305,128,14393,1,2,0:0:0:0:
156,125,14581,5,0,0:0:0:0:
226,127,14676,1,0,0:0:0:0:
158,46,14770,2,0,L|238:46,1,80,0|0,0:0|0:0,0:0:0:0:
359,46,15147,5,2,0:0:0:0:
280,45,15242,1,0,0:0:0:0:
359,46,15336,1,0,0:0:0:0:
437,47,15430,1,2,0:0:0:0:
280,140,15619,5,0,0:0:0:0:
222,138,15713,2,0,L|222:230,1,80,0|2,0:0|0:0,0:0:0:0:
324,237,16091,5,0,0:0:0:0:
377,260,16185,1,0,0:0:0:0:
377,260,16279,1,6,0:0:0:0:
324,237,16374,1,0,0:0:0:0:
212,352,16562,1,0,0:0:0:0:
324,237,16751,5,0,0:0:0:0:
265,238,16845,1,2,0:0:0:0:
206,238,16940,2,0,L|297:237,1,80,0|0,0:0|0:0,0:0:0:0:
331,162,17223,1,0,0:0:0:0:
278,160,17317,2,0,L|187:159,1,80,0|0,0:0|0:0,0:0:0:0:
377,237,17694,1,0,0:0:0:0:
244,237,17789,2,0,L|324:237,1,80,0|0,0:0|0:0,0:0:0:0:
185,101,18166,5,2,0:0:0:0:
231,101,18261,1,0,0:0:0:0:
278,102,18355,1,0,0:0:0:0:
329,101,18449,2,0,L|216:101,1,80,2|2,0:0|0:0,0:0:0:0:
360,185,18732,1,0,0:0:0:0:
263,186,18827,1,0,0:0:0:0:
460,187,19110,1,6,0:0:0:0:
203,70,19298,6,0,L|312:70,1,80,4|0,0:0|0:0,0:0:0:0:
383,146,19581,2,0,L|274:146,1,80,2|0,0:0|0:0,0:0:0:0:
403,227,19864,1,0,0:0:0:0:
403,227,20147,5,2,0:0:0:0:
324,225,20242,1,0,0:0:0:0:
403,227,20336,1,0,0:0:0:0:
211,132,20525,6,0,L|292:132,1,80,2|0,0:0|0:0,0:0:0:0:
211,132,20808,1,2,0:0:0:0:
409,136,20996,1,0,0:0:0:0:
211,132,21185,5,2,0:0:0:0:
129,132,21279,1,0,0:0:0:0:
211,132,21374,1,0,0:0:0:0:
291,132,21468,1,2,0:0:0:0:
459,136,21657,5,2,0:0:0:0:
375,134,21751,1,0,0:0:0:0:
459,136,21845,1,0,0:0:0:0:
291,132,22034,1,2,0:0:0:0:
459,136,22223,1,0,0:0:0:0:
259,281,22317,5,4,0:0:0:0:
181,278,22411,1,0,0:0:0:0:
259,281,22506,1,0,0:0:0:0:
336,219,22600,2,0,L|214:219,1,120,0|4,0:0|0:0,0:0:0:0:
297,219,22977,1,0,0:0:0:0:
97,98,23072,5,4,1:0:0:0:
20,98,23166,1,0,0:0:0:0:
97,98,23261,1,0,0:0:0:0:
176,101,23355,2,0,L|39:101,1,120,0|4,0:0|0:0,0:0:0:0:
135,100,23732,1,0,0:0:0:0:
316,119,23827,5,4,1:0:0:0:
374,120,23921,1,0,0:0:0:0:
434,120,24015,1,0,0:0:0:0:
374,120,24110,1,0,0:0:0:0:
208,200,24204,5,2,0:0:0:0:
146,201,24298,1,0,0:0:0:0:
316,202,24393,5,0,0:0:0:0:
378,205,24487,1,0,0:0:0:0:
208,290,24581,5,2,0:0:0:0:
150,291,24675,1,0,0:0:0:0:
90,291,24769,1,0,0:0:0:0:
150,291,24864,1,0,0:0:0:0:
316,291,24959,5,2,0:0:0:0:
374,292,25053,1,0,0:0:0:0:
316,291,25147,1,2,0:0:0:0:
150,291,25242,1,0,0:0:0:0:
335,183,26091,5,0,0:0:0:0:
214,179,26279,5,0,3:0:0:0:
274,180,26374,1,0,0:0:0:0:
214,179,26468,5,2,3:0:0:0:
274,180,26562,1,8,3:0:0:0:
335,183,26657,1,0,3:0:0:0:
274,180,26751,1,0,0:0:0:0:
84,65,26845,5,4,1:0:0:0:
220,67,27034,2,0,L|122:67,1,80,0|2,0:0|3:0,0:0:0:0:
84,65,27411,5,0,0:0:0:0:
140,66,27506,1,0,0:0:0:0:
197,68,27600,1,0,3:0:0:0:
319,69,27789,2,0,L|221:69,1,80,0|2,0:0|2:0,0:0:0:0:
117,68,28166,2,0,L|215:68,1,80,0|0,0:0|1:0,0:0:0:0:
64,139,28544,5,0,0:0:0:0:
121,141,28638,1,0,0:0:0:0:
64,139,28732,1,0,3:0:0:0:
179,141,28921,5,0,0:0:0:0:
121,141,29015,1,0,0:0:0:0:
302,144,29110,5,0,1:0:0:0:
361,147,29204,1,0,0:0:0:0:
361,147,29298,1,2,0:0:0:0:
302,144,29393,1,0,0:0:0:0:
244,145,29487,2,0,L|338:145,1,80,2|2,0:0|0:0,0:0:0:0:
196,225,29864,5,4,1:0:0:0:
324,225,30053,2,0,L|230:225,1,80,0|0,0:0|1:0,0:0:0:0:
379,227,30430,5,0,0:0:0:0:
438,229,30525,1,0,0:0:0:0:
379,227,30619,1,0,1:0:0:0:
246,147,30808,6,0,L|332:147,1,80,0|2,0:0|0:0,0:0:0:0:
454,146,31185,6,0,L|368:146,1,80,0|0,0:0|1:0,0:0:0:0:
245,147,31562,5,0,0:0:0:0:
186,146,31657,1,0,0:0:0:0:
245,147,31751,1,0,0:0:0:0:
128,147,31940,5,0,0:0:0:0:
69,147,32034,1,0,0:0:0:0:
245,147,32128,5,0,1:0:0:0:
305,147,32223,1,0,0:0:0:0:
361,149,32317,1,0,0:0:0:0:
305,147,32411,1,0,0:0:0:0:
245,147,32506,1,0,0:0:0:0:
305,147,32600,1,0,0:0:0:0:
361,149,32694,1,2,0:0:0:0:
305,147,32789,1,0,0:0:0:0:
128,63,32883,6,0,L|214:63,1,80,4|0,0:0|0:0,0:0:0:0:
305,147,33261,1,0,1:0:0:0:
208,63,33449,1,0,0:0:0:0:
149,62,33544,1,0,0:0:0:0:
208,63,33638,1,0,1:0:0:0:
70,112,33827,6,0,L|70:208,1,80,0|0,0:0|0:0,0:0:0:0:
221,191,34204,2,0,L|221:111,1,80,0|0,1:0|1:0,0:0:0:0:
70,112,34581,5,0,0:0:0:0:
127,113,34676,1,0,0:0:0:0:
184,115,34770,1,0,1:0:0:0:
70,112,34959,5,0,0:0:0:0:
14,110,35053,1,0,0:0:0:0:
184,115,35147,5,0,1:0:0:0:
240,115,35242,1,0,0:0:0:0:
298,118,35336,1,2,0:0:0:0:
240,115,35430,1,0,0:0:0:0:
184,115,35525,2,0,L|184:212,1,80,2|2,0:0|0:0,0:0:0:0:
319,202,35902,5,4,0:0:0:0:
175,271,36091,2,0,L|288:271,1,80,0|0,0:0|1:0,0:0:0:0:
98,242,36468,5,0,0:0:0:0:
40,241,36562,1,0,0:0:0:0:
98,242,36657,1,0,1:0:0:0:
236,243,36845,1,0,0:0:0:0:
291,244,36940,1,0,0:0:0:0:
346,246,37034,2,0,L|239:245,1,80,2|8,3:0|3:0,0:0:0:0:
137,168,37411,5,2,1:0:0:0:
78,167,37506,1,0,0:0:0:0:
241,167,37600,5,0,0:0:0:0:
300,166,37695,1,0,1:0:0:0:
137,86,37789,5,2,1:0:0:0:
78,85,37884,1,0,0:0:0:0:
19,86,37977,1,2,0:0:0:0:
78,85,38072,1,0,0:0:0:0:
242,92,38166,5,10,3:0:0:0:
301,91,38261,1,0,3:0:0:0:
301,91,38355,1,0,3:0:0:0:
301,91,38449,1,0,0:0:0:0:
137,86,38544,5,2,2:0:0:0:
78,85,38638,1,0,0:0:0:0:
137,86,38732,1,0,0:0:0:0:
78,85,38827,1,0,0:0:0:0:
301,172,38921,5,4,1:0:0:0:
136,170,39110,1,0,0:0:0:0:
78,171,39204,1,0,0:0:0:0:
136,170,39298,1,0,1:0:0:0:
301,172,39487,1,0,0:0:0:0:
359,173,39581,1,0,0:0:0:0:
301,172,39676,2,0,L|198:172,1,80,0|0,3:0|0:0,0:0:0:0:
136,170,40053,1,4,1:0:0:0:
301,172,40242,1,0,0:0:0:0:
32,171,40430,1,0,1:0:0:0:
219,170,40619,5,0,0:0:0:0:
160,168,40713,1,0,0:0:0:0:
219,170,40808,2,0,L|325:170,1,80,0|0,1:0|0:0,0:0:0:0:
349,169,41091,1,0,0:0:0:0:
103,95,41185,5,0,1:0:0:0:
48,95,41279,1,0,0:0:0:0:
48,95,41374,1,2,0:0:0:0:
103,95,41468,1,0,0:0:0:0:
158,96,41562,2,0,L|158:193,1,80,2|0,0:0|0:0,0:0:0:0:
367,97,41940,5,0,1:0:0:0:
210,175,42128,1,0,0:0:0:0:
268,175,42223,1,0,0:0:0:0:
210,175,42317,1,0,1:0:0:0:
369,178,42506,1,0,0:0:0:0:
426,178,42600,1,0,0:0:0:0:
481,179,42694,2,0,L|380:179,1,80,0|0,3:0|0:0,0:0:0:0:
256,180,43072,1,4,1:0:0:0:
426,178,43261,1,0,0:0:0:0:
156,179,43449,1,4,1:0:0:0:
307,248,43638,5,0,0:0:0:0:
364,248,43732,1,0,0:0:0:0:
200,250,43827,5,0,0:0:0:0:
143,250,43921,1,0,0:0:0:0:
200,250,44015,1,0,0:0:0:0:
143,250,44110,1,0,0:0:0:0:
307,248,44204,5,0,0:0:0:0:
364,248,44298,1,0,0:0:0:0:
421,250,44393,1,0,0:0:0:0:
364,248,44487,1,0,0:0:0:0:
200,250,44581,5,0,0:0:0:0:
143,250,44676,1,0,0:0:0:0:
143,250,44770,1,2,0:0:0:0:
200,250,44864,1,0,0:0:0:0:
364,248,44959,5,4,1:0:0:0:
156,250,45147,1,0,0:0:0:0:
213,250,45242,1,0,0:0:0:0:
270,249,45336,1,2,3:0:0:0:
421,248,45525,1,0,0:0:0:0:
364,248,45620,1,0,0:0:0:0:
307,247,45713,2,0,L|419:248,1,80,4|0,3:0|0:0,0:0:0:0:
471,166,46091,2,0,L|359:167,1,80,2|0,3:0|0:0,0:0:0:0:
81,84,46468,6,0,L|-20:84,1,80,4|0,1:0|0:0,0:0:0:0:
67,157,46751,1,0,0:0:0:0:
227,89,46845,6,0,L|328:89,1,80,2|0,3:0|3:0,0:0:0:0:
241,162,47128,1,0,3:0:0:0:
67,157,47223,5,4,3:0:0:0:
8,156,47317,1,0,0:0:0:0:
67,157,47411,1,0,0:0:0:0:
125,158,47506,1,0,0:0:0:0:
182,160,47600,2,0,L|182:273,1,80,2|0,0:0|0:0,0:0:0:0:
445,154,47977,6,0,L|307:154,1,120,4|0,1:0|0:0,0:0:0:0:
233,156,48355,2,0,L|380:156,1,120,0|0,0:0|0:0,0:0:0:0:
21,154,48732,6,0,L|159:154,1,120,4|0,1:0|0:0,0:0:0:0:
233,156,49110,2,0,L|86:156,1,120,2|0,0:0|0:0,0:0:0:0:
179,237,49487,5,2,0:0:0:0:
233,237,49581,1,0,0:0:0:0:
70,235,49676,5,0,0:0:0:0:
16,235,49770,1,0,0:0:0:0:
179,237,49864,5,2,0:0:0:0:
233,237,49959,1,0,0:0:0:0:
70,235,50053,5,0,0:0:0:0:
16,235,50147,1,0,0:0:0:0:
179,237,50242,5,2,0:0:0:0:
233,237,50336,1,0,0:0:0:0:
402,237,50430,5,0,0:0:0:0:
348,237,50524,1,0,0:0:0:0:
179,237,50619,5,2,0:0:0:0:
233,237,50713,1,0,0:0:0:0:
402,237,50807,5,2,0:0:0:0:
348,237,50901,1,0,0:0:0:0:
45,237,50996,5,4,2:0:0:0:
182,185,51185,1,0,0:0:0:0:
233,138,51374,1,0,0:0:0:0:
256,69,51562,1,0,0:0:0:0:
261,0,51751,1,2,0:0:0:0:
330,185,52128,6,0,L|240:185,1,80,0|0,0:0|0:0,0:0:0:0:
467,237,52506,5,4,2:0:0:0:
330,185,52695,1,0,0:0:0:0:
279,138,52884,1,0,0:0:0:0:
256,69,53072,1,0,0:0:0:0:
251,0,53261,1,2,0:0:0:0:
182,185,53638,6,0,L|272:185,1,80,0|0,0:0|0:0,0:0:0:0:
45,237,54015,5,4,0:0:0:0:
182,185,54204,1,0,0:0:0:0:
319,245,54393,1,0,0:0:0:0:
215,189,54581,1,0,0:0:0:0:
319,245,54770,1,2,0:0:0:0:
470,245,55147,1,2,0:0:0:0:
280,145,55525,6,0,L|455:145,1,160,0|0,0:0|0:0,0:0:0:0:
349,68,56091,5,0,0:0:0:0:
294,66,56185,1,0,0:0:0:0:
100,100,56279,6,0,L|75:132,1,40,0|0,0:0|0:0,0:0:0:0:
144,176,56468,6,0,L|172:142,1,40,0|0,0:0|0:0,0:0:0:0:
224,200,56657,6,0,L|197:235,1,40,0|0,0:0|0:0,0:0:0:0:
268,276,56845,6,0,L|294:243,1,40,0|0,0:0|0:0,0:0:0:0:
88,275,57034,5,4,1:0:0:0:
207,275,57223,1,0,0:0:0:0:
268,276,57317,1,0,0:0:0:0:
207,275,57411,1,2,0:0:0:0:
88,275,57600,1,0,0:0:0:0:
399,211,57789,6,0,L|499:211,1,80,2|2,0:0|0:0,0:0:0:0:
286,122,58166,2,0,L|186:122,1,80,2|0,0:0|0:0,0:0:0:0:
372,96,58544,5,2,0:0:0:0:
432,95,58638,1,0,0:0:0:0:
492,94,58732,1,0,0:0:0:0:
432,95,58827,1,0,0:0:0:0:
316,179,58921,5,0,0:0:0:0:
257,178,59015,1,0,0:0:0:0:
257,178,59110,1,0,0:0:0:0:
316,179,59204,1,0,0:0:0:0:
479,301,59298,5,2,0:0:0:0:
364,217,59487,1,0,0:0:0:0:
319,75,59676,1,2,0:0:0:0:
365,0,59864,1,0,0:0:0:0:
483,77,60053,6,0,L|396:77,1,80,2|0,0:0|0:0,0:0:0:0:
287,161,60430,6,0,L|374:161,1,80,2|0,0:0|0:0,0:0:0:0:
50,164,60808,6,0,L|204:164,1,120,2|0,0:0|0:0,0:0:0:0:
227,165,61185,1,0,0:0:0:0:
285,166,61279,1,0,0:0:0:0:
227,165,61374,1,2,0:0:0:0:
168,163,61468,1,0,0:0:0:0:
109,162,61562,2,0,L|109:73,1,80,2|0,0:0|0:0,0:0:0:0:
227,165,61940,2,0,L|227:76,1,80,2|0,0:0|0:0,0:0:0:0:
481,169,62317,2,0,L|312:169,1,160,2|0,0:0|0:0,0:0:0:0:
218,100,62883,1,0,0:0:0:0:
164,99,62977,1,0,0:0:0:0:
218,100,63072,6,0,L|311:100,1,80,2|0,0:0|0:0,0:0:0:0:
350,102,63355,1,0,0:0:0:0:
191,165,63449,5,2,0:0:0:0:
139,177,63544,1,0,0:0:0:0:
102,215,63638,1,0,0:0:0:0:
86,254,63732,1,0,0:0:0:0:
85,305,63827,5,2,0:0:0:0:
231,304,64015,1,0,0:0:0:0:
85,305,64204,1,2,0:0:0:0:
231,304,64393,1,0,0:0:0:0:
142,307,64581,5,2,0:0:0:0:
85,305,64676,1,0,0:0:0:0:
85,305,64770,1,0,0:0:0:0:
142,307,64864,1,0,0:0:0:0:
258,310,64959,5,2,0:0:0:0:
315,311,65053,1,0,0:0:0:0:
315,311,65147,1,0,0:0:0:0:
258,310,65242,1,0,0:0:0:0:
85,305,65336,5,2,0:0:0:0:
276,264,65525,1,0,0:0:0:0:
88,223,65713,1,2,0:0:0:0:
279,182,65902,1,0,0:0:0:0:
131,108,66091,5,4,0:0:0:0:
202,108,66216,1,0,0:0:0:0:
274,109,66342,1,0,0:0:0:0:
417,108,66468,5,0,0:0:0:0:
346,108,66593,1,0,0:0:0:0:
274,109,66719,1,0,0:0:0:0:
417,108,66845,5,0,0:0:0:0:
488,108,66970,1,0,0:0:0:0:
417,108,67097,1,0,0:0:0:0:
273,108,67223,5,0,0:0:0:0:
202,108,67348,1,0,0:0:0:0:
273,108,67475,1,0,0:0:0:0:
488,108,67600,5,4,0:0:0:0:
417,108,67725,1,0,0:0:0:0:
488,108,67852,1,0,0:0:0:0:
346,108,67977,5,0,0:0:0:0:
417,108,68102,1,0,0:0:0:0:
488,108,68229,1,0,0:0:0:0:
275,108,68355,5,0,0:0:0:0:
346,108,68480,1,0,0:0:0:0:
275,108,68607,1,0,0:0:0:0:
488,108,68732,5,0,0:0:0:0:
417,108,68858,1,0,0:0:0:0:
488,108,68984,1,0,0:0:0:0:
275,108,69110,6,0,L|-18:108,1,280,6|0,0:0|0:0,0:0:0:0:
384,211,69864,2,0,L|515:211,1,120,6|0,0:0|0:0,0:0:0:0:
222,213,70242,2,0,L|91:213,1,120,6|0,0:0|0:0,0:0:0:0:
386,117,70619,2,0,P|503:174|378:257,1,320,4|0,0:0|0:0,0:0:0:0:
188,157,71751,5,2,0:0:0:0:
244,158,71845,1,0,0:0:0:0:
301,161,71940,1,0,0:0:0:0:
244,158,72034,1,0,0:0:0:0:
188,157,72128,2,0,L|188:71,1,80,6|0,0:0|0:0,0:0:0:0:
357,162,72506,2,0,L|440:162,1,80,0|0,0:0|0:0,0:0:0:0:
389,85,72789,1,0,0:0:0:0:
159,79,72883,5,0,0:0:0:0:
304,81,73072,1,0,0:0:0:0:
108,79,73261,1,2,3:0:0:0:
253,82,73449,1,0,0:0:0:0:
57,77,73638,6,0,L|155:77,1,80,4|0,3:0|0:0,0:0:0:0:
304,81,74015,6,0,L|206:81,1,80,0|0,0:0|0:0,0:0:0:0:
171,82,74298,1,0,0:0:0:0:
334,172,74393,5,2,0:0:0:0:
386,174,74487,1,0,0:0:0:0:
439,173,74581,1,0,0:0:0:0:
386,174,74676,1,0,0:0:0:0:
222,178,74770,5,2,0:0:0:0:
169,177,74864,1,0,0:0:0:0:
336,241,74959,5,0,0:0:0:0:
389,240,75053,1,0,0:0:0:0:
169,177,75147,6,0,L|169:69,1,80,0|0,0:0|0:0,0:0:0:0:
386,174,75430,1,0,0:0:0:0:
439,173,75525,2,0,L|439:65,1,80,0|0,0:0|0:0,0:0:0:0:
216,180,75808,5,0,0:0:0:0:
169,177,75902,2,0,L|268:177,1,80,0|0,0:0|0:0,0:0:0:0:
394,177,76279,2,0,L|295:177,1,80,0|0,0:0|0:0,0:0:0:0:
42,178,76657,6,0,L|219:178,2,160,0|0|0,0:0|0:0|0:0,0:0:0:0:
184,259,77600,1,0,0:0:0:0:
42,132,77789,5,2,0:0:0:0:
100,132,77883,1,0,0:0:0:0:
159,132,77977,1,2,0:0:0:0:
216,135,78072,1,0,0:0:0:0:
42,212,78166,6,0,L|42:105,1,80,2|0,0:0|0:0,0:0:0:0:
216,135,78449,1,0,0:0:0:0:
274,218,78544,6,0,L|274:111,1,80,2|0,3:0|0:0,0:0:0:0:
53,213,78827,1,0,0:0:0:0:
0,208,78921,2,0,L|0:114,1,80,2|0,0:0|0:0,0:0:0:0:
275,135,79204,1,0,0:0:0:0:
327,137,79298,2,0,L|327:239,1,80,2|0,3:0|0:0,0:0:0:0:
54,135,79676,6,0,L|142:135,1,80,2|0,0:0|0:0,0:0:0:0:
256,136,80053,2,0,L|168:136,1,80,2|0,3:0|0:0,0:0:0:0:
122,136,80336,1,0,0:0:0:0:
303,217,80430,6,0,L|303:324,1,80,2|0,0:0|0:0,0:0:0:0:
274,297,80666,1,0,0:0:0:0:
246,296,80713,1,0,0:0:0:0:
218,294,80761,1,0,0:0:0:0:
190,294,80808,6,0,L|190:214,1,80,2|0,3:0|0:0,0:0:0:0:
302,145,81185,5,4,0:0:0:0:
245,145,81279,1,0,0:0:0:0:
187,145,81374,1,0,0:0:0:0:
245,145,81468,1,0,0:0:0:0:
302,145,81562,1,2,0:0:0:0:
361,147,81657,1,0,0:0:0:0:
419,150,81751,1,0,0:0:0:0:
361,147,81845,1,0,0:0:0:0:
302,145,81940,2,0,L|302:45,1,80,4|0,0:0|0:0,0:0:0:0:
158,104,82317,5,2,0:0:0:0:
98,105,82411,1,0,0:0:0:0:
158,104,82506,1,0,0:0:0:0:
218,103,82600,1,0,0:0:0:0:
377,146,82694,5,6,0:0:0:0:
435,149,82789,1,0,0:0:0:0:
252,187,82883,5,0,0:0:0:0:
194,190,82978,1,0,0:0:0:0:
377,227,83072,5,6,0:0:0:0:
435,230,83167,1,0,0:0:0:0:
252,268,83261,5,0,0:0:0:0:
194,271,83356,1,0,0:0:0:0:
378,309,83449,6,0,B|449:308|449:308|369:308,1,120,6|0,0:0|0:0,0:0:0:0:
236,319,83827,5,6,2:0:0:0:
179,321,83921,1,0,0:0:0:0:
236,319,84015,1,0,0:0:0:0:
296,319,84110,1,0,0:0:0:0:
179,321,84204,6,0,L|179:219,1,80,4|0,0:0|0:0,0:0:0:0:
288,167,84581,2,0,L|190:167,1,80,0|0,0:0|0:0,0:0:0:0:
272,169,84864,1,0,0:0:0:0:
477,160,84959,6,0,L|369:160,1,80,2|0,0:0|0:0,0:0:0:0:
240,64,85336,1,2,3:0:0:0:
378,65,85525,1,0,0:0:0:0:
120,65,85713,2,0,L|220:65,1,80,6|0,3:0|0:0,0:0:0:0:
23,147,86091,2,0,L|123:147,1,80,0|0,0:0|0:0,0:0:0:0:
154,148,86374,1,0,0:0:0:0:
315,146,86468,5,2,0:0:0:0:
361,166,86562,1,0,0:0:0:0:
378,216,86657,1,0,0:0:0:0:
364,267,86751,1,0,0:0:0:0:
182,273,86845,5,2,0:0:0:0:
123,273,86940,1,0,0:0:0:0:
346,268,87034,5,0,0:0:0:0:
405,268,87129,1,0,0:0:0:0:
182,273,87223,6,0,L|70:273,1,80,6|0,0:0|0:0,0:0:0:0:
152,248,87506,1,0,0:0:0:0:
330,273,87600,6,0,L|442:273,1,80,2|0,3:0|0:0,0:0:0:0:
360,248,87883,1,0,0:0:0:0:
151,206,87977,5,2,0:0:0:0:
55,148,88166,1,0,0:0:0:0:
186,123,88355,1,2,3:0:0:0:
302,103,88544,1,2,0:0:0:0:
35,60,88732,6,0,L|225:60,2,160,6|0|6,0:0|0:0|0:0,0:0:0:0:
202,142,89676,1,0,0:0:0:0:
337,142,89864,5,0,0:0:0:0:
398,143,89959,1,0,0:0:0:0:
337,142,90053,1,2,0:0:0:0:
278,141,90147,1,0,0:0:0:0:
337,142,90242,2,0,L|337:239,1,80,4|0,0:0|0:0,0:0:0:0:
161,221,90525,1,0,0:0:0:0:
103,219,90619,2,0,L|103:331,1,80,2|0,3:0|0:0,0:0:0:0:
160,311,90902,1,0,0:0:0:0:
331,281,90996,5,0,3:0:0:0:
390,283,91091,1,0,0:0:0:0:
331,281,91185,1,0,0:0:0:0:
170,142,91374,5,2,3:0:0:0:
229,142,91468,1,0,0:0:0:0:
291,142,91562,1,0,0:0:0:0:
229,142,91657,1,0,0:0:0:0:
170,142,91751,2,0,L|170:252,1,80,2|0,0:0|0:0,0:0:0:0:
229,142,92034,1,0,0:0:0:0:
412,144,92128,2,0,L|412:254,1,80,2|0,3:0|0:0,0:0:0:0:
353,144,92411,1,0,0:0:0:0:
165,141,92506,2,0,L|64:141,1,80,0|0,3:0|0:0,0:0:0:0:
143,142,92789,1,0,0:0:0:0:
412,144,92883,2,0,L|513:144,1,80,2|0,3:0|0:0,0:0:0:0:
434,145,93166,1,0,0:0:0:0:
247,227,93261,5,6,0:0:0:0:
187,227,93355,1,0,0:0:0:0:
128,225,93449,1,0,0:0:0:0:
187,227,93544,1,0,0:0:0:0:
247,227,93638,1,2,0:0:0:0:
306,228,93732,1,0,0:0:0:0:
247,227,93827,1,0,0:0:0:0:
187,227,93921,1,0,0:0:0:0:
128,225,94015,5,6,0:0:0:0:
63,122,94204,1,0,0:0:0:0:
384,225,94393,5,2,0:0:0:0:
449,122,94582,1,0,0:0:0:0:
169,89,94770,5,6,0:0:0:0:
343,89,94959,1,0,0:0:0:0:
256,88,95053,1,0,0:0:0:0:
169,89,95147,1,0,0:0:0:0:
427,89,95336,1,4,0:0:0:0:
167,173,95525,6,0,P|105:196|196:228,1,180.000006866455,2|0,2:0|0:0,0:0:0:0:
345,173,95902,2,0,P|407:196|316:228,1,180.000006866455,6|0,0:0|0:0,0:0:0:0:
79,291,96279,5,4,0:0:0:0:
137,289,96374,2,0,L|137:207,1,80,0|0,0:0|0:0,0:0:0:0:
298,213,96845,5,2,0:0:0:0:
241,212,96940,2,0,L|330:212,1,80,0|0,0:0|0:0,0:0:0:0:
221,133,97223,2,0,B|96:133,1,120,0|0,0:0|0:0,0:0:0:0:
101,133,97694,5,0,0:0:0:0:
273,137,97789,2,0,L|167:137,1,80,2|0,0:0|0:0,0:0:0:0:
312,220,98166,5,2,0:0:0:0:
254,219,98261,1,0,0:0:0:0:
312,220,98355,1,0,0:0:0:0:
372,223,98449,1,2,0:0:0:0:
254,219,98732,5,2,0:0:0:0:
312,220,98827,2,0,L|312:131,1,80,0|2,0:0|0:0,0:0:0:0:
312,140,99204,5,0,0:0:0:0:
142,137,99298,1,2,0:0:0:0:
81,136,99393,2,0,L|81:50,1,80,0|0,0:0|0:0,0:0:0:0:
205,203,99864,5,2,0:0:0:0:
146,198,99959,2,0,L|250:198,1,80,0|0,0:0|0:0,0:0:0:0:
350,109,100242,2,0,L|203:109,1,120,0|0,0:0|0:0,0:0:0:0:
121,108,100713,5,0,0:0:0:0:
311,109,100808,2,0,L|311:211,1,80,2|0,0:0|0:0,0:0:0:0:
157,197,101185,5,2,0:0:0:0:
213,198,101279,1,0,0:0:0:0:
270,196,101374,1,0,0:0:0:0:
213,198,101468,1,2,0:0:0:0:
97,269,101657,5,2,0:0:0:0:
36,268,101751,1,0,0:0:0:0:
228,272,101845,5,0,0:0:0:0:
288,273,101940,1,2,0:0:0:0:
97,269,102034,1,0,0:0:0:0:
36,268,102223,5,0,0:0:0:0:
228,272,102317,1,6,0:0:0:0:
288,273,102411,2,0,L|288:168,1,80,0|0,0:0|0:0,0:0:0:0:
149,162,102883,5,2,0:0:0:0:
216,163,102977,1,0,0:0:0:0:
366,114,103166,5,2,0:0:0:0:
301,113,103261,1,0,0:0:0:0:
366,114,103355,1,0,0:0:0:0:
147,268,103544,6,0,L|230:268,1,80,0|0,0:0|0:0,0:0:0:0:
346,337,103827,2,0,L|253:337,1,80,2|0,0:0|0:0,0:0:0:0:
380,259,104204,5,2,0:0:0:0:
430,235,104298,1,0,0:0:0:0:
429,179,104393,1,0,0:0:0:0:
381,143,104487,1,2,0:0:0:0:
209,170,104676,5,2,0:0:0:0:
271,171,104770,1,0,0:0:0:0:
209,170,104864,2,0,L|209:285,1,80,0|2,0:0|0:0,0:0:0:0:
209,250,105242,5,0,0:0:0:0:
385,254,105336,1,6,0:0:0:0:
445,257,105430,2,0,L|445:357,1,80,0|0,0:0|0:0,0:0:0:0:
256,184,105902,5,2,0:0:0:0:
197,182,105996,2,0,L|113:182,1,80,0|0,0:0|0:0,0:0:0:0:
57,183,106279,1,2,0:0:0:0:
117,182,106374,2,0,L|117:285,1,80,0|2,0:0|0:0,0:0:0:0:
117,262,106751,5,0,0:0:0:0:
323,267,106845,2,0,L|230:267,1,80,0|2,0:0|0:0,0:0:0:0:
401,185,107223,5,2,0:0:0:0:
341,184,107317,1,0,0:0:0:0:
279,181,107411,1,0,0:0:0:0:
341,184,107506,1,2,0:0:0:0:
341,184,107694,5,0,0:0:0:0:
163,185,107789,2,0,L|163:102,1,80,2|6,0:0|0:0,0:0:0:0:
341,184,108166,1,0,0:0:0:0:
140,101,108355,6,0,L|227:101,1,80,4|0,0:0|0:0,0:0:0:0:
372,101,108732,6,0,L|285:101,1,80,2|0,3:0|3:0,0:0:0:0:
231,103,109015,1,0,3:0:0:0:
437,193,109110,5,0,0:0:0:0:
282,193,109298,1,0,3:0:0:0:
129,194,109487,1,2,3:0:0:0:
282,193,109676,1,2,0:0:0:0:
342,194,109770,1,0,0:0:0:0:
404,192,109864,6,0,L|291:192,1,80,4|2,3:0|0:0,0:0:0:0:
108,192,110242,6,0,L|221:192,1,80,2|0,3:0|0:0,0:0:0:0:
120,192,110525,1,0,0:0:0:0:
296,192,110619,5,0,0:0:0:0:
356,194,110713,1,0,0:0:0:0:
419,196,110808,1,0,0:0:0:0:
356,194,110902,1,0,0:0:0:0:
296,192,110996,2,0,L|179:192,1,80,2|2,3:0|0:0,0:0:0:0:
16,192,111374,5,4,3:0:0:0:
152,195,111562,1,2,0:0:0:0:
293,197,111751,1,2,3:0:0:0:
152,195,111940,5,0,0:0:0:0:
93,194,112034,1,0,0:0:0:0:
293,197,112128,5,0,0:0:0:0:
152,195,112317,1,0,0:0:0:0:
293,197,112506,1,2,3:0:0:0:
133,196,112694,1,0,0:0:0:0:
293,197,112883,6,0,L|190:197,1,80,4|8,3:0|3:0,0:0:0:0:
415,271,113261,6,0,L|312:271,1,80,2|0,3:0|3:0,0:0:0:0:
219,197,113638,6,0,L|322:197,1,80,0|0,0:0|0:0,0:0:0:0:
97,271,114016,6,0,L|200:271,1,80,2|0,3:0|0:0,0:0:0:0:
405,274,114393,5,4,0:0:0:0:
296,188,114581,2,0,L|390:188,1,80,0|2,3:0|3:0,0:0:0:0:
266,101,114959,5,0,0:0:0:0:
203,100,115053,1,0,0:0:0:0:
266,101,115147,1,0,0:0:0:0:
376,188,115336,2,0,L|282:188,1,80,4|2,3:0|3:0,0:0:0:0:
433,191,115713,1,0,0:0:0:0:
140,190,115902,6,0,L|40:190,1,80,4|0,3:0|0:0,0:0:0:0:
124,191,116185,1,0,0:0:0:0:
317,194,116279,6,0,L|417:194,1,80,2|0,3:0|0:0,0:0:0:0:
333,195,116562,1,4,3:0:0:0:
149,192,116657,5,0,0:0:0:0:
317,194,116845,1,0,3:0:0:0:
149,192,117034,1,2,3:0:0:0:
317,194,117223,5,0,0:0:0:0:
380,194,117317,1,0,3:0:0:0:
124,191,117411,5,4,0:0:0:0:
81,80,117600,1,0,0:0:0:0:
388,191,117789,5,2,0:0:0:0:
431,80,117978,1,0,0:0:0:0:
124,191,118166,5,4,3:0:0:0:
7,191,118355,1,0,0:0:0:0:
388,191,118544,5,2,0:0:0:0:
505,191,118733,1,0,0:0:0:0:
200,192,118921,5,10,0:0:0:0:
142,192,119015,1,0,0:0:0:0:
315,191,119110,5,0,0:0:0:0:
373,192,119204,1,0,0:0:0:0:
200,192,119298,5,10,0:0:0:0:
142,192,119393,1,0,0:0:0:0:
85,191,119487,1,0,0:0:0:0:
142,192,119581,1,0,0:0:0:0:
315,191,119676,5,10,0:0:0:0:
373,191,119770,1,0,0:0:0:0:
200,192,119864,5,0,0:0:0:0:
144,192,119959,1,0,0:0:0:0:
315,191,120053,5,0,0:0:0:0:
373,191,120147,1,0,0:0:0:0:
315,191,120242,1,0,0:0:0:0:
144,192,120336,1,0,0:0:0:0:
256,193,120996,5,2,0:0:0:0:
256,193,121091,1,2,0:0:0:0:
256,193,121185,1,4,0:0:0:0:
256,192,121279,12,0,125336,0:0:0:0:
