osu file format v14

[General]
AudioFilename: audio.mp3
AudioLeadIn: 1000
PreviewTime: 71667
Countdown: 0
SampleSet: Soft
StackLeniency: 0.2
Mode: 0
LetterboxInBreaks: 0
WidescreenStoryboard: 1

[Editor]
Bookmarks: 71374
DistanceSpacing: 1.4
BeatDivisor: 4
GridSize: 4
TimelineZoom: 2.100006

[Metadata]
Title:Wadatsumi
TitleUnicode:海神
Artist:TOTTO
ArtistUnicode:兎々
Creator:[Mahua]
Version:WHITE HARD
Source:REFLEC BEAT colette -Summer-
Tags:konami コレットフィッシング hdyro core
BeatmapID:1542628
BeatmapSetID:730933

[Difficulty]
HPDrainRate:7
CircleSize:5
OverallDifficulty:8
ApproachRate:9
SliderMultiplier:1.6
SliderTickRate:1

[Events]
//Background and Video events
0,0,"bg.jpg",0,0
//Break Periods
//Storyboard Layer 0 (Background)
//Storyboard Layer 1 (Fail)
//Storyboard Layer 2 (Pass)
//Storyboard Layer 3 (Foreground)
//Storyboard Sound Samples

[TimingPoints]
1162,377.358490566038,4,2,2,70,1,0
1224,-100,4,2,2,10,0,0
2294,-100,4,2,2,70,0,0
2671,-100,4,2,2,70,0,0
3803,-100,4,2,2,70,0,0
4180,-100,4,2,2,70,0,0
4243,-100,4,2,2,15,0,0
4935,-100,4,2,2,70,0,0
5312,-100,4,2,2,70,0,0
5690,-200,4,2,0,70,0,0
7199,-100,4,2,2,70,0,0
7262,-100,4,2,0,15,0,0
7954,-100,4,2,0,70,0,0
8709,-100,4,2,1,70,0,0
9086,-100,4,2,1,70,0,0
9487,-100,4,2,1,70,0,0
10124,-100,4,2,3,70,0,0
10312,-100,4,2,1,70,0,0
13048,-100,4,2,1,10,0,0
13261,377.358490566038,4,2,1,70,1,0
14770,-100,4,2,3,70,0,0
14864,-100,4,2,1,70,0,0
16279,-100,4,2,3,70,0,0
17694,-100,4,2,1,70,0,0
17789,-100,4,2,3,70,0,0
18638,-100,4,2,1,70,0,0
19110,-100,4,2,1,40,0,0
19298,-100,4,2,1,70,0,0
20808,-100,4,2,3,70,0,0
22317,-100,4,1,1,70,0,0
22411,-100,4,2,1,70,0,0
22694,-100,4,2,1,55,0,0
23921,-100,4,2,3,70,0,0
24959,-100,4,2,3,55,0,0
25336,-200,4,2,0,70,0,0
25430,-200,4,2,1,10,0,0
26091,-100,4,2,1,70,0,0
26845,-100,4,2,1,70,0,0
26940,-100,4,2,3,50,0,0
29676,-100,4,2,1,70,0,0
29864,-100,4,2,3,50,0,0
31751,-100,4,2,3,50,0,0
32317,-100,4,2,3,50,0,0
32411,-100,4,2,3,50,0,0
32600,-100,4,2,1,50,0,0
32883,-100,4,2,3,70,0,0
35336,-100,4,2,3,50,0,0
35713,-100,4,2,3,70,0,0
38166,-100,4,2,2,50,0,0
38544,-66.6666666666667,4,2,2,50,0,0
38921,-100,4,2,0,50,0,0
39015,-100,4,2,2,50,0,0
43827,-100,4,2,1,50,0,0
43921,-100,4,2,2,50,0,0
44015,-100,4,2,1,50,0,0
44204,-100,4,2,1,50,0,0
44393,-100,4,2,2,50,0,0
44487,-100,4,2,1,50,0,0
44676,-100,4,2,2,50,0,0
44686,-100,4,2,2,50,0,0
50996,-133.333333333333,4,2,2,50,0,0
51374,-133.333333333333,4,2,2,50,0,0
51751,-133.333333333333,4,2,2,50,0,0
57034,-111.111111111111,4,2,0,70,0,0
57977,-111.111111111111,4,2,1,70,0,0
58072,-111.111111111111,4,2,0,70,0,0
59298,-111.111111111111,4,2,5,50,0,0
59393,-111.111111111111,4,2,0,70,0,0
60053,-111.111111111111,4,2,2,70,0,0
62317,-111.111111111111,4,2,5,70,0,0
62411,-111.111111111111,4,2,2,70,0,0
63827,-111.111111111111,4,2,0,70,0,0
64581,-111.111111111111,4,2,2,70,0,0
65336,-111.111111111111,4,2,5,50,0,0
65430,-111.111111111111,4,2,0,70,0,0
66091,-133.333333333333,4,2,2,70,0,0
69110,-100,4,1,2,70,0,0
70619,-100,4,1,2,40,0,0
70713,-100,4,1,2,35,0,0
70996,-100,4,1,2,40,0,0
71185,-100,4,1,2,35,0,0
71752,-100,4,2,0,70,0,0
72129,-100,4,2,10,70,0,0
72223,-100,4,2,0,70,0,0
73638,-100,4,2,11,70,0,0
73732,-100,4,2,0,70,0,0
74393,-100,4,2,12,70,0,0
74487,-100,4,2,0,70,0,0
75147,-100,4,2,13,70,0,0
75242,-100,4,2,0,70,0,0
75902,-100,4,2,12,70,0,0
75996,-100,4,2,0,70,0,0
76657,-100,4,2,14,70,0,0
77034,-100,4,2,15,70,0,0
77411,-100,4,2,16,70,0,0
77506,-100,4,2,0,70,0,0
78166,-100,4,2,10,70,0,0
78261,-100,4,2,0,70,0,0
79676,-100,4,2,17,70,0,0
79770,-100,4,2,0,70,0,0
81185,-100,4,2,18,70,0,0
81279,-100,4,2,0,70,0,0
81940,-100,4,2,19,70,0,0
82034,-100,4,2,0,70,0,0
82694,-133.333333333333,4,2,20,70,0,0
82789,-133.333333333333,4,2,0,70,0,0
83449,-133.333333333333,4,2,21,70,0,0
83544,-133.333333333333,4,2,0,70,0,0
83827,-100,4,2,2,30,0,0
83921,-100,4,2,2,70,0,0
84204,-100,4,2,10,70,0,0
84298,-100,4,2,0,70,0,0
85713,-100,4,2,11,70,0,0
85808,-100,4,2,0,70,0,0
86468,-100,4,2,12,70,0,0
86562,-100,4,2,0,70,0,0
87223,-100,4,2,13,70,0,0
87317,-100,4,2,0,70,0,0
87977,-100,4,2,12,70,0,0
88072,-100,4,2,0,70,0,0
88732,-100,4,2,22,70,0,0
88827,-100,4,2,0,70,0,0
89110,-100,4,2,23,70,0,0
89204,-100,4,2,0,70,0,0
89487,-100,4,2,24,70,0,0
89581,-100,4,2,0,70,0,0
90053,-100,4,2,2,40,0,0
90242,-100,4,2,10,70,0,0
90336,-100,4,2,0,70,0,0
91751,-100,4,2,17,70,0,0
91845,-100,4,2,0,70,0,0
93261,-100,4,2,18,70,0,0
93355,-100,4,2,0,70,0,0
94015,-66.6666666666667,4,2,19,70,0,0
94110,-66.6666666666667,4,2,0,70,0,0
94770,-100,4,2,20,70,0,0
94864,-100,4,2,0,70,0,0
95053,-100,4,2,1,40,0,0
95336,-66.6666666666667,4,2,1,60,0,0
95430,-66.6666666666667,4,2,0,60,0,0
95525,-66.6666666666667,4,2,21,60,0,0
95619,-66.6666666666667,4,2,0,60,0,0
95902,-80,4,2,0,70,0,0
96279,-100,4,2,30,70,0,0
96374,-100,4,2,0,70,0,0
102128,-100,4,2,2,40,0,0
102317,-100,4,2,0,70,0,0
106845,-100,4,2,2,40,0,0
107223,-100,4,2,2,70,0,0
107411,-100,4,2,2,40,0,0
107506,-100,4,2,2,70,0,0
107977,-66.6666666666667,4,2,2,40,0,1
108072,-66.6666666666667,4,2,2,70,0,0
108355,-66.6666666666667,4,2,2,70,0,1
117789,-50,4,2,2,70,0,1
117883,-50,4,2,0,70,0,1
118072,-66.6666666666667,4,2,0,70,0,1
118544,-50,4,2,2,70,0,1
118921,-66.6666666666667,4,2,1,70,0,1
119015,-66.6666666666667,4,2,2,70,0,1
119298,-66.6666666666667,4,2,1,70,0,1
119393,-66.6666666666667,4,2,2,70,0,1
119581,-66.6666666666667,4,2,2,70,0,1
119676,-66.6666666666667,4,2,1,70,0,1
119770,-66.6666666666667,4,2,2,70,0,1
120053,-66.6666666666667,4,2,1,70,0,1
120997,-111.111111111111,4,2,0,70,0,1
121374,-100,4,2,0,70,0,1
125336,-100,4,2,0,10,0,0

[Colours]
Combo1 : 193,132,255
Combo2 : 255,128,128
Combo3 : 128,255,255
Combo4 : 255,255,128
Combo5 : 128,255,128
Combo6 : 255,255,255

[HitObjects]
480,216,1162,5,4,0:0:0:0:
300,356,2294,1,0,0:0:0:0:
204,376,2482,1,0,0:0:0:0:
268,224,2671,1,0,0:0:0:0:
283,349,3803,5,0,0:0:0:0:
195,340,3991,1,0,0:0:0:0:
292,227,4180,1,4,0:0:0:0:
208,212,4935,1,0,0:0:0:0:
336,128,5312,1,0,0:0:0:0:
200,56,5690,1,0,0:0:0:0:
240,356,6822,5,0,0:0:0:0:
216,272,7011,1,0,0:0:0:0:
300,256,7199,1,4,0:0:0:0:
320,340,7954,1,0,0:0:0:0:
44,168,8520,1,0,0:0:0:0:
40,160,8614,1,0,0:0:0:0:
28,148,8709,5,0,0:0:0:0:
60,72,9339,1,0,0:0:0:0:
128,32,9809,1,0,0:0:0:0:
204,40,10250,1,4,0:0:0:0:
260,96,10595,1,0,0:0:0:0:
308,160,10902,1,0,0:0:0:0:
384,180,11185,1,0,0:0:0:0:
456,152,11468,1,0,0:0:0:0:
488,84,11759,1,0,0:0:0:0:
412,88,12168,5,0,0:0:0:0:
412,88,12671,1,0,0:0:0:0:
412,88,13261,5,6,0:0:0:0:
344,72,13355,1,0,0:0:0:0:
468,24,13544,2,0,B|492:40|492:40|484:144,1,120
468,148,13922,1,0,0:0:0:0:
380,224,14111,1,0,0:0:0:0:
376,212,14205,1,0,0:0:0:0:
372,200,14299,1,0,0:0:0:0:
464,256,14487,1,0,0:0:0:0:
256,344,14677,5,0,0:0:0:0:
320,360,14771,1,4,0:0:0:0:
244,240,14960,1,0,0:0:0:0:
304,184,15147,1,0,0:0:0:0:
308,168,15243,1,0,0:0:0:0:
312,152,15337,1,0,0:0:0:0:
316,136,15431,1,0,0:0:0:0:
232,32,15619,1,0,0:0:0:0:
236,44,15713,1,0,0:0:0:0:
240,56,15808,1,0,0:0:0:0:
328,36,15996,2,0,L|432:48,1,80
472,24,16280,5,4,0:0:0:0:
488,92,16375,1,0,0:0:0:0:
376,172,16562,2,0,B|348:200|348:200|252:188,1,120
216,144,16941,1,0,0:0:0:0:
160,60,17129,1,0,0:0:0:0:
156,48,17224,1,0,0:0:0:0:
152,36,17318,1,0,0:0:0:0:
48,24,17507,1,0,0:0:0:0:
36,196,17695,5,2,0:0:0:0:
96,160,17790,1,4,0:0:0:0:
208,216,17978,1,0,0:0:0:0:
336,152,18167,1,0,0:0:0:0:
328,128,18262,1,0,0:0:0:0:
320,104,18355,1,0,0:0:0:0:
312,80,18450,1,0,0:0:0:0:
460,216,18639,1,0,0:0:0:0:
456,240,18733,1,0,0:0:0:0:
452,264,18828,1,0,0:0:0:0:
448,288,18922,1,8,0:0:0:0:
444,312,19016,1,0,0:0:0:0:
440,336,19111,1,0,0:0:0:0:
436,360,19205,1,0,0:0:0:0:
368,380,19299,5,4,0:0:0:0:
296,360,19394,1,0,0:0:0:0:
444,312,19581,2,0,B|400:276|400:276|316:292,1,120
320,288,19959,1,0,0:0:0:0:
208,284,20147,1,0,0:0:0:0:
204,272,20242,1,0,0:0:0:0:
200,260,20336,1,0,0:0:0:0:
132,360,20526,1,0,0:0:0:0:
28,256,20714,5,0,0:0:0:0:
92,268,20809,1,4,0:0:0:0:
16,160,20997,1,0,0:0:0:0:
80,112,21186,1,0,0:0:0:0:
84,100,21280,1,0,0:0:0:0:
88,88,21375,1,0,0:0:0:0:
92,76,21469,1,0,0:0:0:0:
144,180,21658,1,0,0:0:0:0:
148,168,21752,1,0,0:0:0:0:
152,156,21846,1,0,0:0:0:0:
304,36,22034,2,0,B|332:68|332:68|316:120,1,80
248,84,22317,5,4,0:0:0:0:
180,68,22412,1,0,0:0:0:0:
284,280,22600,2,0,B|252:240|252:240|276:156,1,120
344,184,22978,1,0,0:0:0:0:
436,152,23167,1,4,0:1:0:0:
448,148,23261,1,0,0:0:0:0:
460,144,23355,1,0,0:0:0:0:
500,240,23543,1,0,0:0:0:0:
480,340,23733,1,0,0:0:0:0:
468,320,23827,5,0,0:0:0:0:
452,304,23921,1,0,0:0:0:0:
412,308,24015,1,0,0:0:0:0:
388,300,24110,1,0,0:0:0:0:
360,328,24204,1,2,0:0:0:0:
336,332,24298,1,0,0:0:0:0:
320,368,24393,1,0,0:0:0:0:
296,376,24487,1,0,0:0:0:0:
240,348,24581,5,0,0:0:0:0:
184,360,24676,1,0,0:0:0:0:
128,332,24770,1,0,0:0:0:0:
72,344,24865,1,0,0:0:0:0:
36,296,24959,1,2,0:0:0:0:
44,272,25054,1,0,0:0:0:0:
68,256,25148,1,2,0:0:0:0:
56,284,25243,1,0,0:0:0:0:
56,284,26468,5,0,0:0:0:0:
52,272,26563,1,0,0:0:0:0:
48,260,26658,1,0,0:0:0:0:
44,248,26752,1,0,0:0:0:0:
12,224,26846,5,4,0:0:0:0:
52,120,27035,1,2,0:0:0:0:
128,152,27224,1,0,0:0:0:0:
132,164,27318,1,0,0:0:0:0:
136,176,27412,1,0,0:0:0:0:
140,188,27507,1,0,0:0:0:0:
144,200,27600,1,0,0:0:0:0:
240,80,27790,1,2,0:0:0:0:
344,160,27977,1,2,0:0:0:0:
452,64,28166,1,0,0:0:0:0:
444,176,28356,5,0,0:0:0:0:
472,244,28545,1,0,0:0:0:0:
476,256,28639,1,0,0:0:0:0:
480,268,28733,1,2,0:0:0:0:
328,228,28921,1,0,0:0:0:0:
312,292,29016,1,0,0:0:0:0:
308,300,29111,5,0,0:0:0:0:
280,288,29205,1,0,0:0:0:0:
248,300,29299,1,2,0:0:0:0:
240,332,29394,1,0,0:0:0:0:
224,346,29487,1,2,0:0:0:0:
237,297,29582,1,0,0:0:0:0:
285,279,29676,1,2,0:0:0:0:
328,297,29770,1,0,0:0:0:0:
400,280,29864,5,0,0:0:0:0:
496,328,30054,1,2,0:0:0:0:
500,144,30243,1,0,0:0:0:0:
492,156,30337,1,0,0:0:0:0:
484,168,30431,1,0,0:0:0:0:
476,180,30526,1,0,0:0:0:0:
468,192,30620,1,0,0:0:0:0:
364,136,30809,1,2,0:0:0:0:
248,184,30996,1,2,0:0:0:0:
144,128,31185,1,0,0:0:0:0:
28,188,31375,5,0,0:0:0:0:
32,296,31563,1,0,0:0:0:0:
52,316,31658,1,0,0:0:0:0:
80,324,31752,1,2,0:0:0:0:
108,320,31846,1,0,0:0:0:0:
132,308,31941,1,0,0:0:0:0:
148,284,32035,1,0,0:0:0:0:
216,232,32129,5,0,0:0:0:0:
252,236,32224,1,0,0:0:0:0:
288,256,32318,1,2,0:0:0:0:
308,292,32412,1,0,0:0:0:0:
324,292,32507,1,2,0:0:0:0:
300,248,32601,1,0,0:0:0:0:
256,220,32695,1,2,0:0:0:0:
208,216,32790,1,0,0:0:0:0:
168,164,32884,5,0,0:0:0:0:
76,28,33072,1,2,0:0:0:0:
24,108,33262,1,0,0:0:0:0:
28,124,33356,1,0,0:0:0:0:
32,140,33450,1,0,0:0:0:0:
36,156,33545,1,0,0:0:0:0:
40,172,33639,1,0,0:0:0:0:
188,192,33828,1,2,0:0:0:0:
272,332,34015,1,2,0:0:0:0:
420,352,34204,1,0,0:0:0:0:
480,288,34394,5,0,0:0:0:0:
416,188,34582,1,0,0:0:0:0:
420,200,34677,1,0,0:0:0:0:
424,212,34771,1,2,0:0:0:0:
480,144,34960,1,0,0:0:0:0:
496,72,35054,1,0,0:0:0:0:
464,36,35148,5,0,0:0:0:0:
428,20,35243,1,0,0:0:0:0:
392,24,35337,1,2,0:0:0:0:
364,40,35431,1,0,0:0:0:0:
352,32,35525,1,2,0:0:0:0:
386,13,35619,1,0,0:0:0:0:
429,7,35713,1,0,0:0:0:0:
473,26,35808,1,0,0:0:0:0:
416,104,35903,5,0,0:0:0:0:
480,288,36091,1,2,0:0:0:0:
392,184,36280,1,0,0:0:0:0:
396,200,36375,1,0,0:0:0:0:
400,216,36468,1,0,0:0:0:0:
404,232,36563,1,0,0:0:0:0:
408,248,36658,1,0,0:0:0:0:
264,360,36846,1,2,0:0:0:0:
128,216,37035,1,2,0:0:0:0:
0,336,37224,1,0,0:0:0:0:
20,208,37411,5,0,0:0:0:0:
36,240,37505,1,0,0:0:0:0:
100,240,37600,1,0,0:0:0:0:
116,272,37694,1,0,0:0:0:0:
164,208,37789,1,2,0:0:0:0:
180,176,37883,1,0,0:0:0:0:
244,176,37978,1,0,0:0:0:0:
260,144,38072,1,0,0:0:0:0:
244,76,38166,5,2,0:0:0:0:
192,32,38261,1,0,0:0:0:0:
128,32,38355,1,2,0:0:0:0:
72,68,38449,1,0,0:0:0:0:
44,132,38544,5,8,0:0:0:0:
48,136,38922,5,4,0:0:0:0:
24,312,39111,1,2,0:0:0:0:
124,348,39299,1,8,0:0:0:0:
120,332,39394,1,0,0:0:0:0:
116,312,39488,1,0,0:0:0:0:
112,296,39582,1,0,0:0:0:0:
108,280,39677,1,8,0:0:0:0:
248,180,39865,1,2,0:0:0:0:
356,328,40054,1,2,0:0:0:0:
484,212,40243,1,0,0:0:0:0:
432,44,40431,5,0,0:0:0:0:
432,156,40620,1,2,0:0:0:0:
436,144,40714,1,0,0:0:0:0:
440,132,40809,1,8,0:0:0:0:
360,184,40997,1,8,0:0:0:0:
384,248,41092,1,0,0:0:0:0:
400,284,41186,5,0,0:0:0:0:
356,277,41280,1,0,0:0:0:0:
313,270,41375,1,2,0:0:0:0:
269,263,41469,1,0,0:0:0:0:
256,272,41562,1,2,0:0:0:0:
307,281,41656,1,0,0:0:0:0:
356,289,41751,1,8,0:0:0:0:
407,297,41845,1,0,0:0:0:0:
472,268,41941,5,0,0:0:0:0:
400,372,42129,1,2,0:0:0:0:
472,268,42318,1,8,0:0:0:0:
468,284,42412,1,0,0:0:0:0:
464,300,42507,1,0,0:0:0:0:
460,316,42601,1,0,0:0:0:0:
456,332,42695,1,8,0:0:0:0:
300,224,42884,1,2,0:0:0:0:
184,372,43073,1,2,0:0:0:0:
44,268,43261,1,0,0:0:0:0:
72,336,43450,5,0,0:0:0:0:
104,216,43639,1,2,0:0:0:0:
120,208,43733,1,0,0:0:0:0:
132,196,43828,1,8,0:0:0:0:
136,180,43922,1,0,0:0:0:0:
136,164,44016,1,0,0:0:0:0:
132,148,44111,1,0,0:0:0:0:
116,32,44205,5,2,0:0:0:0:
88,40,44299,1,0,0:0:0:0:
72,64,44394,1,2,0:0:0:0:
68,92,44488,1,0,0:0:0:0:
56,104,44581,1,0,0:0:0:0:
61,64,44675,1,0,0:0:0:0:
83,31,44770,1,0,0:0:0:0:
122,20,44864,1,0,0:0:0:0:
180,64,44960,5,4,0:1:0:0:
208,168,45148,1,2,0:0:0:0:
140,208,45337,1,8,0:0:0:0:
124,204,45431,1,0,0:0:0:0:
108,200,45526,1,0,0:0:0:0:
92,196,45620,1,0,0:0:0:0:
76,192,45714,1,8,0:0:0:0:
216,360,45903,1,2,0:0:0:0:
340,224,46092,1,2,0:0:0:0:
464,360,46280,1,0,0:0:0:0:
492,100,46468,5,4,0:1:0:0:
444,168,46658,1,2,0:0:0:0:
448,184,46752,1,0,0:0:0:0:
452,200,46846,1,8,0:0:0:0:
408,280,47035,1,0,0:0:0:0:
384,340,47129,1,0,0:0:0:0:
392,348,47224,5,8,0:0:0:0:
356,332,47318,1,0,0:0:0:0:
316,340,47412,1,2,0:0:0:0:
292,372,47507,1,0,0:0:0:0:
268,360,47600,1,2,0:0:0:0:
304,320,47694,1,0,0:0:0:0:
356,312,47790,1,2,0:0:0:0:
404,332,47884,1,0,0:0:0:0:
468,368,47978,5,4,0:1:0:0:
512,240,48166,1,2,0:0:0:0:
384,136,48356,1,8,0:0:0:0:
380,120,48450,1,0,0:0:0:0:
376,104,48545,1,0,0:0:0:0:
372,88,48639,1,0,0:0:0:0:
368,72,48733,1,8,0:0:0:0:
232,184,48922,1,2,0:0:0:0:
132,48,49111,1,2,0:0:0:0:
0,148,49299,1,0,0:0:0:0:
80,328,49488,5,4,0:1:0:0:
92,320,49582,1,0,0:0:0:0:
104,312,49677,1,2,0:0:0:0:
116,280,49771,1,0,0:0:0:0:
156,248,49864,1,8,0:0:0:0:
168,256,49958,1,0,0:0:0:0:
180,264,50053,1,2,0:0:0:0:
192,296,50147,1,0,0:0:0:0:
224,344,50243,5,8,0:0:0:0:
276,360,50337,1,0,0:0:0:0:
300,308,50431,1,8,0:0:0:0:
352,328,50526,1,0,0:0:0:0:
376,276,50620,5,8,0:0:0:0:
360,224,50714,1,0,0:0:0:0:
416,212,50809,1,2,0:0:0:0:
428,268,50903,1,0,0:0:0:0:
476,320,50996,5,4,0:0:0:0:
408,337,51185,1,0,0:0:0:0:
371,279,51374,1,0,0:0:0:0:
415,226,51562,1,0,0:0:0:0:
479,251,51751,1,0,0:0:0:0:
460,168,52129,5,0,0:0:0:0:
468,88,52318,1,0,0:0:0:0:
308,32,52506,5,4,0:0:0:0:
230,12,52695,1,0,0:0:0:0:
187,78,52884,1,0,0:0:0:0:
238,139,53072,1,0,0:0:0:0:
311,111,53261,1,0,0:0:0:0:
296,184,53639,5,0,0:0:0:0:
312,260,53828,1,0,0:0:0:0:
240,236,54015,5,4,0:0:0:0:
149,212,54204,1,0,0:0:0:0:
98,290,54393,1,0,0:0:0:0:
158,361,54581,1,0,0:0:0:0:
244,328,54770,1,0,0:0:0:0:
176,284,55148,5,0,0:0:0:0:
48,164,55526,1,4,0:0:0:0:
28,88,55714,1,0,0:0:0:0:
92,40,55903,1,0,0:0:0:0:
156,80,56092,1,0,0:0:0:0:
160,88,56186,1,0,0:0:0:0:
164,96,56279,2,0,P|144:144|240:176,1,180.000006866455
280,96,57035,5,4,0:1:0:0:
288,76,57129,1,0,0:0:0:0:
308,60,57224,1,0,0:0:0:0:
332,56,57318,1,0,0:0:0:0:
356,60,57412,1,0,0:0:0:0:
376,72,57507,1,0,0:0:0:0:
388,96,57601,1,0,0:0:0:0:
392,120,57695,1,0,0:0:0:0:
376,148,57790,5,2,0:0:0:0:
260,168,57977,1,2,3:2:0:0:
240,48,58167,1,2,0:0:0:0:
360,28,58356,1,2,0:0:0:0:
456,224,58545,5,4,0:1:0:0:
428,212,58639,1,0,0:0:0:0:
400,212,58733,1,0,0:0:0:0:
372,224,58828,1,0,0:0:0:0:
356,248,58922,1,0,0:0:0:0:
352,276,59016,1,0,0:0:0:0:
360,304,59111,1,0,0:0:0:0:
380,324,59205,1,0,0:0:0:0:
404,336,59298,5,10,0:0:0:0:
512,288,59488,1,2,0:0:0:0:
460,168,59677,1,2,0:0:0:0:
344,220,59865,1,2,0:0:0:0:
280,356,60054,5,4,0:0:0:0:
232,288,60243,1,0,0:0:0:0:
160,256,60431,1,0,0:0:0:0:
80,256,60620,1,0,0:0:0:0:
12,288,60809,1,0,0:1:0:0:
20,188,61186,5,0,0:0:0:0:
24,204,61280,1,0,0:0:0:0:
28,220,61375,1,0,0:0:0:0:
32,236,61469,1,0,0:0:0:0:
40,312,61563,5,4,0:0:0:0:
92,272,61752,1,0,0:0:0:0:
156,272,61941,1,0,0:0:0:0:
208,312,62129,1,0,0:0:0:0:
224,372,62318,1,8,0:0:0:0:
224,372,62884,5,0,0:0:0:0:
284,360,62978,1,0,0:0:0:0:
344,344,63073,5,4,0:0:0:0:
368,328,63167,1,0,0:0:0:0:
380,300,63262,1,0,0:0:0:0:
380,272,63356,1,0,0:0:0:0:
368,244,63450,1,0,0:0:0:0:
340,232,63545,1,0,0:0:0:0:
312,232,63639,1,0,0:0:0:0:
288,248,63733,1,0,0:0:0:0:
260,300,63828,5,2,0:0:0:0:
136,264,64016,1,2,0:0:0:0:
24,224,64205,1,2,0:0:0:0:
152,152,64394,1,2,0:0:0:0:
276,92,64582,5,4,0:0:0:0:
248,96,64677,1,0,0:0:0:0:
220,84,64771,1,0,0:0:0:0:
208,56,64865,1,0,0:0:0:0:
212,28,64960,1,0,0:0:0:0:
232,8,65054,1,0,0:0:0:0:
260,4,65148,1,0,0:0:0:0:
288,16,65243,1,0,0:0:0:0:
336,64,65337,5,10,0:0:0:0:
476,96,65526,1,2,0:0:0:0:
320,184,65714,1,0,0:0:0:0:
176,260,65903,1,2,0:0:0:0:
288,296,66092,5,4,0:0:0:0:
360,312,66217,1,0,0:0:0:0:
432,328,66343,1,0,0:0:0:0:
280,304,66468,1,0,0:0:0:0:
352,320,66593,1,0,0:0:0:0:
424,336,66719,1,0,0:0:0:0:
440,256,66846,5,0,0:0:0:0:
420,184,66972,1,0,0:0:0:0:
464,128,67098,1,0,0:0:0:0:
424,176,67224,1,0,0:0:0:0:
468,120,67350,1,0,0:0:0:0:
448,48,67475,1,0,0:0:0:0:
296,56,67600,5,0,0:0:0:0:
224,72,67725,1,0,0:0:0:0:
152,88,67851,1,0,0:0:0:0:
292,64,67977,1,0,0:0:0:0:
220,80,68102,1,0,0:0:0:0:
148,96,68228,1,0,0:0:0:0:
108,164,68354,5,0,0:0:0:0:
56,224,68480,1,0,0:0:0:0:
88,296,68606,1,0,0:0:0:0:
240,364,68732,1,0,0:0:0:0:
216,292,68858,1,0,0:0:0:0:
268,240,68983,1,0,0:0:0:0:
392,328,69111,5,4,2:1:0:0:
316,352,69488,1,4,2:1:0:0:
196,336,69865,1,6,2:1:0:0:
84,228,70243,1,4,2:1:0:0:
64,32,70619,2,2,P|128:32|28:96,1,320,4|2,2:1|0:0,0:0:0:0:
36,136,71752,5,0,0:0:0:0:
36,148,71846,1,0,0:0:0:0:
36,160,71941,1,0,0:0:0:0:
36,172,72035,1,0,0:0:0:0:
16,232,72129,5,14,1:0:0:0:
68,296,72318,1,0,0:0:0:0:
52,336,72412,1,0,0:0:0:0:
76,368,72507,1,0,1:0:0:0:
208,324,72694,1,0,0:0:0:0:
224,284,72788,1,0,0:0:0:0:
200,252,72883,1,0,1:0:0:0:
292,216,73073,1,0,0:0:0:0:
360,324,73262,1,0,0:0:0:0:
448,292,73450,1,0,0:0:0:0:
504,356,73639,5,10,1:0:0:0:
468,192,73828,1,0,0:0:0:0:
464,200,73922,1,0,0:0:0:0:
460,208,74015,1,0,0:0:0:0:
384,224,74205,1,0,0:0:0:0:
356,232,74299,1,0,0:0:0:0:
300,216,74394,5,2,1:0:0:0:
296,160,74488,1,0,0:0:0:0:
332,120,74581,1,0,0:0:0:0:
388,112,74677,1,0,0:0:0:0:
432,144,74771,1,2,0:0:0:0:
448,196,74864,1,0,0:0:0:0:
420,244,74960,1,0,0:0:0:0:
368,264,75054,1,0,0:0:0:0:
304,284,75147,5,10,1:0:0:0:
152,344,75431,1,0,0:0:0:0:
160,348,75526,1,0,1:0:0:0:
252,356,75714,1,0,0:0:0:0:
208,264,75903,1,2,0:1:0:0:
124,240,76092,1,0,0:0:0:0:
44,272,76280,1,0,1:0:0:0:
12,360,76469,1,0,0:0:0:0:
32,108,76658,5,10,0:1:0:0:
108,140,76846,1,0,0:0:0:0:
112,148,76940,1,0,0:0:0:0:
116,156,77035,1,10,1:2:0:0:
160,24,77224,1,0,0:0:0:0:
228,72,77412,5,2,0:1:0:0:
272,88,77506,1,0,0:0:0:0:
316,104,77601,1,0,0:0:0:0:
360,120,77695,1,0,0:0:0:0:
368,72,77789,1,2,1:2:0:0:
412,88,77883,1,0,0:0:0:0:
456,104,77978,1,2,1:2:0:0:
500,120,78072,1,0,0:0:0:0:
492,36,78167,5,10,1:0:0:0:
404,248,78356,1,0,0:0:0:0:
424,224,78450,1,0,0:0:0:0:
412,192,78545,1,0,1:0:0:0:
280,32,78732,1,0,0:0:0:0:
260,56,78826,1,0,0:0:0:0:
272,88,78921,1,0,0:0:0:0:
192,208,79111,1,0,0:0:0:0:
176,204,79205,1,0,0:0:0:0:
164,200,79299,1,2,1:2:0:0:
92,232,79487,1,0,0:0:0:0:
76,236,79581,1,0,0:0:0:0:
64,240,79675,5,10,1:0:0:0:
172,364,79865,1,0,0:0:0:0:
204,328,79959,1,0,0:0:0:0:
184,284,80054,1,0,1:0:0:0:
80,72,80242,1,0,0:0:0:0:
48,108,80336,1,0,0:0:0:0:
68,152,80431,1,0,0:0:0:0:
280,200,80620,1,0,0:0:0:0:
288,196,80683,1,0,0:0:0:0:
296,192,80746,1,0,0:0:0:0:
304,188,80809,1,2,1:2:0:0:
376,216,80997,1,0,0:0:0:0:
444,240,81186,5,10,1:0:0:0:
476,168,81563,1,0,0:0:0:0:
480,148,81658,1,0,0:0:0:0:
480,128,81752,1,0,0:0:0:0:
476,112,81846,1,0,0:0:0:0:
468,96,81941,1,2,1:0:0:0:
468,96,82318,5,0,0:0:0:0:
456,84,82412,1,0,0:0:0:0:
444,76,82507,1,0,0:0:0:0:
428,72,82601,1,0,0:0:0:0:
416,72,82695,5,14,0:0:0:0:
400,248,82884,1,0,0:0:0:0:
404,260,82978,1,0,0:0:0:0:
408,272,83073,1,4,1:1:0:0:
288,236,83262,1,0,0:0:0:0:
176,192,83449,2,0,L|72:208,1,90.0000034332277,6|0,0:1|0:0,0:0:0:0:
44,252,83828,5,2,0:0:0:0:
48,268,83922,1,0,0:0:0:0:
52,284,84016,1,0,0:0:0:0:
56,300,84111,1,0,0:0:0:0:
40,360,84205,5,14,1:2:0:0:
272,320,84394,1,0,0:0:0:0:
288,288,84488,1,0,0:0:0:0:
272,252,84581,1,0,1:0:0:0:
160,308,84770,1,0,0:0:0:0:
144,340,84864,1,0,0:0:0:0:
160,376,84959,1,0,1:0:0:0:
336,368,85147,1,0,0:0:0:0:
476,256,85336,1,0,0:0:0:0:
296,276,85526,1,0,0:0:0:0:
220,192,85713,5,10,1:0:0:0:
264,32,85902,1,0,0:0:0:0:
280,28,85996,1,0,0:0:0:0:
296,24,86091,1,0,0:0:0:0:
456,44,86279,1,0,0:0:0:0:
392,68,86375,1,0,0:0:0:0:
364,112,86468,5,2,1:0:0:0:
332,108,86562,1,0,0:0:0:0:
300,120,86657,1,0,0:0:0:0:
280,152,86751,1,0,0:0:0:0:
224,184,86845,1,2,0:0:0:0:
192,180,86939,1,0,0:0:0:0:
160,192,87034,1,0,0:0:0:0:
140,224,87128,1,0,0:0:0:0:
64,236,87223,5,10,1:0:0:0:
144,364,87507,1,0,0:0:0:0:
140,348,87600,1,0,1:0:0:0:
196,284,87790,1,0,0:0:0:0:
320,252,87977,1,2,0:1:0:0:
324,336,88166,1,0,0:0:0:0:
404,368,88356,1,0,1:0:0:0:
468,308,88545,1,0,0:0:0:0:
416,212,88732,5,10,0:1:0:0:
324,336,88922,1,0,0:0:0:0:
328,344,89016,1,0,0:0:0:0:
332,352,89111,1,2,1:0:0:0:
468,376,89298,1,0,1:0:0:0:
464,272,89488,1,2,0:1:0:0:
488,240,89582,1,0,0:0:0:0:
492,196,89677,1,0,1:0:0:0:
480,152,89771,1,0,0:0:0:0:
384,24,89864,1,2,1:2:0:0:
360,56,89958,1,0,0:0:0:0:
356,100,90053,1,2,0:0:0:0:
368,144,90147,1,0,0:0:0:0:
420,192,90243,5,14,1:0:0:0:
476,68,90430,1,0,0:0:0:0:
448,64,90526,1,0,0:0:0:0:
424,80,90619,1,0,1:0:0:0:
284,32,90808,1,0,0:0:0:0:
256,28,90902,1,0,0:0:0:0:
232,44,90997,1,0,0:0:0:0:
60,120,91185,1,0,0:0:0:0:
48,116,91279,1,0,0:0:0:0:
36,112,91375,1,2,1:2:0:0:
124,64,91562,1,0,0:0:0:0:
136,60,91656,1,0,0:0:0:0:
148,56,91752,5,14,1:1:0:0:
56,216,91941,1,0,0:0:0:0:
72,264,92035,1,0,0:0:0:0:
120,272,92128,1,0,1:0:0:0:
236,300,92317,1,0,0:0:0:0:
252,348,92411,1,0,0:0:0:0:
300,356,92506,1,0,0:0:0:0:
440,288,92694,1,0,0:0:0:0:
448,284,92757,1,0,0:0:0:0:
456,280,92820,1,0,0:0:0:0:
464,276,92883,5,0,1:0:0:0:
384,244,93073,1,0,0:0:0:0:
332,288,93262,1,14,1:0:0:0:
332,288,93639,1,0,0:0:0:0:
320,316,93732,1,0,0:0:0:0:
328,344,93828,1,0,0:0:0:0:
348,360,93922,1,0,0:0:0:0:
376,360,94015,1,6,1:0:0:0:
376,360,94394,5,0,0:0:0:0:
400,344,94488,1,0,0:0:0:0:
428,344,94581,1,0,0:0:0:0:
448,356,94677,1,0,0:0:0:0:
460,376,94771,5,10,0:0:0:0:
488,184,94960,1,2,0:0:0:0:
484,204,95054,1,0,0:0:0:0:
480,224,95147,1,0,0:0:0:0:
388,228,95336,1,2,0:0:0:0:
304,180,95525,1,10,0:2:0:0:
304,180,95903,1,0,0:0:0:0:
356,132,96279,5,6,0:0:0:0:
420,140,96375,1,0,0:0:0:0:
272,44,96562,2,0,B|308:20|308:20|404:32,1,120,0|0,0:3|0:0,0:0:0:0:
396,52,96940,1,2,0:0:0:0:
264,192,97129,1,0,0:0:0:0:
260,172,97223,1,0,0:0:0:0:
256,152,97317,1,0,0:0:0:0:
224,260,97505,1,0,0:0:0:0:
312,368,97695,5,0,0:0:0:0:
376,352,97789,1,6,0:0:0:0:
448,232,97978,1,0,0:0:0:0:
336,172,98167,1,0,0:0:0:0:
332,188,98261,1,0,0:0:0:0:
328,204,98355,1,0,0:0:0:0:
324,220,98449,1,0,0:0:0:0:
168,300,98638,1,0,0:0:0:0:
172,316,98732,1,0,0:0:0:0:
176,332,98827,1,0,0:0:0:0:
36,272,99015,2,0,L|52:176,1,80
28,128,99298,5,4,1:2:0:0:
92,108,99393,1,0,1:2:0:0:
268,44,99581,2,0,B|224:16|224:16|144:40,1,120
148,52,99959,1,0,0:0:0:0:
212,200,100147,1,0,0:0:0:0:
216,180,100242,1,0,0:0:0:0:
220,160,100336,1,0,0:0:0:0:
276,272,100525,1,0,0:0:0:0:
340,152,100713,5,0,0:0:0:0:
324,88,100808,1,6,0:0:0:0:
476,8,100996,1,0,0:0:0:0:
476,176,101185,1,0,0:0:0:0:
456,168,101280,1,0,0:0:0:0:
440,160,101374,1,0,0:0:0:0:
424,152,101468,1,0,0:0:0:0:
340,248,101657,1,0,0:0:0:0:
312,252,101751,1,0,0:0:0:0:
284,256,101846,1,0,0:0:0:0:
256,260,101940,1,2,0:0:0:0:
228,264,102034,1,0,0:0:0:0:
200,268,102129,1,2,0:0:0:0:
172,272,102223,1,0,0:0:0:0:
128,324,102317,5,6,0:0:0:0:
160,384,102412,1,0,0:0:0:0:
40,184,102600,2,0,B|12:220|12:220|56:304,1,120
40,300,102977,1,2,0:0:0:0:
168,160,103166,1,0,0:0:0:0:
164,180,103261,1,0,0:0:0:0:
160,200,103355,1,0,0:0:0:0:
124,88,103544,1,2,0:0:0:0:
248,328,103732,5,0,0:0:0:0:
232,264,103827,1,6,0:0:0:0:
360,372,104015,1,0,0:0:0:0:
444,200,104204,1,0,0:0:0:0:
440,228,104298,1,0,0:0:0:0:
436,256,104393,1,2,0:0:0:0:
432,284,104487,1,0,0:0:0:0:
392,136,104676,1,0,0:0:0:0:
396,116,104770,1,0,0:0:0:0:
400,96,104865,1,0,0:0:0:0:
328,192,105054,1,2,0:0:0:0:
272,32,105242,1,0,0:0:0:0:
332,56,105336,5,6,0:0:0:0:
400,20,105430,1,0,1:0:0:0:
160,136,105619,2,0,B|204:156|204:156|276:128,1,120
268,112,105996,1,2,0:0:0:0:
420,196,106185,1,0,0:0:0:0:
444,200,106279,1,0,0:0:0:0:
472,204,106373,1,0,0:0:0:0:
380,336,106561,1,2,0:0:0:0:
492,368,106751,5,0,0:0:0:0:
480,300,106845,1,6,0:0:0:0:
336,264,107033,1,2,0:0:0:0:
192,332,107222,1,0,0:0:0:0:
220,324,107316,1,0,0:0:0:0:
248,316,107411,1,2,0:0:0:0:
276,308,107506,1,0,0:0:0:0:
80,364,107694,1,0,0:0:0:0:
56,348,107788,1,0,0:0:0:0:
40,324,107882,1,0,0:0:0:0:
32,296,107977,1,2,0:0:0:0:
36,272,108071,1,4,0:0:0:0:
48,248,108165,1,0,0:0:0:0:
64,232,108260,1,0,0:0:0:0:
124,204,108355,5,4,0:0:0:0:
28,140,108449,1,0,0:0:0:0:
144,16,108638,2,0,P|184:36|120:108,1,180.000006866455,0|0,0:0|0:1,0:0:0:0:
80,48,109015,1,2,0:3:0:0:
300,32,109204,1,4,0:1:0:0:
364,56,109298,1,0,0:1:0:0:
352,124,109393,1,0,0:0:0:0:
236,244,109581,1,0,0:0:0:0:
332,192,109770,5,0,0:0:0:0:
284,100,109864,2,0,P|240:124|272:172,1,120.000004577637,4|0,0:0|0:0,0:0:0:0:
360,368,110242,1,0,0:0:0:0:
424,356,110336,1,0,0:0:0:0:
448,296,110430,1,0,0:0:0:0:
512,284,110524,1,2,0:3:0:0:
172,264,110713,1,4,0:1:0:0:
240,276,110808,1,0,0:1:0:0:
308,288,110902,1,2,0:3:0:0:
100,288,111091,2,0,P|143:274|164:344,1,120.000004577637,2|0,0:3|0:0,0:0:0:0:
52,376,111374,5,4,0:0:0:0:
24,264,111468,1,0,0:0:0:0:
272,300,111657,2,0,P|268:384|344:356,1,180.000006866455
344,296,112034,1,0,0:0:0:0:
460,132,112223,1,4,0:1:0:0:
488,64,112317,1,0,0:0:0:0:
440,8,112411,1,0,0:0:0:0:
296,96,112600,1,0,0:0:0:0:
400,232,112789,5,0,0:0:0:0:
368,112,112883,2,0,P|392:88|324:56,1,120.000004577637,4|0,0:0|0:0,0:0:0:0:
160,120,113261,1,0,0:0:0:0:
144,48,113355,1,0,0:0:0:0:
208,16,113449,1,0,0:0:0:0:
220,84,113544,1,2,0:3:0:0:
28,188,113732,1,4,0:1:0:0:
24,196,113827,1,0,0:0:0:0:
40,264,113921,1,4,0:1:0:0:
108,248,114015,1,2,0:3:0:0:
176,232,114110,1,0,0:0:0:0:
192,300,114204,1,2,0:3:0:0:
208,368,114298,1,0,0:0:0:0:
136,348,114393,5,4,0:0:0:0:
176,232,114487,1,0,0:0:0:0:
356,336,114676,2,0,P|336:260|268:300,1,180.000006866455
292,364,115053,1,0,0:0:0:0:
276,48,115242,1,4,0:1:0:0:
220,88,115336,1,0,0:0:0:0:
252,152,115430,1,4,0:1:0:0:
448,40,115619,1,2,0:3:0:0:
364,228,115808,5,0,0:0:0:0:
308,116,115902,2,0,P|280:120|308:188,1,120.000004577637,4|0,0:0|0:0,0:0:0:0:
448,356,116279,1,0,0:0:0:0:
492,300,116374,1,0,0:0:0:0:
460,236,116468,1,0,0:0:0:0:
412,292,116562,1,2,0:3:0:0:
168,120,116751,1,4,0:1:0:0:
116,168,116845,1,0,0:0:0:0:
152,224,116940,1,4,0:1:0:0:
208,364,117128,2,0,P|264:348|236:292,1,120.000004577637
188,284,117411,5,4,0:1:0:0:
52,348,117600,1,0,0:0:0:0:
52,144,117789,2,0,P|44:60|116:108,1,160,2|0,0:0|0:0,0:0:0:0:
32,236,118166,5,0,0:0:0:0:
188,284,118355,1,0,0:0:0:0:
184,44,118544,2,0,P|252:24|252:100,1,160,2|0,0:0|0:0,0:0:0:0:
272,356,118921,5,0,0:0:0:0:
312,364,119015,1,0,0:0:0:0:
352,372,119110,1,0,0:0:0:0:
392,380,119204,1,0,0:0:0:0:
432,364,119298,5,0,0:0:0:0:
448,324,119393,1,0,0:0:0:0:
460,284,119487,1,0,0:0:0:0:
472,244,119581,1,0,0:0:0:0:
424,184,119676,5,0,0:0:0:0:
412,152,119770,1,0,0:0:0:0:
332,164,119864,1,0,0:0:0:0:
344,132,119958,1,0,0:0:0:0:
260,176,120053,5,0,0:0:0:0:
196,224,120147,1,0,0:0:0:0:
232,296,120242,1,0,0:0:0:0:
292,252,120336,1,0,0:0:0:0:
292,252,120996,5,0,0:0:0:0:
276,248,121091,1,0,0:0:0:0:
256,192,121185,12,0,125336,0:0:0:0:
