osu file format v14

[General]
AudioFilename: 0001.mp3
AudioLeadIn: 0
PreviewTime: 96603
Countdown: 0
SampleSet: None
StackLeniency: 0.4
Mode: 3
LetterboxInBreaks: 0
SpecialStyle: 1
WidescreenStoryboard: 1
SamplesMatchPlaybackRate: 1

[Editor]
DistanceSpacing: 0.9
BeatDivisor: 4
GridSize: 8
TimelineZoom: 1.8

[Metadata]
Title:WADATSUMI
TitleUnicode:海神
Artist:TOTTO
ArtistUnicode:兎々
Creator:biemote
Version:6K HARD
Source:REFLEC BEAT colette -Summer-
Tags:HYDRO CORE
BeatmapID:971690
BeatmapSetID:450977

[Difficulty]
HPDrainRate:5
CircleSize:6
OverallDifficulty:5
ApproachRate:7
SliderMultiplier:1.4
SliderTickRate:1

[Events]
//Background and Video events
0,0,"wadatsumi.jpg",0,0
//Break Periods
//Storyboard Layer 0 (Background)
//Storyboard Layer 1 (Fail)
//Storyboard Layer 2 (Pass)
//Storyboard Layer 3 (Foreground)
//Storyboard Sound Samples
Sample,1477,0,"001Z.ogg",100
Sample,1509,0,"001M.ogg",100
Sample,4528,0,"001M.ogg",100
Sample,7547,0,"001M.ogg",100
Sample,9056,0,"001C.ogg",100
Sample,9685,0,"001C.ogg",100
Sample,10157,0,"001C.ogg",100
Sample,10566,0,"001M.ogg",100
Sample,10581,0,"001C.ogg",100
Sample,10927,0,"001C.ogg",100
Sample,11242,0,"001C.ogg",100
Sample,11525,0,"001C.ogg",100
Sample,11808,0,"001C.ogg",100
Sample,12106,0,"001C.ogg",100
Sample,12515,0,"001C.ogg",100
Sample,13018,0,"001C.ogg",100
Sample,13584,0,"001M.ogg",100
Sample,13584,0,"000C.ogg",100
Sample,13584,0,"000D.ogg",100
Sample,13584,0,"00DX.ogg",100
Sample,13584,0,"00OV.ogg",100
Sample,13584,0,"001N.ogg",100
Sample,13679,0,"00DY.ogg",100
Sample,13679,0,"00OW.ogg",100
Sample,13867,0,"00OX.ogg",100
Sample,13867,0,"00DZ.ogg",100
Sample,14056,0,"00OY.ogg",100
Sample,14150,0,"00E0.ogg",100
Sample,14150,0,"00OZ.ogg",100
Sample,14150,0,"000E.ogg",100
Sample,14245,0,"00P0.ogg",100
Sample,14245,0,"00E1.ogg",100
Sample,14433,0,"00E2.ogg",100
Sample,14433,0,"00P1.ogg",100
Sample,14528,0,"000F.ogg",100
Sample,14528,0,"00E3.ogg",100
Sample,14528,0,"00P2.ogg",100
Sample,14622,0,"00P3.ogg",100
Sample,14622,0,"00E4.ogg",100
Sample,14716,0,"000E.ogg",100
Sample,14811,0,"00P4.ogg",100
Sample,14811,0,"00E5.ogg",100
Sample,15000,0,"00E6.ogg",100
Sample,15000,0,"00P5.ogg",100
Sample,15094,0,"00E7.ogg",100
Sample,15094,0,"00P6.ogg",100
Sample,15283,0,"00P7.ogg",100
Sample,15283,0,"00E8.ogg",100
Sample,15283,0,"000E.ogg",100
Sample,15471,0,"00E9.ogg",100
Sample,15471,0,"00P8.ogg",100
Sample,15566,0,"00P9.ogg",100
Sample,15566,0,"00EA.ogg",100
Sample,15660,0,"00EB.ogg",100
Sample,15660,0,"000E.ogg",100
Sample,15660,0,"00PA.ogg",100
Sample,15754,0,"00PB.ogg",100
Sample,15754,0,"00EC.ogg",100
Sample,15943,0,"00ED.ogg",100
Sample,15943,0,"00PC.ogg",100
Sample,16037,0,"001D.ogg",100
Sample,16037,0,"00PD.ogg",100
Sample,16037,0,"00EE.ogg",100
Sample,16132,0,"00EF.ogg",100
Sample,16132,0,"00PE.ogg",100
Sample,16132,0,"001E.ogg",100
Sample,16226,0,"001O.ogg",100
Sample,16226,0,"001D.ogg",100
Sample,16320,0,"00EG.ogg",100
Sample,16320,0,"00PF.ogg",100
Sample,16415,0,"00PG.ogg",100
Sample,16509,0,"00EH.ogg",100
Sample,16509,0,"00PH.ogg",100
Sample,16603,0,"00EI.ogg",100
Sample,16603,0,"00OV.ogg",100
Sample,16603,0,"001N.ogg",100
Sample,16603,0,"001M.ogg",100
Sample,16603,0,"000D.ogg",100
Sample,16698,0,"00OW.ogg",100
Sample,16698,0,"00EJ.ogg",100
Sample,16886,0,"00OX.ogg",100
Sample,16886,0,"00DZ.ogg",100
Sample,17075,0,"00OY.ogg",100
Sample,17169,0,"00OZ.ogg",100
Sample,17169,0,"000E.ogg",100
Sample,17169,0,"00E0.ogg",100
Sample,17264,0,"00E1.ogg",100
Sample,17264,0,"00P0.ogg",100
Sample,17452,0,"00E2.ogg",100
Sample,17452,0,"00P1.ogg",100
Sample,17547,0,"000F.ogg",100
Sample,17547,0,"00P2.ogg",100
Sample,17547,0,"00E3.ogg",100
Sample,17641,0,"00P3.ogg",100
Sample,17641,0,"00E4.ogg",100
Sample,17735,0,"000E.ogg",100
Sample,17830,0,"00P4.ogg",100
Sample,17830,0,"00E5.ogg",100
Sample,18018,0,"00E6.ogg",100
Sample,18018,0,"00P5.ogg",100
Sample,18113,0,"00E7.ogg",100
Sample,18113,0,"00P6.ogg",100
Sample,18301,0,"00P7.ogg",100
Sample,18301,0,"00E8.ogg",100
Sample,18301,0,"001D.ogg",100
Sample,18490,0,"00E9.ogg",100
Sample,18490,0,"001F.ogg",100
Sample,18490,0,"00PI.ogg",100
Sample,18584,0,"00PJ.ogg",100
Sample,18584,0,"00EA.ogg",100
Sample,18584,0,"001E.ogg",100
Sample,18679,0,"00EB.ogg",100
Sample,18679,0,"001D.ogg",100
Sample,18679,0,"00PK.ogg",100
Sample,18773,0,"00PL.ogg",100
Sample,18773,0,"00EK.ogg",100
Sample,18962,0,"00EL.ogg",100
Sample,18962,0,"00PM.ogg",100
Sample,19056,0,"00PN.ogg",100
Sample,19056,0,"001D.ogg",100
Sample,19056,0,"00EM.ogg",100
Sample,19150,0,"00EN.ogg",100
Sample,19150,0,"001F.ogg",100
Sample,19150,0,"00PO.ogg",100
Sample,19245,0,"00PP.ogg",100
Sample,19245,0,"00EO.ogg",100
Sample,19245,0,"001E.ogg",100
Sample,19339,0,"00PQ.ogg",100
Sample,19339,0,"00EP.ogg",100
Sample,19433,0,"001S.ogg",100
Sample,19433,0,"00PR.ogg",100
Sample,19433,0,"00EQ.ogg",100
Sample,19433,0,"001P.ogg",100
Sample,19528,0,"001P.ogg",100
Sample,19528,0,"00ER.ogg",100
Sample,19528,0,"00PS.ogg",100
Sample,19622,0,"00ES.ogg",100
Sample,19622,0,"00OV.ogg",100
Sample,19622,0,"001M.ogg",100
Sample,19622,0,"001N.ogg",100
Sample,19622,0,"000D.ogg",100
Sample,19716,0,"00OW.ogg",100
Sample,19716,0,"00ET.ogg",100
Sample,19905,0,"00DZ.ogg",100
Sample,19905,0,"00OX.ogg",100
Sample,20094,0,"00OY.ogg",100
Sample,20188,0,"00OZ.ogg",100
Sample,20188,0,"000E.ogg",100
Sample,20188,0,"00E0.ogg",100
Sample,20283,0,"00P0.ogg",100
Sample,20283,0,"00E1.ogg",100
Sample,20471,0,"00E2.ogg",100
Sample,20471,0,"00P1.ogg",100
Sample,20566,0,"00E3.ogg",100
Sample,20566,0,"000F.ogg",100
Sample,20566,0,"00P2.ogg",100
Sample,20660,0,"00P3.ogg",100
Sample,20660,0,"00E4.ogg",100
Sample,20754,0,"000E.ogg",100
Sample,20849,0,"00P4.ogg",100
Sample,20849,0,"00E5.ogg",100
Sample,21037,0,"00E6.ogg",100
Sample,21037,0,"00P5.ogg",100
Sample,21132,0,"00E7.ogg",100
Sample,21132,0,"00P6.ogg",100
Sample,21320,0,"00E8.ogg",100
Sample,21320,0,"000E.ogg",100
Sample,21320,0,"00P7.ogg",100
Sample,21509,0,"00P8.ogg",100
Sample,21509,0,"00E9.ogg",100
Sample,21603,0,"00EA.ogg",100
Sample,21603,0,"00P9.ogg",100
Sample,21698,0,"00PA.ogg",100
Sample,21698,0,"00EB.ogg",100
Sample,21698,0,"000E.ogg",100
Sample,21792,0,"00PB.ogg",100
Sample,21792,0,"00EC.ogg",100
Sample,21981,0,"00ED.ogg",100
Sample,21981,0,"00PC.ogg",100
Sample,22075,0,"001D.ogg",100
Sample,22075,0,"00EE.ogg",100
Sample,22075,0,"00PD.ogg",100
Sample,22169,0,"00PE.ogg",100
Sample,22169,0,"001E.ogg",100
Sample,22169,0,"00EF.ogg",100
Sample,22264,0,"001D.ogg",100
Sample,22264,0,"001O.ogg",100
Sample,22358,0,"00PF.ogg",100
Sample,22358,0,"00EG.ogg",100
Sample,22452,0,"00PG.ogg",100
Sample,22547,0,"00EH.ogg",100
Sample,22547,0,"00PH.ogg",100
Sample,22641,0,"001M.ogg",100
Sample,22641,0,"000D.ogg",100
Sample,22641,0,"001N.ogg",100
Sample,22641,0,"00EI.ogg",100
Sample,22641,0,"00OV.ogg",100
Sample,22735,0,"00EJ.ogg",100
Sample,22735,0,"00OW.ogg",100
Sample,22924,0,"00OX.ogg",100
Sample,22924,0,"00DZ.ogg",100
Sample,23018,0,"001Q.ogg",100
Sample,23018,0,"001S.ogg",100
Sample,23113,0,"00OY.ogg",100
Sample,23207,0,"001R.ogg",100
Sample,23207,0,"00E0.ogg",100
Sample,23207,0,"000E.ogg",100
Sample,23207,0,"00OZ.ogg",100
Sample,23301,0,"00P0.ogg",100
Sample,23301,0,"00E1.ogg",100
Sample,23396,0,"001N.ogg",100
Sample,23490,0,"00E2.ogg",100
Sample,23490,0,"00P1.ogg",100
Sample,23584,0,"00P2.ogg",100
Sample,23584,0,"000F.ogg",100
Sample,23584,0,"00E3.ogg",100
Sample,23679,0,"00E4.ogg",100
Sample,23679,0,"00P3.ogg",100
Sample,23773,0,"001Q.ogg",100
Sample,23773,0,"000E.ogg",100
Sample,23773,0,"001S.ogg",100
Sample,23867,0,"00E5.ogg",100
Sample,23867,0,"00P4.ogg",100
Sample,23962,0,"001R.ogg",100
Sample,24056,0,"00EU.ogg",100
Sample,24056,0,"00P5.ogg",100
Sample,24150,0,"000F.ogg",100
Sample,24150,0,"001N.ogg",100
Sample,24150,0,"00EV.ogg",100
Sample,24150,0,"00PT.ogg",100
Sample,24245,0,"00PU.ogg",100
Sample,24245,0,"00EW.ogg",100
Sample,24339,0,"001D.ogg",100
Sample,24339,0,"001Q.ogg",100
Sample,24339,0,"00EX.ogg",100
Sample,24339,0,"00PV.ogg",100
Sample,24433,0,"00PW.ogg",100
Sample,24433,0,"001E.ogg",100
Sample,24433,0,"00EY.ogg",100
Sample,24528,0,"001Q.ogg",100
Sample,24528,0,"00EZ.ogg",100
Sample,24528,0,"001F.ogg",100
Sample,24528,0,"00PX.ogg",100
Sample,24528,0,"001T.ogg",100
Sample,24622,0,"00F0.ogg",100
Sample,24622,0,"001E.ogg",100
Sample,24622,0,"00PY.ogg",100
Sample,24716,0,"001D.ogg",100
Sample,24716,0,"001U.ogg",100
Sample,24716,0,"001R.ogg",100
Sample,24716,0,"00PZ.ogg",100
Sample,24716,0,"00F1.ogg",100
Sample,24811,0,"00Q0.ogg",100
Sample,24811,0,"00F2.ogg",100
Sample,24905,0,"00F3.ogg",100
Sample,24905,0,"001R.ogg",100
Sample,24905,0,"00Q1.ogg",100
Sample,24905,0,"001E.ogg",100
Sample,24905,0,"001V.ogg",100
Sample,25000,0,"00F4.ogg",100
Sample,25000,0,"00Q2.ogg",100
Sample,25094,0,"00F5.ogg",100
Sample,25094,0,"001W.ogg",100
Sample,25094,0,"00Q3.ogg",100
Sample,25094,0,"001O.ogg",100
Sample,25094,0,"001D.ogg",100
Sample,25188,0,"00Q4.ogg",100
Sample,25188,0,"00F6.ogg",100
Sample,25283,0,"000G.ogg",100
Sample,25283,0,"00Q5.ogg",100
Sample,25283,0,"00F7.ogg",100
Sample,25283,0,"001O.ogg",100
Sample,25283,0,"001X.ogg",100
Sample,25377,0,"00Q6.ogg",100
Sample,25377,0,"00F8.ogg",100
Sample,25471,0,"00Q7.ogg",100
Sample,25471,0,"001S.ogg",100
Sample,25471,0,"001N.ogg",100
Sample,25471,0,"00F9.ogg",100
Sample,25566,0,"00FA.ogg",100
Sample,25566,0,"00Q8.ogg",100
Sample,26415,0,"0002.ogg",100
Sample,26603,0,"0003.ogg",100
Sample,26603,0,"001D.ogg",100
Sample,26698,0,"001E.ogg",100
Sample,26698,0,"0009.ogg",100
Sample,26792,0,"001F.ogg",100
Sample,26792,0,"000A.ogg",100
Sample,26792,0,"00FB.ogg",100
Sample,26792,0,"001P.ogg",100
Sample,26886,0,"00FC.ogg",100
Sample,26886,0,"001P.ogg",100
Sample,26886,0,"001E.ogg",100
Sample,26981,0,"001D.ogg",100
Sample,26981,0,"00FD.ogg",100
Sample,26981,0,"001N.ogg",100
Sample,26981,0,"000B.ogg",100
Sample,27075,0,"00FE.ogg",100
Sample,27169,0,"001M.ogg",100
Sample,27169,0,"000Q.ogg",100
Sample,27169,0,"00FF.ogg",100
Sample,27358,0,"00FG.ogg",100
Sample,27452,0,"000R.ogg",100
Sample,27547,0,"000Q.ogg",100
Sample,27547,0,"00FH.ogg",100
Sample,27735,0,"00FI.ogg",100
Sample,27830,0,"000S.ogg",100
Sample,27924,0,"000Q.ogg",100
Sample,27924,0,"00FH.ogg",100
Sample,28113,0,"00FI.ogg",100
Sample,28207,0,"000R.ogg",100
Sample,28301,0,"00FH.ogg",100
Sample,28301,0,"000Q.ogg",100
Sample,28490,0,"00FI.ogg",100
Sample,28584,0,"000R.ogg",100
Sample,28679,0,"00FJ.ogg",100
Sample,28679,0,"000Q.ogg",100
Sample,28867,0,"00FK.ogg",100
Sample,28962,0,"000R.ogg",100
Sample,29056,0,"000Q.ogg",100
Sample,29056,0,"00FL.ogg",100
Sample,29245,0,"00FM.ogg",100
Sample,29339,0,"000S.ogg",100
Sample,29433,0,"000Q.ogg",100
Sample,29433,0,"00FN.ogg",100
Sample,29622,0,"001F.ogg",100
Sample,29622,0,"00FO.ogg",100
Sample,29716,0,"000R.ogg",100
Sample,29716,0,"001E.ogg",100
Sample,29811,0,"000Q.ogg",100
Sample,29811,0,"00FP.ogg",100
Sample,29811,0,"001D.ogg",100
Sample,29905,0,"00FQ.ogg",100
Sample,30000,0,"00FR.ogg",100
Sample,30000,0,"000R.ogg",100
Sample,30094,0,"00FS.ogg",100
Sample,30094,0,"000S.ogg",100
Sample,30188,0,"00FT.ogg",100
Sample,30188,0,"000Q.ogg",100
Sample,30377,0,"00FU.ogg",100
Sample,30471,0,"000R.ogg",100
Sample,30566,0,"000Q.ogg",100
Sample,30566,0,"00FV.ogg",100
Sample,30754,0,"00FW.ogg",100
Sample,30849,0,"000S.ogg",100
Sample,30943,0,"000Q.ogg",100
Sample,30943,0,"00FV.ogg",100
Sample,31132,0,"00FW.ogg",100
Sample,31226,0,"000R.ogg",100
Sample,31320,0,"00FV.ogg",100
Sample,31320,0,"000Q.ogg",100
Sample,31509,0,"00FW.ogg",100
Sample,31603,0,"000R.ogg",100
Sample,31698,0,"000Q.ogg",100
Sample,31698,0,"00FX.ogg",100
Sample,31886,0,"00FY.ogg",100
Sample,31886,0,"001D.ogg",100
Sample,31981,0,"000R.ogg",100
Sample,32075,0,"001F.ogg",100
Sample,32075,0,"00FZ.ogg",100
Sample,32075,0,"000Q.ogg",100
Sample,32169,0,"001E.ogg",100
Sample,32264,0,"001D.ogg",100
Sample,32264,0,"00G0.ogg",100
Sample,32358,0,"000S.ogg",100
Sample,32452,0,"000Q.ogg",100
Sample,32452,0,"00G1.ogg",100
Sample,32547,0,"00G2.ogg",100
Sample,32641,0,"00G3.ogg",100
Sample,32641,0,"001D.ogg",100
Sample,32735,0,"000R.ogg",100
Sample,32735,0,"001F.ogg",100
Sample,32735,0,"00G4.ogg",100
Sample,32830,0,"00G5.ogg",100
Sample,32830,0,"000Q.ogg",100
Sample,32830,0,"001E.ogg",100
Sample,32924,0,"00G6.ogg",100
Sample,33018,0,"001S.ogg",100
Sample,33018,0,"00G7.ogg",100
Sample,33018,0,"000Q.ogg",100
Sample,33113,0,"00G8.ogg",100
Sample,33207,0,"00G9.ogg",100
Sample,33207,0,"000Q.ogg",100
Sample,33396,0,"00GA.ogg",100
Sample,33490,0,"000R.ogg",100
Sample,33584,0,"000Q.ogg",100
Sample,33584,0,"00FH.ogg",100
Sample,33773,0,"00FI.ogg",100
Sample,33867,0,"000S.ogg",100
Sample,33962,0,"00FH.ogg",100
Sample,33962,0,"000Q.ogg",100
Sample,34150,0,"00FI.ogg",100
Sample,34245,0,"000R.ogg",100
Sample,34339,0,"00FH.ogg",100
Sample,34339,0,"000Q.ogg",100
Sample,34528,0,"00FI.ogg",100
Sample,34622,0,"000R.ogg",100
Sample,34716,0,"00GB.ogg",100
Sample,34716,0,"000Q.ogg",100
Sample,34905,0,"00GC.ogg",100
Sample,35000,0,"000R.ogg",100
Sample,35094,0,"000Q.ogg",100
Sample,35094,0,"00GD.ogg",100
Sample,35188,0,"00GE.ogg",100
Sample,35283,0,"00GF.ogg",100
Sample,35377,0,"000S.ogg",100
Sample,35471,0,"00GG.ogg",100
Sample,35471,0,"000Q.ogg",100
Sample,35660,0,"00GH.ogg",100
Sample,35660,0,"001D.ogg",100
Sample,35754,0,"000R.ogg",100
Sample,35754,0,"001E.ogg",100
Sample,35849,0,"000Q.ogg",100
Sample,35849,0,"001D.ogg",100
Sample,35849,0,"00GI.ogg",100
Sample,35943,0,"00GJ.ogg",100
Sample,36037,0,"000R.ogg",100
Sample,36037,0,"00GK.ogg",100
Sample,36132,0,"00GL.ogg",100
Sample,36132,0,"000S.ogg",100
Sample,36226,0,"000Q.ogg",100
Sample,36226,0,"00GM.ogg",100
Sample,36415,0,"00GN.ogg",100
Sample,36509,0,"000R.ogg",100
Sample,36603,0,"00GO.ogg",100
Sample,36603,0,"000Q.ogg",100
Sample,36792,0,"00GP.ogg",100
Sample,36886,0,"000S.ogg",100
Sample,36981,0,"00GO.ogg",100
Sample,36981,0,"000Q.ogg",100
Sample,37169,0,"00GP.ogg",100
Sample,37264,0,"000R.ogg",100
Sample,37358,0,"000Q.ogg",100
Sample,37358,0,"00GO.ogg",100
Sample,37547,0,"000Q.ogg",100
Sample,37547,0,"00GP.ogg",100
Sample,37735,0,"0002.ogg",100
Sample,37735,0,"000Q.ogg",100
Sample,37735,0,"00GQ.ogg",100
Sample,37830,0,"00GR.ogg",100
Sample,37924,0,"001D.ogg",100
Sample,37924,0,"00GS.ogg",100
Sample,37924,0,"0003.ogg",100
Sample,38018,0,"0004.ogg",100
Sample,38018,0,"00GT.ogg",100
Sample,38018,0,"001E.ogg",100
Sample,38113,0,"001F.ogg",100
Sample,38113,0,"00GU.ogg",100
Sample,38113,0,"0005.ogg",100
Sample,38207,0,"001E.ogg",100
Sample,38207,0,"00GV.ogg",100
Sample,38301,0,"0006.ogg",100
Sample,38301,0,"001D.ogg",100
Sample,38301,0,"00GW.ogg",100
Sample,38396,0,"00GX.ogg",100
Sample,38490,0,"0007.ogg",100
Sample,38490,0,"00GY.ogg",100
Sample,38490,0,"001E.ogg",100
Sample,38584,0,"00GZ.ogg",100
Sample,38679,0,"001D.ogg",100
Sample,38679,0,"00H0.ogg",100
Sample,38679,0,"0008.ogg",100
Sample,38679,0,"001Y.ogg",100
Sample,38773,0,"0009.ogg",100
Sample,38773,0,"00H1.ogg",100
Sample,38867,0,"00H2.ogg",100
Sample,38867,0,"001S.ogg",100
Sample,38867,0,"000A.ogg",100
Sample,39056,0,"000B.ogg",100
Sample,39245,0,"001M.ogg",100
Sample,39245,0,"00H3.ogg",100
Sample,39433,0,"00H4.ogg",100
Sample,39433,0,"000P.ogg",100
Sample,39528,0,"000R.ogg",100
Sample,39622,0,"00FH.ogg",100
Sample,39811,0,"00FI.ogg",100
Sample,39811,0,"000P.ogg",100
Sample,39905,0,"000S.ogg",100
Sample,40000,0,"00FH.ogg",100
Sample,40188,0,"00FI.ogg",100
Sample,40188,0,"000P.ogg",100
Sample,40283,0,"000R.ogg",100
Sample,40377,0,"00FH.ogg",100
Sample,40566,0,"000P.ogg",100
Sample,40566,0,"00FI.ogg",100
Sample,40660,0,"000R.ogg",100
Sample,40754,0,"00FJ.ogg",100
Sample,40943,0,"00FK.ogg",100
Sample,40943,0,"000P.ogg",100
Sample,41037,0,"000R.ogg",100
Sample,41132,0,"00FL.ogg",100
Sample,41320,0,"000P.ogg",100
Sample,41320,0,"00FM.ogg",100
Sample,41415,0,"000S.ogg",100
Sample,41509,0,"00FN.ogg",100
Sample,41698,0,"00FO.ogg",100
Sample,41698,0,"000P.ogg",100
Sample,41698,0,"001D.ogg",100
Sample,41792,0,"001F.ogg",100
Sample,41792,0,"000R.ogg",100
Sample,41886,0,"001D.ogg",100
Sample,41886,0,"00FP.ogg",100
Sample,41981,0,"00FQ.ogg",100
Sample,42075,0,"000P.ogg",100
Sample,42075,0,"000R.ogg",100
Sample,42075,0,"00FR.ogg",100
Sample,42169,0,"00FS.ogg",100
Sample,42169,0,"000S.ogg",100
Sample,42264,0,"00FT.ogg",100
Sample,42452,0,"00FU.ogg",100
Sample,42452,0,"000P.ogg",100
Sample,42547,0,"000R.ogg",100
Sample,42641,0,"00FV.ogg",100
Sample,42830,0,"000P.ogg",100
Sample,42830,0,"00FW.ogg",100
Sample,42924,0,"000S.ogg",100
Sample,43018,0,"00FV.ogg",100
Sample,43207,0,"00FW.ogg",100
Sample,43207,0,"000P.ogg",100
Sample,43301,0,"000R.ogg",100
Sample,43396,0,"00FV.ogg",100
Sample,43584,0,"000P.ogg",100
Sample,43584,0,"00FW.ogg",100
Sample,43679,0,"000R.ogg",100
Sample,43773,0,"00FX.ogg",100
Sample,43962,0,"000P.ogg",100
Sample,43962,0,"001D.ogg",100
Sample,43962,0,"00FY.ogg",100
Sample,44056,0,"000R.ogg",100
Sample,44150,0,"00FZ.ogg",100
Sample,44150,0,"001F.ogg",100
Sample,44245,0,"001E.ogg",100
Sample,44339,0,"001D.ogg",100
Sample,44339,0,"00G0.ogg",100
Sample,44339,0,"000P.ogg",100
Sample,44433,0,"000S.ogg",100
Sample,44528,0,"00H5.ogg",100
Sample,44622,0,"00H6.ogg",100
Sample,44716,0,"00H7.ogg",100
Sample,44716,0,"001D.ogg",100
Sample,44716,0,"000P.ogg",100
Sample,44811,0,"001F.ogg",100
Sample,44811,0,"000R.ogg",100
Sample,44811,0,"00H8.ogg",100
Sample,44905,0,"00H9.ogg",100
Sample,44905,0,"001E.ogg",100
Sample,45000,0,"00HA.ogg",100
Sample,45094,0,"00HB.ogg",100
Sample,45094,0,"000P.ogg",100
Sample,45094,0,"001S.ogg",100
Sample,45188,0,"00HC.ogg",100
Sample,45283,0,"000H.ogg",100
Sample,45283,0,"00HD.ogg",100
Sample,45471,0,"00HE.ogg",100
Sample,45471,0,"000P.ogg",100
Sample,45566,0,"000R.ogg",100
Sample,45660,0,"00FH.ogg",100
Sample,45849,0,"000P.ogg",100
Sample,45849,0,"00FI.ogg",100
Sample,45943,0,"000S.ogg",100
Sample,46037,0,"00FH.ogg",100
Sample,46226,0,"00FI.ogg",100
Sample,46226,0,"000P.ogg",100
Sample,46320,0,"000R.ogg",100
Sample,46415,0,"00FH.ogg",100
Sample,46603,0,"000P.ogg",100
Sample,46603,0,"00FI.ogg",100
Sample,46698,0,"000R.ogg",100
Sample,46792,0,"000H.ogg",100
Sample,46792,0,"00GB.ogg",100
Sample,46981,0,"000P.ogg",100
Sample,46981,0,"00GC.ogg",100
Sample,47075,0,"000R.ogg",100
Sample,47169,0,"00GD.ogg",100
Sample,47264,0,"00GE.ogg",100
Sample,47358,0,"000P.ogg",100
Sample,47358,0,"00GF.ogg",100
Sample,47452,0,"000S.ogg",100
Sample,47547,0,"00GG.ogg",100
Sample,47735,0,"00GH.ogg",100
Sample,47735,0,"001D.ogg",100
Sample,47735,0,"000P.ogg",100
Sample,47830,0,"000R.ogg",100
Sample,47830,0,"001F.ogg",100
Sample,47924,0,"00GI.ogg",100
Sample,47924,0,"001D.ogg",100
Sample,48018,0,"00GJ.ogg",100
Sample,48113,0,"000Q.ogg",100
Sample,48113,0,"00GK.ogg",100
Sample,48113,0,"000P.ogg",100
Sample,48207,0,"00GL.ogg",100
Sample,48301,0,"00GM.ogg",100
Sample,48301,0,"000H.ogg",100
Sample,48490,0,"00GN.ogg",100
Sample,48490,0,"000P.ogg",100
Sample,48584,0,"000R.ogg",100
Sample,48679,0,"00GO.ogg",100
Sample,48679,0,"000Q.ogg",100
Sample,48867,0,"000P.ogg",100
Sample,48867,0,"00GP.ogg",100
Sample,48962,0,"000S.ogg",100
Sample,49056,0,"00GO.ogg",100
Sample,49056,0,"000J.ogg",100
Sample,49245,0,"00GP.ogg",100
Sample,49245,0,"000P.ogg",100
Sample,49339,0,"000R.ogg",100
Sample,49433,0,"00GO.ogg",100
Sample,49433,0,"000K.ogg",100
Sample,49622,0,"000P.ogg",100
Sample,49622,0,"00GP.ogg",100
Sample,49716,0,"000R.ogg",100
Sample,49811,0,"00HF.ogg",100
Sample,49811,0,"000H.ogg",100
Sample,49811,0,"0002.ogg",100
Sample,49905,0,"00HG.ogg",100
Sample,50000,0,"00HH.ogg",100
Sample,50000,0,"000P.ogg",100
Sample,50000,0,"001D.ogg",100
Sample,50000,0,"0003.ogg",100
Sample,50000,0,"001S.ogg",100
Sample,50094,0,"001E.ogg",100
Sample,50094,0,"00HI.ogg",100
Sample,50094,0,"0004.ogg",100
Sample,50094,0,"000R.ogg",100
Sample,50188,0,"001F.ogg",100
Sample,50188,0,"00HJ.ogg",100
Sample,50188,0,"0005.ogg",100
Sample,50283,0,"00HK.ogg",100
Sample,50283,0,"001E.ogg",100
Sample,50377,0,"001S.ogg",100
Sample,50377,0,"001D.ogg",100
Sample,50377,0,"00HL.ogg",100
Sample,50377,0,"000P.ogg",100
Sample,50377,0,"0006.ogg",100
Sample,50471,0,"000S.ogg",100
Sample,50471,0,"00HM.ogg",100
Sample,50566,0,"00HN.ogg",100
Sample,50566,0,"0007.ogg",100
Sample,50566,0,"001E.ogg",100
Sample,50660,0,"00HO.ogg",100
Sample,50754,0,"0008.ogg",100
Sample,50754,0,"000P.ogg",100
Sample,50754,0,"001D.ogg",100
Sample,50754,0,"001Y.ogg",100
Sample,50754,0,"00HP.ogg",100
Sample,50754,0,"000Q.ogg",100
Sample,50849,0,"0009.ogg",100
Sample,50849,0,"001Y.ogg",100
Sample,50849,0,"00HQ.ogg",100
Sample,50943,0,"000A.ogg",100
Sample,50943,0,"001D.ogg",100
Sample,50943,0,"001Y.ogg",100
Sample,50943,0,"00HR.ogg",100
Sample,51037,0,"00HS.ogg",100
Sample,51132,0,"00HT.ogg",100
Sample,51132,0,"000P.ogg",100
Sample,51132,0,"000Q.ogg",100
Sample,51132,0,"001D.ogg",100
Sample,51132,0,"001S.ogg",100
Sample,51132,0,"000B.ogg",100
Sample,51226,0,"00HU.ogg",100
Sample,51320,0,"00HV.ogg",100
Sample,51320,0,"00Q9.ogg",100
Sample,51509,0,"00HW.ogg",100
Sample,51698,0,"00HX.ogg",100
Sample,51886,0,"00HY.ogg",100
Sample,52075,0,"00UN.ogg",100
Sample,52075,0,"00HZ.ogg",100
Sample,52830,0,"00QA.ogg",100
Sample,52830,0,"00I0.ogg",100
Sample,53018,0,"00I1.ogg",100
Sample,53207,0,"00I2.ogg",100
Sample,53396,0,"00I3.ogg",100
Sample,53584,0,"00I4.ogg",100
Sample,54339,0,"00I5.ogg",100
Sample,54339,0,"00QB.ogg",100
Sample,54528,0,"00I6.ogg",100
Sample,54716,0,"00I7.ogg",100
Sample,54905,0,"00I8.ogg",100
Sample,55094,0,"00UO.ogg",100
Sample,55094,0,"00I9.ogg",100
Sample,55849,0,"00IA.ogg",100
Sample,55849,0,"00QC.ogg",100
Sample,56037,0,"00IB.ogg",100
Sample,56226,0,"00IC.ogg",100
Sample,56603,0,"00QD.ogg",100
Sample,56603,0,"00ID.ogg",100
Sample,56603,0,"00ON.ogg",100
Sample,56698,0,"00OO.ogg",100
Sample,56792,0,"00OP.ogg",100
Sample,56886,0,"00OQ.ogg",100
Sample,56981,0,"00OR.ogg",100
Sample,56981,0,"00QE.ogg",100
Sample,57075,0,"00OS.ogg",100
Sample,57169,0,"00QF.ogg",100
Sample,57169,0,"00OT.ogg",100
Sample,57264,0,"00OU.ogg",100
Sample,57358,0,"00IE.ogg",100
Sample,57358,0,"001H.ogg",100
Sample,57358,0,"000U.ogg",100
Sample,57547,0,"000V.ogg",100
Sample,57547,0,"00IF.ogg",100
Sample,57735,0,"00IG.ogg",100
Sample,57735,0,"000W.ogg",100
Sample,57924,0,"000X.ogg",100
Sample,57924,0,"001I.ogg",100
Sample,57924,0,"00IH.ogg",100
Sample,58113,0,"000Y.ogg",100
Sample,58113,0,"00II.ogg",100
Sample,58301,0,"00IJ.ogg",100
Sample,58301,0,"000Z.ogg",100
Sample,58301,0,"00QG.ogg",100
Sample,58490,0,"00QH.ogg",100
Sample,58490,0,"00IK.ogg",100
Sample,58490,0,"001I.ogg",100
Sample,58490,0,"0010.ogg",100
Sample,58679,0,"0011.ogg",100
Sample,58679,0,"00QI.ogg",100
Sample,58679,0,"00IL.ogg",100
Sample,58867,0,"00IM.ogg",100
Sample,58867,0,"0012.ogg",100
Sample,59056,0,"0013.ogg",100
Sample,59056,0,"00IN.ogg",100
Sample,59245,0,"001I.ogg",100
Sample,59245,0,"0014.ogg",100
Sample,59245,0,"00IO.ogg",100
Sample,59433,0,"00IP.ogg",100
Sample,59433,0,"0015.ogg",100
Sample,59622,0,"0016.ogg",100
Sample,59622,0,"001G.ogg",100
Sample,59622,0,"00IQ.ogg",100
Sample,59811,0,"00IR.ogg",100
Sample,59811,0,"001J.ogg",100
Sample,59811,0,"00QJ.ogg",100
Sample,59811,0,"0017.ogg",100
Sample,60000,0,"00IS.ogg",100
Sample,60000,0,"0018.ogg",100
Sample,60000,0,"00QK.ogg",100
Sample,60000,0,"001K.ogg",100
Sample,60188,0,"00QL.ogg",100
Sample,60188,0,"00IT.ogg",100
Sample,60188,0,"0019.ogg",100
Sample,60377,0,"001H.ogg",100
Sample,60377,0,"00IU.ogg",100
Sample,60377,0,"00QM.ogg",100
Sample,60377,0,"000U.ogg",100
Sample,60566,0,"000V.ogg",100
Sample,60566,0,"00QN.ogg",100
Sample,60566,0,"00IV.ogg",100
Sample,60754,0,"00IW.ogg",100
Sample,60754,0,"00QO.ogg",100
Sample,60754,0,"000W.ogg",100
Sample,60943,0,"00QP.ogg",100
Sample,60943,0,"000X.ogg",100
Sample,60943,0,"00IX.ogg",100
Sample,60943,0,"001I.ogg",100
Sample,61132,0,"00IY.ogg",100
Sample,61132,0,"000Y.ogg",100
Sample,61320,0,"000Z.ogg",100
Sample,61320,0,"00IZ.ogg",100
Sample,61509,0,"00J0.ogg",100
Sample,61509,0,"001I.ogg",100
Sample,61509,0,"0010.ogg",100
Sample,61698,0,"00J1.ogg",100
Sample,61698,0,"0011.ogg",100
Sample,61886,0,"00QQ.ogg",100
Sample,61886,0,"00J2.ogg",100
Sample,61886,0,"0012.ogg",100
Sample,62075,0,"0013.ogg",100
Sample,62075,0,"00QR.ogg",100
Sample,62075,0,"00J3.ogg",100
Sample,62264,0,"001I.ogg",100
Sample,62264,0,"00J4.ogg",100
Sample,62264,0,"00QS.ogg",100
Sample,62264,0,"0014.ogg",100
Sample,62452,0,"00QT.ogg",100
Sample,62452,0,"0015.ogg",100
Sample,62452,0,"00J5.ogg",100
Sample,62641,0,"001I.ogg",100
Sample,62641,0,"00QU.ogg",100
Sample,62641,0,"00J6.ogg",100
Sample,62641,0,"0016.ogg",100
Sample,62641,0,"001G.ogg",100
Sample,62830,0,"0017.ogg",100
Sample,62830,0,"00J7.ogg",100
Sample,63018,0,"0018.ogg",100
Sample,63018,0,"00J8.ogg",100
Sample,63018,0,"001L.ogg",100
Sample,63207,0,"00J9.ogg",100
Sample,63207,0,"0019.ogg",100
Sample,63396,0,"000U.ogg",100
Sample,63396,0,"00JA.ogg",100
Sample,63396,0,"001H.ogg",100
Sample,63584,0,"000V.ogg",100
Sample,63584,0,"00JB.ogg",100
Sample,63773,0,"00JC.ogg",100
Sample,63773,0,"000W.ogg",100
Sample,63962,0,"001I.ogg",100
Sample,63962,0,"00JD.ogg",100
Sample,63962,0,"000X.ogg",100
Sample,64150,0,"000Y.ogg",100
Sample,64150,0,"00JE.ogg",100
Sample,64339,0,"00QV.ogg",100
Sample,64339,0,"00JF.ogg",100
Sample,64339,0,"000Z.ogg",100
Sample,64528,0,"001I.ogg",100
Sample,64528,0,"0010.ogg",100
Sample,64528,0,"00JG.ogg",100
Sample,64528,0,"00QW.ogg",100
Sample,64716,0,"00QX.ogg",100
Sample,64716,0,"00JH.ogg",100
Sample,64716,0,"0011.ogg",100
Sample,64905,0,"00JI.ogg",100
Sample,64905,0,"0012.ogg",100
Sample,65094,0,"0013.ogg",100
Sample,65094,0,"00JJ.ogg",100
Sample,65283,0,"00JK.ogg",100
Sample,65283,0,"001I.ogg",100
Sample,65283,0,"0014.ogg",100
Sample,65471,0,"00JL.ogg",100
Sample,65471,0,"0015.ogg",100
Sample,65660,0,"00JM.ogg",100
Sample,65660,0,"001G.ogg",100
Sample,65660,0,"0016.ogg",100
Sample,65849,0,"00QY.ogg",100
Sample,65849,0,"0017.ogg",100
Sample,65849,0,"001J.ogg",100
Sample,65849,0,"00JN.ogg",100
Sample,66037,0,"001K.ogg",100
Sample,66037,0,"00QZ.ogg",100
Sample,66037,0,"00JO.ogg",100
Sample,66037,0,"0018.ogg",100
Sample,66226,0,"0019.ogg",100
Sample,66226,0,"00R0.ogg",100
Sample,66226,0,"00JP.ogg",100
Sample,66415,0,"00R1.ogg",100
Sample,66415,0,"0096.ogg",100
Sample,66540,0,"0097.ogg",100
Sample,66666,0,"0098.ogg",100
Sample,66792,0,"0099.ogg",100
Sample,66918,0,"009A.ogg",100
Sample,67044,0,"009B.ogg",100
Sample,67169,0,"009C.ogg",100
Sample,67295,0,"009D.ogg",100
Sample,67421,0,"009E.ogg",100
Sample,67547,0,"009F.ogg",100
Sample,67672,0,"009G.ogg",100
Sample,67798,0,"009H.ogg",100
Sample,67893,0,"001Z.ogg",100
Sample,67924,0,"009I.ogg",100
Sample,68050,0,"009J.ogg",100
Sample,68176,0,"009K.ogg",100
Sample,68301,0,"009L.ogg",100
Sample,68427,0,"009M.ogg",100
Sample,68553,0,"009N.ogg",100
Sample,68679,0,"009O.ogg",100
Sample,68805,0,"009P.ogg",100
Sample,68930,0,"009Q.ogg",100
Sample,69056,0,"009R.ogg",100
Sample,69182,0,"009S.ogg",100
Sample,69308,0,"009T.ogg",100
Sample,69433,0,"001M.ogg",100
Sample,69433,0,"00JS.ogg",100
Sample,69433,0,"00R3.ogg",100
Sample,69433,0,"009U.ogg",100
Sample,69528,0,"00JT.ogg",100
Sample,69622,0,"00JU.ogg",100
Sample,69716,0,"00JV.ogg",100
Sample,69811,0,"009V.ogg",100
Sample,69811,0,"00R4.ogg",100
Sample,69811,0,"00JW.ogg",100
Sample,69905,0,"00JX.ogg",100
Sample,70000,0,"00JY.ogg",100
Sample,70094,0,"00JZ.ogg",100
Sample,70188,0,"001A.ogg",100
Sample,70188,0,"00K0.ogg",100
Sample,70188,0,"00R5.ogg",100
Sample,70188,0,"009W.ogg",100
Sample,70283,0,"00K1.ogg",100
Sample,70377,0,"00K2.ogg",100
Sample,70471,0,"00K3.ogg",100
Sample,70566,0,"00R6.ogg",100
Sample,70566,0,"009X.ogg",100
Sample,70566,0,"00K4.ogg",100
Sample,70660,0,"00K5.ogg",100
Sample,70754,0,"00K6.ogg",100
Sample,70849,0,"00K7.ogg",100
Sample,70943,0,"00R7.ogg",100
Sample,70943,0,"009Y.ogg",100
Sample,70943,0,"00K8.ogg",100
Sample,71037,0,"00K9.ogg",100
Sample,71132,0,"00KA.ogg",100
Sample,71226,0,"00KB.ogg",100
Sample,71320,0,"00R8.ogg",100
Sample,71320,0,"00KC.ogg",100
Sample,71320,0,"009Z.ogg",100
Sample,71415,0,"00KD.ogg",100
Sample,71509,0,"00KE.ogg",100
Sample,71603,0,"00KF.ogg",100
Sample,71698,0,"001B.ogg",100
Sample,72075,0,"00A0.ogg",100
Sample,72083,0,"00KG.ogg",100
Sample,72169,0,"00KH.ogg",100
Sample,72169,0,"00A1.ogg",100
Sample,72264,0,"00A2.ogg",100
Sample,72264,0,"00KI.ogg",100
Sample,72358,0,"00KJ.ogg",100
Sample,72358,0,"00A3.ogg",100
Sample,72452,0,"000H.ogg",100
Sample,72452,0,"001M.ogg",100
Sample,72452,0,"00A4.ogg",100
Sample,72641,0,"00KK.ogg",100
Sample,72735,0,"00KL.ogg",100
Sample,72735,0,"000R.ogg",100
Sample,72830,0,"00KM.ogg",100
Sample,73018,0,"00KN.ogg",100
Sample,73018,0,"00A5.ogg",100
Sample,73113,0,"00A6.ogg",100
Sample,73113,0,"000S.ogg",100
Sample,73207,0,"00A7.ogg",100
Sample,73396,0,"00A8.ogg",100
Sample,73396,0,"00KK.ogg",100
Sample,73490,0,"00KL.ogg",100
Sample,73490,0,"000R.ogg",100
Sample,73584,0,"00KM.ogg",100
Sample,73584,0,"00A9.ogg",100
Sample,73773,0,"00KN.ogg",100
Sample,73773,0,"00AA.ogg",100
Sample,73867,0,"000R.ogg",100
Sample,73962,0,"00AB.ogg",100
Sample,74150,0,"00KK.ogg",100
Sample,74245,0,"00KL.ogg",100
Sample,74245,0,"000R.ogg",100
Sample,74339,0,"00KM.ogg",100
Sample,74528,0,"00KN.ogg",100
Sample,74528,0,"00AC.ogg",100
Sample,74622,0,"00AD.ogg",100
Sample,74622,0,"000S.ogg",100
Sample,74716,0,"00KO.ogg",100
Sample,74716,0,"00AE.ogg",100
Sample,74811,0,"00KP.ogg",100
Sample,74905,0,"001D.ogg",100
Sample,74905,0,"00KQ.ogg",100
Sample,75000,0,"001E.ogg",100
Sample,75000,0,"000R.ogg",100
Sample,75000,0,"00KR.ogg",100
Sample,75094,0,"001D.ogg",100
Sample,75094,0,"00KS.ogg",100
Sample,75188,0,"00KT.ogg",100
Sample,75283,0,"000R.ogg",100
Sample,75283,0,"00KU.ogg",100
Sample,75377,0,"00KV.ogg",100
Sample,75377,0,"000S.ogg",100
Sample,75471,0,"00AF.ogg",100
Sample,75660,0,"00KK.ogg",100
Sample,75754,0,"00KL.ogg",100
Sample,75754,0,"00AG.ogg",100
Sample,75754,0,"000R.ogg",100
Sample,75849,0,"00AH.ogg",100
Sample,75849,0,"00KM.ogg",100
Sample,76037,0,"00AI.ogg",100
Sample,76037,0,"00KN.ogg",100
Sample,76132,0,"000S.ogg",100
Sample,76226,0,"00AJ.ogg",100
Sample,76415,0,"00AK.ogg",100
Sample,76415,0,"00KK.ogg",100
Sample,76509,0,"00KL.ogg",100
Sample,76509,0,"000R.ogg",100
Sample,76603,0,"00AL.ogg",100
Sample,76603,0,"00KM.ogg",100
Sample,76792,0,"00KN.ogg",100
Sample,76792,0,"00AM.ogg",100
Sample,76886,0,"000R.ogg",100
Sample,76981,0,"00AN.ogg",100
Sample,77169,0,"00KK.ogg",100
Sample,77169,0,"001D.ogg",100
Sample,77264,0,"00KL.ogg",100
Sample,77264,0,"000R.ogg",100
Sample,77358,0,"00KM.ogg",100
Sample,77358,0,"00AO.ogg",100
Sample,77358,0,"001F.ogg",100
Sample,77452,0,"001E.ogg",100
Sample,77547,0,"001D.ogg",100
Sample,77547,0,"00KN.ogg",100
Sample,77641,0,"000S.ogg",100
Sample,77735,0,"00KW.ogg",100
Sample,77735,0,"00AP.ogg",100
Sample,77830,0,"00KX.ogg",100
Sample,77924,0,"00KY.ogg",100
Sample,77924,0,"001D.ogg",100
Sample,78018,0,"001F.ogg",100
Sample,78018,0,"00KZ.ogg",100
Sample,78018,0,"000R.ogg",100
Sample,78113,0,"001E.ogg",100
Sample,78113,0,"00AQ.ogg",100
Sample,78113,0,"00L0.ogg",100
Sample,78207,0,"00L1.ogg",100
Sample,78207,0,"00AR.ogg",100
Sample,78301,0,"00L2.ogg",100
Sample,78301,0,"00AS.ogg",100
Sample,78301,0,"001S.ogg",100
Sample,78301,0,"000P.ogg",100
Sample,78396,0,"00L3.ogg",100
Sample,78396,0,"00AT.ogg",100
Sample,78490,0,"00AU.ogg",100
Sample,78679,0,"00L4.ogg",100
Sample,78773,0,"000R.ogg",100
Sample,78773,0,"00L5.ogg",100
Sample,78867,0,"00L6.ogg",100
Sample,79056,0,"00LE.ogg",100
Sample,79150,0,"00LF.ogg",100
Sample,79150,0,"000S.ogg",100
Sample,79245,0,"00LG.ogg",100
Sample,79433,0,"00AV.ogg",100
Sample,79433,0,"00L7.ogg",100
Sample,79528,0,"00AW.ogg",100
Sample,79528,0,"000R.ogg",100
Sample,79528,0,"00L8.ogg",100
Sample,79622,0,"00AX.ogg",100
Sample,79622,0,"00L9.ogg",100
Sample,79811,0,"00LA.ogg",100
Sample,79811,0,"00AY.ogg",100
Sample,79905,0,"00AZ.ogg",100
Sample,79905,0,"000R.ogg",100
Sample,80000,0,"00B0.ogg",100
Sample,80188,0,"00LB.ogg",100
Sample,80283,0,"000R.ogg",100
Sample,80283,0,"00LC.ogg",100
Sample,80377,0,"00LD.ogg",100
Sample,80566,0,"00B1.ogg",100
Sample,80566,0,"00LE.ogg",100
Sample,80660,0,"00B2.ogg",100
Sample,80660,0,"00LF.ogg",100
Sample,80660,0,"000S.ogg",100
Sample,80754,0,"00LG.ogg",100
Sample,80754,0,"00B3.ogg",100
Sample,80943,0,"001D.ogg",100
Sample,80943,0,"00LH.ogg",100
Sample,80943,0,"00B4.ogg",100
Sample,81006,0,"00B5.ogg",100
Sample,81037,0,"000R.ogg",100
Sample,81037,0,"001E.ogg",100
Sample,81037,0,"00LI.ogg",100
Sample,81069,0,"00B6.ogg",100
Sample,81132,0,"00LJ.ogg",100
Sample,81132,0,"00B7.ogg",100
Sample,81132,0,"001D.ogg",100
Sample,81320,0,"00LK.ogg",100
Sample,81320,0,"00B8.ogg",100
Sample,81320,0,"000R.ogg",100
Sample,81415,0,"000S.ogg",100
Sample,81509,0,"00B9.ogg",100
Sample,81509,0,"00LL.ogg",100
Sample,81603,0,"00LM.ogg",100
Sample,81698,0,"00LN.ogg",100
Sample,81792,0,"000R.ogg",100
Sample,81792,0,"00LO.ogg",100
Sample,81886,0,"00BA.ogg",100
Sample,81886,0,"00LP.ogg",100
Sample,81981,0,"00BB.ogg",100
Sample,82075,0,"00BC.ogg",100
Sample,82169,0,"00BD.ogg",100
Sample,82169,0,"000S.ogg",100
Sample,82264,0,"00BE.ogg",100
Sample,82264,0,"00LQ.ogg",100
Sample,82358,0,"00LR.ogg",100
Sample,82452,0,"00LS.ogg",100
Sample,82547,0,"000R.ogg",100
Sample,82547,0,"00LT.ogg",100
Sample,82641,0,"00BF.ogg",100
Sample,82641,0,"00LU.ogg",100
Sample,82735,0,"00BG.ogg",100
Sample,82830,0,"00BH.ogg",100
Sample,82924,0,"00BI.ogg",100
Sample,82924,0,"000R.ogg",100
Sample,83018,0,"00LV.ogg",100
Sample,83018,0,"000J.ogg",100
Sample,83018,0,"00BJ.ogg",100
Sample,83207,0,"00BK.ogg",100
Sample,83207,0,"00LW.ogg",100
Sample,83207,0,"001D.ogg",100
Sample,83301,0,"001E.ogg",100
Sample,83301,0,"000R.ogg",100
Sample,83301,0,"00BL.ogg",100
Sample,83301,0,"00LX.ogg",100
Sample,83396,0,"000K.ogg",100
Sample,83396,0,"00BM.ogg",100
Sample,83396,0,"001F.ogg",100
Sample,83396,0,"00LY.ogg",100
Sample,83490,0,"001E.ogg",100
Sample,83584,0,"001D.ogg",100
Sample,83584,0,"00BN.ogg",100
Sample,83584,0,"00LZ.ogg",100
Sample,83679,0,"000S.ogg",100
Sample,83679,0,"00M0.ogg",100
Sample,83773,0,"001E.ogg",100
Sample,83773,0,"000H.ogg",100
Sample,83773,0,"00BO.ogg",100
Sample,83773,0,"00M1.ogg",100
Sample,83867,0,"00M2.ogg",100
Sample,83962,0,"00M3.ogg",100
Sample,83962,0,"001D.ogg",100
Sample,83962,0,"001Y.ogg",100
Sample,84056,0,"00M4.ogg",100
Sample,84056,0,"000R.ogg",100
Sample,84150,0,"001S.ogg",100
Sample,84150,0,"00A0.ogg",100
Sample,84150,0,"00M5.ogg",100
Sample,84245,0,"00M6.ogg",100
Sample,84245,0,"00A1.ogg",100
Sample,84339,0,"00A2.ogg",100
Sample,84339,0,"000P.ogg",100
Sample,84339,0,"00M7.ogg",100
Sample,84433,0,"00M8.ogg",100
Sample,84433,0,"00A3.ogg",100
Sample,84528,0,"000H.ogg",100
Sample,84528,0,"00A4.ogg",100
Sample,84528,0,"001M.ogg",100
Sample,84716,0,"00KK.ogg",100
Sample,84811,0,"00KL.ogg",100
Sample,84811,0,"000R.ogg",100
Sample,84905,0,"00KM.ogg",100
Sample,85094,0,"00KN.ogg",100
Sample,85094,0,"00A5.ogg",100
Sample,85188,0,"00A6.ogg",100
Sample,85188,0,"000S.ogg",100
Sample,85283,0,"00A7.ogg",100
Sample,85471,0,"00KK.ogg",100
Sample,85471,0,"00A8.ogg",100
Sample,85566,0,"00KL.ogg",100
Sample,85566,0,"000R.ogg",100
Sample,85660,0,"00A9.ogg",100
Sample,85660,0,"00KM.ogg",100
Sample,85849,0,"00KN.ogg",100
Sample,85849,0,"00AA.ogg",100
Sample,85943,0,"000R.ogg",100
Sample,86037,0,"00AB.ogg",100
Sample,86226,0,"00KK.ogg",100
Sample,86320,0,"00KL.ogg",100
Sample,86320,0,"000R.ogg",100
Sample,86415,0,"00KM.ogg",100
Sample,86603,0,"00AC.ogg",100
Sample,86603,0,"00KN.ogg",100
Sample,86698,0,"00AD.ogg",100
Sample,86698,0,"000S.ogg",100
Sample,86792,0,"00KO.ogg",100
Sample,86792,0,"00AE.ogg",100
Sample,86886,0,"00KP.ogg",100
Sample,86981,0,"001F.ogg",100
Sample,86981,0,"00KQ.ogg",100
Sample,87075,0,"001E.ogg",100
Sample,87075,0,"00KR.ogg",100
Sample,87075,0,"000R.ogg",100
Sample,87169,0,"00KS.ogg",100
Sample,87169,0,"001D.ogg",100
Sample,87264,0,"00KT.ogg",100
Sample,87358,0,"000R.ogg",100
Sample,87358,0,"00KU.ogg",100
Sample,87452,0,"00KV.ogg",100
Sample,87452,0,"000S.ogg",100
Sample,87547,0,"00AF.ogg",100
Sample,87735,0,"00KK.ogg",100
Sample,87830,0,"000R.ogg",100
Sample,87830,0,"00KL.ogg",100
Sample,87830,0,"00AG.ogg",100
Sample,87924,0,"00AH.ogg",100
Sample,87924,0,"00KM.ogg",100
Sample,88113,0,"00BP.ogg",100
Sample,88113,0,"00KN.ogg",100
Sample,88207,0,"000S.ogg",100
Sample,88301,0,"00BQ.ogg",100
Sample,88490,0,"00KK.ogg",100
Sample,88490,0,"00BR.ogg",100
Sample,88584,0,"00KL.ogg",100
Sample,88584,0,"000R.ogg",100
Sample,88679,0,"00BS.ogg",100
Sample,88679,0,"00KM.ogg",100
Sample,88867,0,"00KN.ogg",100
Sample,88867,0,"00BT.ogg",100
Sample,88962,0,"000R.ogg",100
Sample,89056,0,"00BU.ogg",100
Sample,89245,0,"00KK.ogg",100
Sample,89245,0,"001D.ogg",100
Sample,89339,0,"00KL.ogg",100
Sample,89339,0,"000R.ogg",100
Sample,89433,0,"00BV.ogg",100
Sample,89433,0,"001F.ogg",100
Sample,89433,0,"00KM.ogg",100
Sample,89528,0,"001E.ogg",100
Sample,89622,0,"001D.ogg",100
Sample,89622,0,"00KN.ogg",100
Sample,89716,0,"000S.ogg",100
Sample,89716,0,"00BW.ogg",100
Sample,89764,0,"00BX.ogg",100
Sample,89811,0,"00BY.ogg",100
Sample,89811,0,"00KW.ogg",100
Sample,89905,0,"00KX.ogg",100
Sample,90000,0,"00KY.ogg",100
Sample,90000,0,"001D.ogg",100
Sample,90094,0,"00KZ.ogg",100
Sample,90094,0,"000R.ogg",100
Sample,90094,0,"001F.ogg",100
Sample,90188,0,"001E.ogg",100
Sample,90188,0,"00BZ.ogg",100
Sample,90188,0,"00L0.ogg",100
Sample,90283,0,"00C0.ogg",100
Sample,90283,0,"00L1.ogg",100
Sample,90377,0,"00L2.ogg",100
Sample,90377,0,"001S.ogg",100
Sample,90377,0,"00C1.ogg",100
Sample,90377,0,"000P.ogg",100
Sample,90471,0,"00L3.ogg",100
Sample,90471,0,"00AT.ogg",100
Sample,90566,0,"000H.ogg",100
Sample,90566,0,"00AU.ogg",100
Sample,90754,0,"00L4.ogg",100
Sample,90849,0,"000R.ogg",100
Sample,90849,0,"00L5.ogg",100
Sample,90943,0,"00L6.ogg",100
Sample,91132,0,"00LE.ogg",100
Sample,91226,0,"00LF.ogg",100
Sample,91226,0,"000S.ogg",100
Sample,91320,0,"00LG.ogg",100
Sample,91509,0,"00C2.ogg",100
Sample,91509,0,"00L7.ogg",100
Sample,91603,0,"00L8.ogg",100
Sample,91603,0,"000R.ogg",100
Sample,91603,0,"00C3.ogg",100
Sample,91698,0,"00C4.ogg",100
Sample,91698,0,"00L9.ogg",100
Sample,91886,0,"00LA.ogg",100
Sample,91886,0,"00C5.ogg",100
Sample,91981,0,"00C6.ogg",100
Sample,91981,0,"000R.ogg",100
Sample,92075,0,"000H.ogg",100
Sample,92075,0,"00C7.ogg",100
Sample,92264,0,"00LB.ogg",100
Sample,92358,0,"00LC.ogg",100
Sample,92358,0,"000R.ogg",100
Sample,92452,0,"00LD.ogg",100
Sample,92452,0,"00C8.ogg",100
Sample,92641,0,"00LE.ogg",100
Sample,92641,0,"00C9.ogg",100
Sample,92735,0,"00LF.ogg",100
Sample,92735,0,"00CA.ogg",100
Sample,92735,0,"000S.ogg",100
Sample,92830,0,"00LG.ogg",100
Sample,92830,0,"00CB.ogg",100
Sample,93018,0,"001D.ogg",100
Sample,93018,0,"00CC.ogg",100
Sample,93018,0,"00LH.ogg",100
Sample,93081,0,"00CD.ogg",100
Sample,93113,0,"000R.ogg",100
Sample,93113,0,"00LI.ogg",100
Sample,93113,0,"001E.ogg",100
Sample,93144,0,"00CE.ogg",100
Sample,93207,0,"001D.ogg",100
Sample,93207,0,"00LJ.ogg",100
Sample,93207,0,"00CF.ogg",100
Sample,93396,0,"00LK.ogg",100
Sample,93396,0,"00CG.ogg",100
Sample,93396,0,"000R.ogg",100
Sample,93490,0,"000S.ogg",100
Sample,93584,0,"000O.ogg",100
Sample,93584,0,"00CH.ogg",100
Sample,93584,0,"00LL.ogg",100
Sample,93679,0,"00LM.ogg",100
Sample,93773,0,"00M9.ogg",100
Sample,93867,0,"00MA.ogg",100
Sample,93867,0,"000R.ogg",100
Sample,93962,0,"00MB.ogg",100
Sample,93962,0,"00CI.ogg",100
Sample,93962,0,"001S.ogg",100
Sample,94056,0,"00CJ.ogg",100
Sample,94150,0,"00CK.ogg",100
Sample,94245,0,"00CL.ogg",100
Sample,94245,0,"000S.ogg",100
Sample,94339,0,"00CM.ogg",100
Sample,94339,0,"00LQ.ogg",100
Sample,94339,0,"000O.ogg",100
Sample,94433,0,"00LR.ogg",100
Sample,94528,0,"00LS.ogg",100
Sample,94622,0,"00LT.ogg",100
Sample,94716,0,"00LU.ogg",100
Sample,94716,0,"001S.ogg",100
Sample,94716,0,"00CN.ogg",100
Sample,94811,0,"001S.ogg",100
Sample,94811,0,"00CO.ogg",100
Sample,94905,0,"00CP.ogg",100
Sample,94905,0,"000P.ogg",100
Sample,95000,0,"00CQ.ogg",100
Sample,95094,0,"00LV.ogg",100
Sample,95094,0,"00CR.ogg",100
Sample,95283,0,"00CS.ogg",100
Sample,95283,0,"00MC.ogg",100
Sample,95283,0,"001D.ogg",100
Sample,95377,0,"001E.ogg",100
Sample,95377,0,"00MD.ogg",100
Sample,95377,0,"00CT.ogg",100
Sample,95471,0,"00CU.ogg",100
Sample,95471,0,"001U.ogg",100
Sample,95471,0,"001F.ogg",100
Sample,95471,0,"00ME.ogg",100
Sample,95566,0,"001E.ogg",100
Sample,95660,0,"00MF.ogg",100
Sample,95660,0,"001D.ogg",100
Sample,95660,0,"00CV.ogg",100
Sample,95660,0,"001V.ogg",100
Sample,95849,0,"00CW.ogg",100
Sample,95849,0,"001W.ogg",100
Sample,95849,0,"00MG.ogg",100
Sample,95849,0,"001E.ogg",100
Sample,95943,0,"00MH.ogg",100
Sample,96037,0,"00MI.ogg",100
Sample,96037,0,"001D.ogg",100
Sample,96037,0,"001X.ogg",100
Sample,96132,0,"00MJ.ogg",100
Sample,96226,0,"00MK.ogg",100
Sample,96226,0,"001S.ogg",100
Sample,96226,0,"00CX.ogg",100
Sample,96320,0,"00ML.ogg",100
Sample,96415,0,"00MM.ogg",100
Sample,96509,0,"00MN.ogg",100
Sample,96509,0,"00CY.ogg",100
Sample,96556,0,"00CZ.ogg",100
Sample,96603,0,"000T.ogg",100
Sample,96603,0,"001M.ogg",100
Sample,96603,0,"000D.ogg",100
Sample,96603,0,"000H.ogg",100
Sample,96603,0,"00OV.ogg",100
Sample,96603,0,"00D0.ogg",100
Sample,96698,0,"00OW.ogg",100
Sample,96698,0,"00DY.ogg",100
Sample,96698,0,"000Q.ogg",100
Sample,96886,0,"00OX.ogg",100
Sample,96886,0,"00DZ.ogg",100
Sample,96886,0,"000Q.ogg",100
Sample,97075,0,"00OY.ogg",100
Sample,97169,0,"000R.ogg",100
Sample,97169,0,"000E.ogg",100
Sample,97169,0,"00OZ.ogg",100
Sample,97169,0,"00E0.ogg",100
Sample,97264,0,"000Q.ogg",100
Sample,97264,0,"00E1.ogg",100
Sample,97264,0,"00P0.ogg",100
Sample,97452,0,"00P1.ogg",100
Sample,97452,0,"00E2.ogg",100
Sample,97547,0,"000R.ogg",100
Sample,97547,0,"00E3.ogg",100
Sample,97547,0,"00P2.ogg",100
Sample,97547,0,"000F.ogg",100
Sample,97641,0,"000Q.ogg",100
Sample,97641,0,"00E4.ogg",100
Sample,97641,0,"00P3.ogg",100
Sample,97735,0,"000E.ogg",100
Sample,97830,0,"00E5.ogg",100
Sample,97830,0,"000Q.ogg",100
Sample,97830,0,"00P4.ogg",100
Sample,98018,0,"00P5.ogg",100
Sample,98018,0,"000S.ogg",100
Sample,98018,0,"00E6.ogg",100
Sample,98113,0,"00E7.ogg",100
Sample,98113,0,"000Q.ogg",100
Sample,98113,0,"00P6.ogg",100
Sample,98301,0,"00P7.ogg",100
Sample,98301,0,"000Q.ogg",100
Sample,98301,0,"00E8.ogg",100
Sample,98301,0,"000E.ogg",100
Sample,98490,0,"00P8.ogg",100
Sample,98490,0,"00E9.ogg",100
Sample,98584,0,"00P9.ogg",100
Sample,98584,0,"00EA.ogg",100
Sample,98679,0,"000R.ogg",100
Sample,98679,0,"000E.ogg",100
Sample,98679,0,"00EB.ogg",100
Sample,98679,0,"00PA.ogg",100
Sample,98773,0,"00PB.ogg",100
Sample,98773,0,"00EC.ogg",100
Sample,98773,0,"000Q.ogg",100
Sample,98962,0,"000R.ogg",100
Sample,98962,0,"00PC.ogg",100
Sample,98962,0,"00ED.ogg",100
Sample,99056,0,"00PD.ogg",100
Sample,99056,0,"00EE.ogg",100
Sample,99056,0,"000S.ogg",100
Sample,99056,0,"001D.ogg",100
Sample,99150,0,"00EF.ogg",100
Sample,99150,0,"001F.ogg",100
Sample,99150,0,"000Q.ogg",100
Sample,99150,0,"00PE.ogg",100
Sample,99245,0,"001D.ogg",100
Sample,99339,0,"00PF.ogg",100
Sample,99339,0,"000Q.ogg",100
Sample,99339,0,"00EG.ogg",100
Sample,99433,0,"00PG.ogg",100
Sample,99528,0,"00PH.ogg",100
Sample,99528,0,"00EH.ogg",100
Sample,99528,0,"000S.ogg",100
Sample,99622,0,"000T.ogg",100
Sample,99622,0,"00OV.ogg",100
Sample,99622,0,"001M.ogg",100
Sample,99622,0,"00EI.ogg",100
Sample,99622,0,"000D.ogg",100
Sample,99716,0,"00OW.ogg",100
Sample,99716,0,"00EJ.ogg",100
Sample,99716,0,"000Q.ogg",100
Sample,99905,0,"00OX.ogg",100
Sample,99905,0,"000Q.ogg",100
Sample,99905,0,"00DZ.ogg",100
Sample,100094,0,"00OY.ogg",100
Sample,100188,0,"000R.ogg",100
Sample,100188,0,"000E.ogg",100
Sample,100188,0,"00E0.ogg",100
Sample,100188,0,"00OZ.ogg",100
Sample,100283,0,"00E1.ogg",100
Sample,100283,0,"00P0.ogg",100
Sample,100283,0,"000Q.ogg",100
Sample,100471,0,"00E2.ogg",100
Sample,100471,0,"00P1.ogg",100
Sample,100566,0,"00P2.ogg",100
Sample,100566,0,"000R.ogg",100
Sample,100566,0,"00E3.ogg",100
Sample,100566,0,"000F.ogg",100
Sample,100660,0,"00P3.ogg",100
Sample,100660,0,"00E4.ogg",100
Sample,100660,0,"000Q.ogg",100
Sample,100754,0,"000E.ogg",100
Sample,100849,0,"00P4.ogg",100
Sample,100849,0,"00E5.ogg",100
Sample,100849,0,"000Q.ogg",100
Sample,101037,0,"00P5.ogg",100
Sample,101037,0,"00E6.ogg",100
Sample,101037,0,"000S.ogg",100
Sample,101132,0,"000Q.ogg",100
Sample,101132,0,"00P6.ogg",100
Sample,101132,0,"00E7.ogg",100
Sample,101320,0,"000T.ogg",100
Sample,101320,0,"00E8.ogg",100
Sample,101320,0,"00P7.ogg",100
Sample,101320,0,"001D.ogg",100
Sample,101415,0,"000T.ogg",100
Sample,101509,0,"00E9.ogg",100
Sample,101509,0,"001F.ogg",100
Sample,101509,0,"00PI.ogg",100
Sample,101603,0,"000R.ogg",100
Sample,101603,0,"00EA.ogg",100
Sample,101603,0,"00PJ.ogg",100
Sample,101603,0,"001E.ogg",100
Sample,101698,0,"000S.ogg",100
Sample,101698,0,"001D.ogg",100
Sample,101698,0,"00EB.ogg",100
Sample,101698,0,"00PK.ogg",100
Sample,101792,0,"000Q.ogg",100
Sample,101792,0,"00EK.ogg",100
Sample,101792,0,"00PL.ogg",100
Sample,101981,0,"00EL.ogg",100
Sample,101981,0,"000R.ogg",100
Sample,101981,0,"00PM.ogg",100
Sample,102075,0,"00EM.ogg",100
Sample,102075,0,"000Q.ogg",100
Sample,102075,0,"00PN.ogg",100
Sample,102075,0,"001D.ogg",100
Sample,102169,0,"001F.ogg",100
Sample,102169,0,"00EN.ogg",100
Sample,102169,0,"00PO.ogg",100
Sample,102264,0,"00PP.ogg",100
Sample,102264,0,"00EO.ogg",100
Sample,102264,0,"001E.ogg",100
Sample,102358,0,"00PQ.ogg",100
Sample,102358,0,"00EP.ogg",100
Sample,102358,0,"000Q.ogg",100
Sample,102452,0,"00EQ.ogg",100
Sample,102452,0,"001S.ogg",100
Sample,102452,0,"00PR.ogg",100
Sample,102547,0,"00PS.ogg",100
Sample,102547,0,"00ER.ogg",100
Sample,102547,0,"000S.ogg",100
Sample,102641,0,"00ES.ogg",100
Sample,102641,0,"001M.ogg",100
Sample,102641,0,"000D.ogg",100
Sample,102641,0,"000T.ogg",100
Sample,102641,0,"00OV.ogg",100
Sample,102735,0,"000Q.ogg",100
Sample,102735,0,"00OW.ogg",100
Sample,102735,0,"00ET.ogg",100
Sample,102924,0,"00OX.ogg",100
Sample,102924,0,"000Q.ogg",100
Sample,102924,0,"00DZ.ogg",100
Sample,103113,0,"00OY.ogg",100
Sample,103207,0,"00E0.ogg",100
Sample,103207,0,"00OZ.ogg",100
Sample,103207,0,"000R.ogg",100
Sample,103207,0,"000E.ogg",100
Sample,103301,0,"00P0.ogg",100
Sample,103301,0,"000Q.ogg",100
Sample,103301,0,"00E1.ogg",100
Sample,103490,0,"00E2.ogg",100
Sample,103490,0,"00P1.ogg",100
Sample,103584,0,"000R.ogg",100
Sample,103584,0,"000F.ogg",100
Sample,103584,0,"00P2.ogg",100
Sample,103584,0,"00E3.ogg",100
Sample,103679,0,"000Q.ogg",100
Sample,103679,0,"00P3.ogg",100
Sample,103679,0,"00E4.ogg",100
Sample,103773,0,"000E.ogg",100
Sample,103867,0,"000Q.ogg",100
Sample,103867,0,"00P4.ogg",100
Sample,103867,0,"00E5.ogg",100
Sample,104056,0,"00E6.ogg",100
Sample,104056,0,"000S.ogg",100
Sample,104056,0,"00P5.ogg",100
Sample,104150,0,"00P6.ogg",100
Sample,104150,0,"00E7.ogg",100
Sample,104150,0,"000Q.ogg",100
Sample,104339,0,"00E8.ogg",100
Sample,104339,0,"000E.ogg",100
Sample,104339,0,"00P7.ogg",100
Sample,104339,0,"000Q.ogg",100
Sample,104528,0,"00E9.ogg",100
Sample,104528,0,"00P8.ogg",100
Sample,104622,0,"00EA.ogg",100
Sample,104622,0,"00P9.ogg",100
Sample,104716,0,"000R.ogg",100
Sample,104716,0,"00PA.ogg",100
Sample,104716,0,"00EB.ogg",100
Sample,104716,0,"000E.ogg",100
Sample,104811,0,"00EC.ogg",100
Sample,104811,0,"000Q.ogg",100
Sample,104811,0,"00PB.ogg",100
Sample,105000,0,"00ED.ogg",100
Sample,105000,0,"000R.ogg",100
Sample,105000,0,"00PC.ogg",100
Sample,105094,0,"000S.ogg",100
Sample,105094,0,"001D.ogg",100
Sample,105094,0,"00PD.ogg",100
Sample,105094,0,"00EE.ogg",100
Sample,105188,0,"00PE.ogg",100
Sample,105188,0,"000Q.ogg",100
Sample,105188,0,"00EF.ogg",100
Sample,105188,0,"001F.ogg",100
Sample,105283,0,"001D.ogg",100
Sample,105377,0,"00EG.ogg",100
Sample,105377,0,"00PF.ogg",100
Sample,105377,0,"000Q.ogg",100
Sample,105471,0,"00PG.ogg",100
Sample,105566,0,"000S.ogg",100
Sample,105566,0,"00PH.ogg",100
Sample,105566,0,"00EH.ogg",100
Sample,105660,0,"00EI.ogg",100
Sample,105660,0,"000D.ogg",100
Sample,105660,0,"001M.ogg",100
Sample,105660,0,"000T.ogg",100
Sample,105660,0,"00OV.ogg",100
Sample,105754,0,"00OW.ogg",100
Sample,105754,0,"00EJ.ogg",100
Sample,105754,0,"000Q.ogg",100
Sample,105943,0,"000Q.ogg",100
Sample,105943,0,"00OX.ogg",100
Sample,105943,0,"00DZ.ogg",100
Sample,106132,0,"00OY.ogg",100
Sample,106226,0,"000R.ogg",100
Sample,106226,0,"00OZ.ogg",100
Sample,106226,0,"00E0.ogg",100
Sample,106226,0,"000E.ogg",100
Sample,106320,0,"00E1.ogg",100
Sample,106320,0,"00P0.ogg",100
Sample,106320,0,"000Q.ogg",100
Sample,106509,0,"00P1.ogg",100
Sample,106509,0,"00E2.ogg",100
Sample,106603,0,"00P2.ogg",100
Sample,106603,0,"000F.ogg",100
Sample,106603,0,"00E3.ogg",100
Sample,106603,0,"000R.ogg",100
Sample,106698,0,"000Q.ogg",100
Sample,106698,0,"00P3.ogg",100
Sample,106698,0,"00E4.ogg",100
Sample,106792,0,"000E.ogg",100
Sample,106886,0,"00P4.ogg",100
Sample,106886,0,"000Q.ogg",100
Sample,106886,0,"00E5.ogg",100
Sample,107075,0,"00E6.ogg",100
Sample,107075,0,"000S.ogg",100
Sample,107075,0,"00P5.ogg",100
Sample,107169,0,"001A.ogg",100
Sample,107169,0,"00P6.ogg",100
Sample,107169,0,"000Q.ogg",100
Sample,107169,0,"00E7.ogg",100
Sample,107358,0,"001S.ogg",100
Sample,107358,0,"000T.ogg",100
Sample,107358,0,"00E8.ogg",100
Sample,107358,0,"00P7.ogg",100
Sample,107358,0,"001D.ogg",100
Sample,107452,0,"000T.ogg",100
Sample,107452,0,"001E.ogg",100
Sample,107547,0,"00E9.ogg",100
Sample,107547,0,"00PI.ogg",100
Sample,107547,0,"001F.ogg",100
Sample,107641,0,"00PJ.ogg",100
Sample,107641,0,"001E.ogg",100
Sample,107641,0,"00EA.ogg",100
Sample,107641,0,"000R.ogg",100
Sample,107735,0,"000S.ogg",100
Sample,107735,0,"00EB.ogg",100
Sample,107735,0,"001S.ogg",100
Sample,107735,0,"00PK.ogg",100
Sample,107735,0,"001D.ogg",100
Sample,107830,0,"00PL.ogg",100
Sample,107830,0,"00EK.ogg",100
Sample,107830,0,"000Q.ogg",100
Sample,107924,0,"001E.ogg",100
Sample,108018,0,"00PM.ogg",100
Sample,108018,0,"00EL.ogg",100
Sample,108018,0,"000R.ogg",100
Sample,108113,0,"00PN.ogg",100
Sample,108113,0,"000Q.ogg",100
Sample,108113,0,"001Y.ogg",100
Sample,108113,0,"00EM.ogg",100
Sample,108113,0,"001D.ogg",100
Sample,108207,0,"00EN.ogg",100
Sample,108207,0,"001Y.ogg",100
Sample,108207,0,"00PO.ogg",100
Sample,108301,0,"00PP.ogg",100
Sample,108301,0,"001Y.ogg",100
Sample,108301,0,"000E.ogg",100
Sample,108301,0,"001B.ogg",100
Sample,108301,0,"000Q.ogg",100
Sample,108301,0,"00EO.ogg",100
Sample,108396,0,"00PQ.ogg",100
Sample,108396,0,"00EP.ogg",100
Sample,108490,0,"00PR.ogg",100
Sample,108490,0,"00EQ.ogg",100
Sample,108490,0,"001S.ogg",100
Sample,108553,0,"00D1.ogg",100
Sample,108584,0,"00ER.ogg",100
Sample,108584,0,"00PS.ogg",100
Sample,108616,0,"00D2.ogg",100
Sample,108679,0,"00ES.ogg",100
Sample,108679,0,"00OV.ogg",100
Sample,108679,0,"000H.ogg",100
Sample,108679,0,"000Q.ogg",100
Sample,108679,0,"001M.ogg",100
Sample,108679,0,"000D.ogg",100
Sample,108773,0,"00ET.ogg",100
Sample,108773,0,"00OW.ogg",100
Sample,108867,0,"000P.ogg",100
Sample,108962,0,"000R.ogg",100
Sample,108962,0,"00OX.ogg",100
Sample,108962,0,"00DZ.ogg",100
Sample,109056,0,"000Q.ogg",100
Sample,109150,0,"00OY.ogg",100
Sample,109245,0,"000P.ogg",100
Sample,109245,0,"00OZ.ogg",100
Sample,109245,0,"000E.ogg",100
Sample,109245,0,"00E0.ogg",100
Sample,109339,0,"00P0.ogg",100
Sample,109339,0,"00E1.ogg",100
Sample,109339,0,"000S.ogg",100
Sample,109433,0,"000Q.ogg",100
Sample,109528,0,"00P1.ogg",100
Sample,109528,0,"00E2.ogg",100
Sample,109622,0,"000P.ogg",100
Sample,109622,0,"00P2.ogg",100
Sample,109622,0,"00E3.ogg",100
Sample,109622,0,"000F.ogg",100
Sample,109716,0,"00E4.ogg",100
Sample,109716,0,"000R.ogg",100
Sample,109716,0,"00P3.ogg",100
Sample,109811,0,"000Q.ogg",100
Sample,109811,0,"000E.ogg",100
Sample,109905,0,"00P4.ogg",100
Sample,109905,0,"00E5.ogg",100
Sample,110000,0,"000P.ogg",100
Sample,110094,0,"00E6.ogg",100
Sample,110094,0,"00P5.ogg",100
Sample,110094,0,"000R.ogg",100
Sample,110188,0,"00P6.ogg",100
Sample,110188,0,"00E7.ogg",100
Sample,110188,0,"000Q.ogg",100
Sample,110377,0,"00E8.ogg",100
Sample,110377,0,"000E.ogg",100
Sample,110377,0,"00P7.ogg",100
Sample,110377,0,"000P.ogg",100
Sample,110471,0,"000R.ogg",100
Sample,110566,0,"00P8.ogg",100
Sample,110566,0,"000Q.ogg",100
Sample,110566,0,"00E9.ogg",100
Sample,110660,0,"00P9.ogg",100
Sample,110660,0,"00EA.ogg",100
Sample,110754,0,"00PA.ogg",100
Sample,110754,0,"00EB.ogg",100
Sample,110754,0,"000E.ogg",100
Sample,110754,0,"000P.ogg",100
Sample,110849,0,"00EC.ogg",100
Sample,110849,0,"000S.ogg",100
Sample,110849,0,"00PB.ogg",100
Sample,110943,0,"000Q.ogg",100
Sample,111037,0,"00PC.ogg",100
Sample,111037,0,"00ED.ogg",100
Sample,111132,0,"000P.ogg",100
Sample,111132,0,"00PD.ogg",100
Sample,111132,0,"00EE.ogg",100
Sample,111132,0,"001D.ogg",100
Sample,111226,0,"00PE.ogg",100
Sample,111226,0,"00EF.ogg",100
Sample,111226,0,"001F.ogg",100
Sample,111226,0,"000R.ogg",100
Sample,111320,0,"001D.ogg",100
Sample,111320,0,"000Q.ogg",100
Sample,111415,0,"00PF.ogg",100
Sample,111415,0,"00EG.ogg",100
Sample,111509,0,"00PG.ogg",100
Sample,111509,0,"000P.ogg",100
Sample,111509,0,"000Q.ogg",100
Sample,111603,0,"00EH.ogg",100
Sample,111603,0,"00PH.ogg",100
Sample,111698,0,"000H.ogg",100
Sample,111698,0,"001M.ogg",100
Sample,111698,0,"000D.ogg",100
Sample,111698,0,"000Q.ogg",100
Sample,111698,0,"00OV.ogg",100
Sample,111698,0,"00EI.ogg",100
Sample,111792,0,"00EJ.ogg",100
Sample,111792,0,"00OW.ogg",100
Sample,111886,0,"000P.ogg",100
Sample,111981,0,"00OX.ogg",100
Sample,111981,0,"000R.ogg",100
Sample,111981,0,"00DZ.ogg",100
Sample,112075,0,"000Q.ogg",100
Sample,112075,0,"00DA.ogg",100
Sample,112169,0,"00OY.ogg",100
Sample,112264,0,"000P.ogg",100
Sample,112264,0,"000E.ogg",100
Sample,112264,0,"00E0.ogg",100
Sample,112264,0,"00OZ.ogg",100
Sample,112358,0,"00E1.ogg",100
Sample,112358,0,"00P0.ogg",100
Sample,112358,0,"000S.ogg",100
Sample,112452,0,"000Q.ogg",100
Sample,112547,0,"00P1.ogg",100
Sample,112547,0,"00E2.ogg",100
Sample,112641,0,"000P.ogg",100
Sample,112641,0,"00E3.ogg",100
Sample,112641,0,"00P2.ogg",100
Sample,112641,0,"000F.ogg",100
Sample,112735,0,"00E4.ogg",100
Sample,112735,0,"000R.ogg",100
Sample,112735,0,"00P3.ogg",100
Sample,112830,0,"000E.ogg",100
Sample,112830,0,"000Q.ogg",100
Sample,112924,0,"00E5.ogg",100
Sample,112924,0,"00P4.ogg",100
Sample,113018,0,"000P.ogg",100
Sample,113113,0,"00E6.ogg",100
Sample,113113,0,"00P5.ogg",100
Sample,113113,0,"000R.ogg",100
Sample,113207,0,"00P6.ogg",100
Sample,113207,0,"00E7.ogg",100
Sample,113207,0,"000Q.ogg",100
Sample,113396,0,"000P.ogg",100
Sample,113396,0,"00E8.ogg",100
Sample,113396,0,"00P7.ogg",100
Sample,113396,0,"001D.ogg",100
Sample,113490,0,"000R.ogg",100
Sample,113584,0,"001F.ogg",100
Sample,113584,0,"00E9.ogg",100
Sample,113584,0,"00PI.ogg",100
Sample,113584,0,"000Q.ogg",100
Sample,113679,0,"00PJ.ogg",100
Sample,113679,0,"001E.ogg",100
Sample,113679,0,"00EA.ogg",100
Sample,113773,0,"001D.ogg",100
Sample,113773,0,"00EB.ogg",100
Sample,113773,0,"00PK.ogg",100
Sample,113773,0,"000P.ogg",100
Sample,113867,0,"00EK.ogg",100
Sample,113867,0,"00PL.ogg",100
Sample,113867,0,"000S.ogg",100
Sample,113962,0,"000Q.ogg",100
Sample,114056,0,"00EL.ogg",100
Sample,114056,0,"00PM.ogg",100
Sample,114150,0,"00EM.ogg",100
Sample,114150,0,"000P.ogg",100
Sample,114150,0,"001D.ogg",100
Sample,114150,0,"00PN.ogg",100
Sample,114150,0,"000Q.ogg",100
Sample,114245,0,"00PO.ogg",100
Sample,114245,0,"001F.ogg",100
Sample,114245,0,"00EN.ogg",100
Sample,114339,0,"000Q.ogg",100
Sample,114339,0,"00PP.ogg",100
Sample,114339,0,"001E.ogg",100
Sample,114339,0,"00EO.ogg",100
Sample,114433,0,"00EP.ogg",100
Sample,114433,0,"00PQ.ogg",100
Sample,114528,0,"000P.ogg",100
Sample,114528,0,"000Q.ogg",100
Sample,114528,0,"001S.ogg",100
Sample,114528,0,"00PR.ogg",100
Sample,114528,0,"00EQ.ogg",100
Sample,114622,0,"00ER.ogg",100
Sample,114622,0,"00PS.ogg",100
Sample,114716,0,"000H.ogg",100
Sample,114716,0,"000Q.ogg",100
Sample,114716,0,"000D.ogg",100
Sample,114716,0,"001M.ogg",100
Sample,114716,0,"00OV.ogg",100
Sample,114716,0,"00ES.ogg",100
Sample,114811,0,"00OW.ogg",100
Sample,114811,0,"00ET.ogg",100
Sample,114905,0,"000P.ogg",100
Sample,115000,0,"00DZ.ogg",100
Sample,115000,0,"00OX.ogg",100
Sample,115000,0,"000R.ogg",100
Sample,115094,0,"000Q.ogg",100
Sample,115188,0,"00OY.ogg",100
Sample,115283,0,"000E.ogg",100
Sample,115283,0,"00E0.ogg",100
Sample,115283,0,"00OZ.ogg",100
Sample,115283,0,"000P.ogg",100
Sample,115377,0,"000S.ogg",100
Sample,115377,0,"00E1.ogg",100
Sample,115377,0,"00P0.ogg",100
Sample,115471,0,"000Q.ogg",100
Sample,115566,0,"00P1.ogg",100
Sample,115566,0,"00E2.ogg",100
Sample,115660,0,"00E3.ogg",100
Sample,115660,0,"000F.ogg",100
Sample,115660,0,"000P.ogg",100
Sample,115660,0,"00P2.ogg",100
Sample,115754,0,"00E4.ogg",100
Sample,115754,0,"00P3.ogg",100
Sample,115754,0,"000R.ogg",100
Sample,115849,0,"000Q.ogg",100
Sample,115849,0,"000E.ogg",100
Sample,115943,0,"00E5.ogg",100
Sample,115943,0,"00P4.ogg",100
Sample,116037,0,"000P.ogg",100
Sample,116132,0,"000R.ogg",100
Sample,116132,0,"00E6.ogg",100
Sample,116132,0,"00P5.ogg",100
Sample,116226,0,"000H.ogg",100
Sample,116226,0,"00P6.ogg",100
Sample,116226,0,"00E7.ogg",100
Sample,116226,0,"000Q.ogg",100
Sample,116415,0,"000E.ogg",100
Sample,116415,0,"00E8.ogg",100
Sample,116415,0,"000P.ogg",100
Sample,116415,0,"00P7.ogg",100
Sample,116509,0,"000R.ogg",100
Sample,116603,0,"000Q.ogg",100
Sample,116603,0,"00P8.ogg",100
Sample,116603,0,"00E9.ogg",100
Sample,116698,0,"00EA.ogg",100
Sample,116698,0,"00P9.ogg",100
Sample,116792,0,"00EB.ogg",100
Sample,116792,0,"00PA.ogg",100
Sample,116792,0,"000E.ogg",100
Sample,116792,0,"000P.ogg",100
Sample,116886,0,"00PB.ogg",100
Sample,116886,0,"00EC.ogg",100
Sample,116886,0,"000S.ogg",100
Sample,116981,0,"000Q.ogg",100
Sample,117075,0,"00ED.ogg",100
Sample,117075,0,"00PC.ogg",100
Sample,117169,0,"000P.ogg",100
Sample,117169,0,"001D.ogg",100
Sample,117169,0,"00EE.ogg",100
Sample,117169,0,"00PD.ogg",100
Sample,117264,0,"001F.ogg",100
Sample,117264,0,"000R.ogg",100
Sample,117264,0,"00EF.ogg",100
Sample,117264,0,"00PE.ogg",100
Sample,117358,0,"000Q.ogg",100
Sample,117358,0,"001D.ogg",100
Sample,117452,0,"00PF.ogg",100
Sample,117452,0,"00EG.ogg",100
Sample,117547,0,"00PG.ogg",100
Sample,117547,0,"000P.ogg",100
Sample,117547,0,"000R.ogg",100
Sample,117641,0,"000S.ogg",100
Sample,117641,0,"00EH.ogg",100
Sample,117641,0,"00PH.ogg",100
Sample,117735,0,"00EI.ogg",100
Sample,117735,0,"000Q.ogg",100
Sample,117735,0,"000O.ogg",100
Sample,117735,0,"001M.ogg",100
Sample,117735,0,"000D.ogg",100
Sample,117735,0,"00OV.ogg",100
Sample,117830,0,"00OW.ogg",100
Sample,117830,0,"00EJ.ogg",100
Sample,117924,0,"000P.ogg",100
Sample,117924,0,"000Q.ogg",100
Sample,118018,0,"00DZ.ogg",100
Sample,118018,0,"00OX.ogg",100
Sample,118113,0,"000Q.ogg",100
Sample,118113,0,"001S.ogg",100
Sample,118207,0,"00OY.ogg",100
Sample,118301,0,"00E0.ogg",100
Sample,118301,0,"00OZ.ogg",100
Sample,118301,0,"000P.ogg",100
Sample,118301,0,"000E.ogg",100
Sample,118301,0,"000Q.ogg",100
Sample,118396,0,"00P0.ogg",100
Sample,118396,0,"00E1.ogg",100
Sample,118490,0,"000Q.ogg",100
Sample,118490,0,"000O.ogg",100
Sample,118584,0,"00E2.ogg",100
Sample,118584,0,"00P1.ogg",100
Sample,118679,0,"000P.ogg",100
Sample,118679,0,"000F.ogg",100
Sample,118679,0,"000Q.ogg",100
Sample,118679,0,"00E3.ogg",100
Sample,118679,0,"00P2.ogg",100
Sample,118773,0,"00P3.ogg",100
Sample,118773,0,"00E4.ogg",100
Sample,118867,0,"000E.ogg",100
Sample,118867,0,"001S.ogg",100
Sample,118867,0,"000Q.ogg",100
Sample,118962,0,"00P4.ogg",100
Sample,118962,0,"00E5.ogg",100
Sample,119056,0,"000P.ogg",100
Sample,119056,0,"000Q.ogg",100
Sample,119150,0,"00EU.ogg",100
Sample,119150,0,"00P5.ogg",100
Sample,119245,0,"00EV.ogg",100
Sample,119245,0,"000F.ogg",100
Sample,119245,0,"000N.ogg",100
Sample,119245,0,"000T.ogg",100
Sample,119245,0,"00PT.ogg",100
Sample,119339,0,"00PU.ogg",100
Sample,119339,0,"000T.ogg",100
Sample,119339,0,"00EW.ogg",100
Sample,119433,0,"000T.ogg",100
Sample,119433,0,"00EX.ogg",100
Sample,119433,0,"001D.ogg",100
Sample,119433,0,"000P.ogg",100
Sample,119433,0,"00PV.ogg",100
Sample,119528,0,"000T.ogg",100
Sample,119528,0,"00PW.ogg",100
Sample,119528,0,"001E.ogg",100
Sample,119528,0,"00EY.ogg",100
Sample,119622,0,"00EZ.ogg",100
Sample,119622,0,"001F.ogg",100
Sample,119622,0,"000N.ogg",100
Sample,119622,0,"001T.ogg",100
Sample,119622,0,"000T.ogg",100
Sample,119622,0,"00PX.ogg",100
Sample,119716,0,"00F0.ogg",100
Sample,119716,0,"00PY.ogg",100
Sample,119716,0,"000T.ogg",100
Sample,119716,0,"001E.ogg",100
Sample,119811,0,"001U.ogg",100
Sample,119811,0,"00F1.ogg",100
Sample,119811,0,"000P.ogg",100
Sample,119811,0,"000T.ogg",100
Sample,119811,0,"001D.ogg",100
Sample,119811,0,"00PZ.ogg",100
Sample,119905,0,"00Q0.ogg",100
Sample,119905,0,"00F2.ogg",100
Sample,119905,0,"000T.ogg",100
Sample,120000,0,"00F3.ogg",100
Sample,120000,0,"001V.ogg",100
Sample,120000,0,"00Q1.ogg",100
Sample,120000,0,"001E.ogg",100
Sample,120000,0,"000T.ogg",100
Sample,120000,0,"000N.ogg",100
Sample,120094,0,"00F4.ogg",100
Sample,120094,0,"00Q2.ogg",100
Sample,120094,0,"000T.ogg",100
Sample,120188,0,"001W.ogg",100
Sample,120188,0,"000T.ogg",100
Sample,120188,0,"00F5.ogg",100
Sample,120188,0,"000P.ogg",100
Sample,120188,0,"001D.ogg",100
Sample,120188,0,"00Q3.ogg",100
Sample,120283,0,"00Q4.ogg",100
Sample,120283,0,"00F6.ogg",100
Sample,120283,0,"000T.ogg",100
Sample,120377,0,"00F7.ogg",100
Sample,120377,0,"000T.ogg",100
Sample,120377,0,"00Q5.ogg",100
Sample,120377,0,"001X.ogg",100
Sample,120377,0,"000E.ogg",100
Sample,120377,0,"000N.ogg",100
Sample,120471,0,"000T.ogg",100
Sample,120471,0,"00Q6.ogg",100
Sample,120471,0,"00F8.ogg",100
Sample,120566,0,"001S.ogg",100
Sample,120566,0,"000T.ogg",100
Sample,120566,0,"000P.ogg",100
Sample,120566,0,"000G.ogg",100
Sample,120566,0,"00F9.ogg",100
Sample,120566,0,"00Q7.ogg",100
Sample,120660,0,"00Q8.ogg",100
Sample,120660,0,"00FA.ogg",100
Sample,120660,0,"000T.ogg",100
Sample,121320,0,"001P.ogg",100
Sample,121415,0,"001P.ogg",100
Sample,121477,0,"001Z.ogg",100
Sample,121509,0,"001M.ogg",100
Sample,121509,0,"000C.ogg",100
Sample,121509,0,"001N.ogg",100

[TimingPoints]
0,377.358490566038,4,2,0,70,1,0
120754,-100,20,2,0,70,0,0
128301,-100,4,2,0,70,0,0

[HitObjects]
42,192,1391,5,0,0:0:0:100:00UA.ogg
213,192,1446,1,0,0:0:0:100:00UB.ogg
298,192,1509,1,0,0:0:0:100:00OE.ogg
469,192,1509,1,0,0:0:0:100:00DI.ogg
128,192,2641,1,0,0:0:0:100:00UC.ogg
469,192,2830,1,0,0:0:0:100:00UD.ogg
384,192,2971,1,0,0:0:0:100:00DJ.ogg
298,192,2995,1,0,0:0:0:100:00DK.ogg
213,192,3018,1,0,0:0:0:100:00UE.ogg
42,192,3018,1,0,0:0:0:100:00OF.ogg
42,192,4150,1,0,0:0:0:100:00UF.ogg
213,192,4339,1,0,0:0:0:100:00UG.ogg
298,192,4481,1,0,0:0:0:100:00DL.ogg
384,192,4504,1,0,0:0:0:100:00DM.ogg
469,192,4528,1,0,0:0:0:100:00UH.ogg
42,192,4528,1,0,0:0:0:100:00OG.ogg
469,192,5251,1,0,0:0:0:100:00UI.ogg
213,192,5283,1,0,0:0:0:100:00OH.ogg
42,192,5283,1,0,0:0:0:100:00DN.ogg
298,192,5660,1,0,0:0:0:100:00DO.ogg
384,192,5990,1,0,0:0:0:100:00UJ.ogg
213,192,6037,1,0,0:0:0:100:00OI.ogg
42,192,6037,1,0,0:0:0:100:00DP.ogg
469,192,7169,1,0,0:0:0:100:00DQ.ogg
384,192,7358,1,0,0:0:0:100:00DR.ogg
298,192,7500,1,0,0:0:0:100:00UK.ogg
213,192,7547,1,0,0:0:0:100:00OJ.ogg
42,192,7547,1,0,0:0:0:100:00DS.ogg
384,192,7924,1,0,0:0:0:100:00OK.ogg
128,192,8270,1,0,0:0:0:100:00UL.ogg
298,192,8301,1,0,0:0:0:100:00DT.ogg
469,192,8301,1,0,0:0:0:100:00OL.ogg
42,192,8867,1,0,0:0:0:100:00DU.ogg
469,192,8962,1,0,0:0:0:100:00DV.ogg
384,192,9009,1,0,0:0:0:100:00UM.ogg
128,192,9056,1,0,0:0:0:100:00OM.ogg
298,192,9056,1,0,0:0:0:100:00DW.ogg
469,192,13584,1,0,0:0:0:100:0020.ogg
42,192,13584,1,0,0:0:0:100:000H.ogg
298,192,13679,1,0,0:0:0:100:0021.ogg
128,192,13867,1,0,0:0:0:100:0022.ogg
384,192,14150,1,0,0:0:0:100:0023.ogg
42,192,14245,1,0,0:0:0:100:0024.ogg
213,192,14433,1,0,0:0:0:100:0025.ogg
469,192,14528,1,0,0:0:0:100:0026.ogg
128,192,14622,1,0,0:0:0:100:0027.ogg
298,192,14811,1,0,0:0:0:100:0028.ogg
42,192,15000,1,0,0:0:0:100:0029.ogg
213,192,15094,1,0,0:0:0:100:002A.ogg
384,192,15283,1,0,0:0:0:100:002B.ogg
469,192,15471,1,0,0:0:0:100:002C.ogg
213,192,15566,1,0,0:0:0:100:002D.ogg
42,192,15660,1,0,0:0:0:100:002E.ogg
298,192,15754,1,0,0:0:0:100:002F.ogg
128,192,15943,1,0,0:0:0:100:002G.ogg
384,192,16037,1,0,0:0:0:100:002H.ogg
42,192,16132,1,0,0:0:0:100:002I.ogg
469,192,16320,1,0,0:0:0:100:002J.ogg
128,192,16509,1,0,0:0:0:100:002K.ogg
298,192,16603,1,0,0:0:0:100:002L.ogg
469,192,16698,1,0,0:0:0:100:002M.ogg
213,192,16886,1,0,0:0:0:100:002N.ogg
384,192,17169,1,0,0:0:0:100:002O.ogg
128,192,17264,1,0,0:0:0:100:002P.ogg
42,192,17452,1,0,0:0:0:100:002Q.ogg
469,192,17547,1,0,0:0:0:100:002R.ogg
298,192,17641,1,0,0:0:0:100:002S.ogg
128,192,17830,1,0,0:0:0:100:002T.ogg
42,192,18018,1,0,0:0:0:100:002U.ogg
384,192,18113,1,0,0:0:0:100:002V.ogg
213,192,18301,1,0,0:0:0:100:002W.ogg
469,192,18490,1,0,0:0:0:100:002X.ogg
298,192,18584,1,0,0:0:0:100:002Y.ogg
128,192,18679,1,0,0:0:0:100:002Z.ogg
42,192,18773,1,0,0:0:0:100:0030.ogg
384,192,18962,1,0,0:0:0:100:0031.ogg
213,192,19056,1,0,0:0:0:100:0032.ogg
42,192,19150,1,0,0:0:0:100:0033.ogg
298,192,19245,1,0,0:0:0:100:0034.ogg
128,192,19339,1,0,0:0:0:100:0035.ogg
469,192,19433,1,0,0:0:0:100:0036.ogg
298,192,19528,1,0,0:0:0:100:0037.ogg
469,192,19622,1,0,0:0:0:100:000H.ogg
42,192,19622,1,0,0:0:0:100:0038.ogg
213,192,19716,1,0,0:0:0:100:0039.ogg
128,192,19905,1,0,0:0:0:100:0022.ogg
42,192,20188,1,0,0:0:0:100:0023.ogg
298,192,20283,1,0,0:0:0:100:0024.ogg
469,192,20471,1,0,0:0:0:100:0025.ogg
128,192,20566,1,0,0:0:0:100:0026.ogg
469,192,20660,1,0,0:0:0:100:0027.ogg
213,192,20849,1,0,0:0:0:100:0028.ogg
384,192,21037,1,0,0:0:0:100:0029.ogg
42,192,21132,1,0,0:0:0:100:002A.ogg
213,192,21320,1,0,0:0:0:100:002B.ogg
469,192,21509,1,0,0:0:0:100:002C.ogg
128,192,21603,1,0,0:0:0:100:002D.ogg
298,192,21698,1,0,0:0:0:100:002E.ogg
128,192,21792,1,0,0:0:0:100:002F.ogg
42,192,21981,1,0,0:0:0:100:002G.ogg
213,192,22075,1,0,0:0:0:100:002H.ogg
42,192,22169,1,0,0:0:0:100:002I.ogg
384,192,22358,1,0,0:0:0:100:002J.ogg
469,192,22547,1,0,0:0:0:100:002K.ogg
298,192,22641,1,0,0:0:0:100:000L.ogg
42,192,22641,1,0,0:0:0:100:002L.ogg
213,192,22735,1,0,0:0:0:100:002M.ogg
384,192,22924,1,0,0:0:0:100:002N.ogg
128,192,23207,1,0,0:0:0:100:002O.ogg
469,192,23301,1,0,0:0:0:100:002P.ogg
42,192,23396,1,0,0:0:0:100:000I.ogg
298,192,23490,1,0,0:0:0:100:002Q.ogg
469,192,23584,1,0,0:0:0:100:002R.ogg
128,192,23679,1,0,0:0:0:100:002S.ogg
298,192,23867,1,0,0:0:0:100:002T.ogg
213,192,24056,1,0,0:0:0:100:002U.ogg
469,192,24150,1,0,0:0:0:100:003A.ogg
42,192,24150,1,0,0:0:0:100:000J.ogg
298,192,24245,1,0,0:0:0:100:003B.ogg
128,192,24339,1,0,0:0:0:100:003C.ogg
298,192,24433,1,0,0:0:0:100:003D.ogg
469,192,24528,1,0,0:0:0:100:000K.ogg
42,192,24528,1,0,0:0:0:100:003E.ogg
213,192,24622,1,0,0:0:0:100:003F.ogg
384,192,24716,1,0,0:0:0:100:003G.ogg
213,192,24811,1,0,0:0:0:100:003H.ogg
469,192,24905,1,0,0:0:0:100:000J.ogg
42,192,24905,1,0,0:0:0:100:003I.ogg
298,192,25000,1,0,0:0:0:100:003J.ogg
128,192,25094,1,0,0:0:0:100:003K.ogg
298,192,25188,1,0,0:0:0:100:003L.ogg
469,192,25283,1,0,0:0:0:100:000M.ogg
42,192,25283,1,0,0:0:0:100:003M.ogg
213,192,25377,1,0,0:0:0:100:003N.ogg
384,192,25471,1,0,0:0:0:100:003O.ogg
213,192,25566,1,0,0:0:0:100:003P.ogg
42,192,25660,1,0,0:0:0:100:001M.ogg
384,192,26792,1,0,0:0:0:100:003Q.ogg
298,192,26886,1,0,0:0:0:100:003R.ogg
213,192,26981,1,0,0:0:0:100:003S.ogg
128,192,27075,1,0,0:0:0:100:003T.ogg
469,192,27169,1,0,0:0:0:100:000H.ogg
42,192,27169,1,0,0:0:0:100:003U.ogg
298,192,27358,1,0,0:0:0:100:003V.ogg
42,192,27547,1,0,0:0:0:100:003W.ogg
384,192,27641,1,0,0:0:0:100:003X.ogg
128,192,27735,1,0,0:0:0:100:003Y.ogg
469,192,27830,1,0,0:0:0:100:003Z.ogg
298,192,27924,1,0,0:0:0:100:0040.ogg
42,192,28113,1,0,0:0:0:100:0041.ogg
384,192,28301,1,0,0:0:0:100:0042.ogg
213,192,28490,1,0,0:0:0:100:0043.ogg
213,192,28679,1,0,0:0:0:100:0044.ogg
42,192,28867,1,0,0:0:0:100:0045.ogg
469,192,28962,1,0,0:0:0:100:0046.ogg
298,192,29056,1,0,0:0:0:100:0047.ogg
128,192,29245,1,0,0:0:0:100:0048.ogg
298,192,29339,1,0,0:0:0:100:0049.ogg
469,192,29433,1,0,0:0:0:100:004A.ogg
213,192,29528,1,0,0:0:0:100:004B.ogg
128,192,29622,1,0,0:0:0:100:004C.ogg
42,192,29716,1,0,0:0:0:100:004D.ogg
384,192,29811,1,0,0:0:0:100:004E.ogg
128,192,30000,1,0,0:0:0:100:004F.ogg
128,192,30188,1,0,0:0:0:100:004G.ogg
469,192,30377,1,0,0:0:0:100:004H.ogg
42,192,30566,1,0,0:0:0:100:004I.ogg
298,192,30660,1,0,0:0:0:100:004J.ogg
128,192,30754,1,0,0:0:0:100:004K.ogg
384,192,30849,1,0,0:0:0:100:004L.ogg
469,192,30943,1,0,0:0:0:100:004M.ogg
42,192,31132,1,0,0:0:0:100:004N.ogg
298,192,31320,1,0,0:0:0:100:004O.ogg
213,192,31509,1,0,0:0:0:100:004P.ogg
213,192,31698,1,0,0:0:0:100:004Q.ogg
42,192,31886,1,0,0:0:0:100:004R.ogg
384,192,31981,1,0,0:0:0:100:004S.ogg
128,192,32075,1,0,0:0:0:100:004T.ogg
384,192,32169,1,0,0:0:0:100:004U.ogg
213,192,32264,1,0,0:0:0:100:004V.ogg
298,192,32358,1,0,0:0:0:100:004W.ogg
469,192,32452,1,0,0:0:0:100:004X.ogg
298,192,32547,1,0,0:0:0:100:004Y.ogg
213,192,32641,1,0,0:0:0:100:004Z.ogg
128,192,32735,1,0,0:0:0:100:0050.ogg
42,192,32830,1,0,0:0:0:100:0051.ogg
469,192,32924,1,0,0:0:0:100:0052.ogg
213,192,33018,1,0,0:0:0:100:0053.ogg
298,192,33113,1,0,0:0:0:100:0054.ogg
42,192,33207,1,0,0:0:0:100:0055.ogg
384,192,33396,1,0,0:0:0:100:003V.ogg
42,192,33584,1,0,0:0:0:100:003W.ogg
298,192,33679,1,0,0:0:0:100:003X.ogg
128,192,33773,1,0,0:0:0:100:003Y.ogg
298,192,33867,1,0,0:0:0:100:003Z.ogg
469,192,33962,1,0,0:0:0:100:0040.ogg
42,192,34150,1,0,0:0:0:100:0041.ogg
384,192,34339,1,0,0:0:0:100:0042.ogg
213,192,34528,1,0,0:0:0:100:0043.ogg
213,192,34716,1,0,0:0:0:100:0056.ogg
42,192,34905,1,0,0:0:0:100:0057.ogg
469,192,35000,1,0,0:0:0:100:0058.ogg
298,192,35094,1,0,0:0:0:100:0059.ogg
213,192,35283,1,0,0:0:0:100:005A.ogg
42,192,35377,1,0,0:0:0:100:005B.ogg
298,192,35471,1,0,0:0:0:100:005C.ogg
128,192,35566,1,0,0:0:0:100:005D.ogg
384,192,35660,1,0,0:0:0:100:005E.ogg
213,192,35754,1,0,0:0:0:100:005F.ogg
469,192,35849,1,0,0:0:0:100:005G.ogg
128,192,36037,1,0,0:0:0:100:005H.ogg
128,192,36226,1,0,0:0:0:100:005I.ogg
42,192,36415,1,0,0:0:0:100:005J.ogg
298,192,36603,1,0,0:0:0:100:005K.ogg
469,192,36698,1,0,0:0:0:100:005L.ogg
298,192,36792,1,0,0:0:0:100:005M.ogg
128,192,36886,1,0,0:0:0:100:005N.ogg
384,192,36981,1,0,0:0:0:100:005O.ogg
42,192,37169,1,0,0:0:0:100:005P.ogg
469,192,37358,1,0,0:0:0:100:005Q.ogg
213,192,37547,1,0,0:0:0:100:005R.ogg
42,192,37735,1,0,0:0:0:100:005S.ogg
469,192,37735,128,0,38867:0:0:0:100:001A.ogg
298,192,37830,1,0,0:0:0:100:005T.ogg
213,192,37924,1,0,0:0:0:100:005U.ogg
128,192,38018,1,0,0:0:0:100:005V.ogg
384,192,38113,1,0,0:0:0:100:005W.ogg
42,192,38207,1,0,0:0:0:100:005X.ogg
298,192,38301,1,0,0:0:0:100:005Y.ogg
128,192,38396,1,0,0:0:0:100:005Z.ogg
384,192,38490,1,0,0:0:0:100:0060.ogg
42,192,38584,1,0,0:0:0:100:0061.ogg
213,192,38679,1,0,0:0:0:100:0062.ogg
128,192,38773,1,0,0:0:0:100:0063.ogg
298,192,38867,1,0,0:0:0:100:001B.ogg
42,192,38867,1,0,0:0:0:100:0064.ogg
213,192,39245,1,0,0:0:0:100:0065.ogg
469,192,39245,1,0,0:0:0:100:000H.ogg
42,192,39245,1,0,0:0:0:100:000Q.ogg
298,192,39433,1,0,0:0:0:100:003V.ogg
469,192,39622,1,0,0:0:0:100:000Q.ogg
42,192,39622,1,0,0:0:0:100:003W.ogg
213,192,39716,1,0,0:0:0:100:003X.ogg
42,192,39811,1,0,0:0:0:100:003Y.ogg
298,192,39905,1,0,0:0:0:100:003Z.ogg
128,192,40000,1,0,0:0:0:100:000Q.ogg
469,192,40000,1,0,0:0:0:100:0040.ogg
42,192,40188,1,0,0:0:0:100:0041.ogg
213,192,40377,1,0,0:0:0:100:000Q.ogg
384,192,40377,1,0,0:0:0:100:0042.ogg
128,192,40566,1,0,0:0:0:100:0043.ogg
298,192,40754,1,0,0:0:0:100:000Q.ogg
469,192,40754,1,0,0:0:0:100:0044.ogg
42,192,40943,1,0,0:0:0:100:0045.ogg
469,192,41037,1,0,0:0:0:100:0046.ogg
213,192,41132,1,0,0:0:0:100:0047.ogg
384,192,41132,1,0,0:0:0:100:000Q.ogg
42,192,41320,1,0,0:0:0:100:0048.ogg
298,192,41415,1,0,0:0:0:100:0049.ogg
128,192,41509,1,0,0:0:0:100:004A.ogg
469,192,41509,1,0,0:0:0:100:000Q.ogg
298,192,41603,1,0,0:0:0:100:004B.ogg
42,192,41698,1,0,0:0:0:100:004C.ogg
213,192,41792,1,0,0:0:0:100:004D.ogg
298,192,41886,1,0,0:0:0:100:000Q.ogg
469,192,41886,1,0,0:0:0:100:004E.ogg
128,192,42075,1,0,0:0:0:100:004F.ogg
298,192,42264,1,0,0:0:0:100:004G.ogg
42,192,42264,1,0,0:0:0:100:000Q.ogg
469,192,42452,1,0,0:0:0:100:004H.ogg
128,192,42641,1,0,0:0:0:100:000Q.ogg
298,192,42641,1,0,0:0:0:100:004I.ogg
469,192,42735,1,0,0:0:0:100:004J.ogg
42,192,42830,1,0,0:0:0:100:004K.ogg
213,192,42924,1,0,0:0:0:100:004L.ogg
298,192,43018,1,0,0:0:0:100:000Q.ogg
469,192,43018,1,0,0:0:0:100:004M.ogg
128,192,43207,1,0,0:0:0:100:004N.ogg
213,192,43396,1,0,0:0:0:100:000Q.ogg
384,192,43396,1,0,0:0:0:100:004O.ogg
42,192,43584,1,0,0:0:0:100:004P.ogg
128,192,43773,1,0,0:0:0:100:000Q.ogg
469,192,43773,1,0,0:0:0:100:004Q.ogg
298,192,43962,1,0,0:0:0:100:004R.ogg
42,192,44056,1,0,0:0:0:100:004S.ogg
213,192,44150,1,0,0:0:0:100:000Q.ogg
469,192,44150,1,0,0:0:0:100:004T.ogg
298,192,44245,1,0,0:0:0:100:0066.ogg
128,192,44339,1,0,0:0:0:100:0067.ogg
469,192,44433,1,0,0:0:0:100:0068.ogg
298,192,44528,1,0,0:0:0:100:000Q.ogg
42,192,44528,1,0,0:0:0:100:0069.ogg
469,192,44622,1,0,0:0:0:100:006A.ogg
128,192,44716,1,0,0:0:0:100:006B.ogg
298,192,44811,1,0,0:0:0:100:006C.ogg
469,192,44905,1,0,0:0:0:100:006D.ogg
42,192,44905,1,0,0:0:0:100:000Q.ogg
213,192,45000,1,0,0:0:0:100:006E.ogg
384,192,45094,1,0,0:0:0:100:006F.ogg
42,192,45094,1,0,0:0:0:100:000Q.ogg
213,192,45188,1,0,0:0:0:100:006G.ogg
469,192,45283,1,0,0:0:0:100:006H.ogg
42,192,45283,1,0,0:0:0:100:000Q.ogg
298,192,45471,1,0,0:0:0:100:003V.ogg
213,192,45660,1,0,0:0:0:100:000Q.ogg
384,192,45660,1,0,0:0:0:100:003W.ogg
42,192,45754,1,0,0:0:0:100:003X.ogg
469,192,45849,1,0,0:0:0:100:003Y.ogg
128,192,45943,1,0,0:0:0:100:003Z.ogg
298,192,46037,1,0,0:0:0:100:0040.ogg
42,192,46037,1,0,0:0:0:100:000Q.ogg
384,192,46226,1,0,0:0:0:100:0041.ogg
213,192,46415,1,0,0:0:0:100:000Q.ogg
469,192,46415,1,0,0:0:0:100:0042.ogg
128,192,46603,1,0,0:0:0:100:0043.ogg
298,192,46792,1,0,0:0:0:100:0056.ogg
42,192,46792,1,0,0:0:0:100:000Q.ogg
469,192,46981,1,0,0:0:0:100:0057.ogg
128,192,47075,1,0,0:0:0:100:0058.ogg
213,192,47169,1,0,0:0:0:100:000Q.ogg
384,192,47169,1,0,0:0:0:100:0059.ogg
42,192,47358,1,0,0:0:0:100:005A.ogg
298,192,47452,1,0,0:0:0:100:005B.ogg
213,192,47547,1,0,0:0:0:100:000Q.ogg
469,192,47547,1,0,0:0:0:100:005C.ogg
42,192,47641,1,0,0:0:0:100:005D.ogg
384,192,47735,1,0,0:0:0:100:005E.ogg
128,192,47830,1,0,0:0:0:100:005F.ogg
298,192,47924,1,0,0:0:0:100:000Q.ogg
469,192,47924,1,0,0:0:0:100:005G.ogg
42,192,48113,1,0,0:0:0:100:005H.ogg
128,192,48301,1,0,0:0:0:100:000Q.ogg
384,192,48301,1,0,0:0:0:100:005I.ogg
42,192,48490,1,0,0:0:0:100:005J.ogg
213,192,48679,1,0,0:0:0:100:005K.ogg
469,192,48773,1,0,0:0:0:100:005L.ogg
128,192,48867,1,0,0:0:0:100:005M.ogg
298,192,48962,1,0,0:0:0:100:005N.ogg
469,192,49056,1,0,0:0:0:100:005O.ogg
42,192,49056,1,0,0:0:0:100:000Q.ogg
384,192,49245,1,0,0:0:0:100:005P.ogg
128,192,49433,1,0,0:0:0:100:000Q.ogg
298,192,49433,1,0,0:0:0:100:005Q.ogg
213,192,49622,1,0,0:0:0:100:005R.ogg
469,192,49811,1,0,0:0:0:100:000Q.ogg
42,192,49811,1,0,0:0:0:100:006I.ogg
213,192,49905,1,0,0:0:0:100:006J.ogg
384,192,50000,1,0,0:0:0:100:006K.ogg
213,192,50094,1,0,0:0:0:100:006L.ogg
469,192,50188,1,0,0:0:0:100:000Q.ogg
42,192,50188,1,0,0:0:0:100:006M.ogg
298,192,50283,1,0,0:0:0:100:006N.ogg
128,192,50377,1,0,0:0:0:100:006O.ogg
298,192,50471,1,0,0:0:0:100:006P.ogg
469,192,50566,1,0,0:0:0:100:006Q.ogg
42,192,50566,1,0,0:0:0:100:000Q.ogg
213,192,50660,1,0,0:0:0:100:006R.ogg
384,192,50754,1,0,0:0:0:100:006S.ogg
213,192,50849,1,0,0:0:0:100:006T.ogg
469,192,50943,1,0,0:0:0:100:006U.ogg
42,192,50943,1,0,0:0:0:100:000Q.ogg
298,192,51037,1,0,0:0:0:100:006V.ogg
128,192,51132,1,0,0:0:0:100:006W.ogg
298,192,51226,1,0,0:0:0:100:006X.ogg
42,192,51320,1,0,0:0:0:100:001M.ogg
469,192,51320,128,0,52452:0:0:0:100:006Y.ogg
128,192,52452,1,0,0:0:0:100:006Z.ogg
384,192,52641,1,0,0:0:0:100:0070.ogg
213,192,52830,128,0,53962:0:0:0:100:0071.ogg
42,192,53962,1,0,0:0:0:100:0072.ogg
298,192,54150,1,0,0:0:0:100:0073.ogg
469,192,54339,1,0,0:0:0:100:001M.ogg
128,192,54339,128,0,55094:0:0:0:100:0074.ogg
469,192,55094,1,0,0:0:0:100:0075.ogg
298,192,55471,1,0,0:0:0:100:0076.ogg
213,192,55849,1,0,0:0:0:100:0077.ogg
42,192,56415,1,0,0:0:0:100:0078.ogg
384,192,56509,1,0,0:0:0:100:0079.ogg
213,192,56603,1,0,0:0:0:100:007A.ogg
469,192,56792,1,0,0:0:0:100:007B.ogg
128,192,56981,1,0,0:0:0:100:007C.ogg
384,192,57169,1,0,0:0:0:100:007D.ogg
469,192,57358,1,0,0:0:0:100:001M.ogg
42,192,57358,1,0,0:0:0:100:007E.ogg
298,192,57452,1,0,0:0:0:100:007F.ogg
128,192,57547,1,0,0:0:0:100:007G.ogg
384,192,57641,1,0,0:0:0:100:007H.ogg
213,192,57735,1,0,0:0:0:100:007I.ogg
469,192,57830,1,0,0:0:0:100:007J.ogg
128,192,57924,1,0,0:0:0:100:007K.ogg
384,192,58018,1,0,0:0:0:100:007L.ogg
42,192,58113,1,0,0:0:0:100:007M.ogg
469,192,58301,1,0,0:0:0:100:007N.ogg
298,192,58490,1,0,0:0:0:100:007O.ogg
128,192,58679,1,0,0:0:0:100:007P.ogg
469,192,58867,1,0,0:0:0:100:007Q.ogg
213,192,58962,1,0,0:0:0:100:007R.ogg
384,192,59056,1,0,0:0:0:100:007S.ogg
128,192,59150,1,0,0:0:0:100:007T.ogg
298,192,59245,1,0,0:0:0:100:007U.ogg
42,192,59339,1,0,0:0:0:100:007V.ogg
384,192,59433,1,0,0:0:0:100:007W.ogg
128,192,59528,1,0,0:0:0:100:007X.ogg
469,192,59622,1,0,0:0:0:100:007Y.ogg
298,192,59811,1,0,0:0:0:100:007Z.ogg
42,192,60000,1,0,0:0:0:100:0080.ogg
213,192,60188,1,0,0:0:0:100:0081.ogg
128,192,60377,1,0,0:0:0:100:0082.ogg
469,192,60377,1,0,0:0:0:100:001M.ogg
42,192,60566,1,0,0:0:0:100:0083.ogg
298,192,60754,1,0,0:0:0:100:0084.ogg
213,192,60943,1,0,0:0:0:100:0085.ogg
469,192,61132,1,0,0:0:0:100:0086.ogg
42,192,61509,1,0,0:0:0:100:0087.ogg
213,192,61603,1,0,0:0:0:100:0088.ogg
384,192,61698,1,0,0:0:0:100:0089.ogg
469,192,61792,1,0,0:0:0:100:008A.ogg
298,192,61886,1,0,0:0:0:100:008B.ogg
128,192,62075,1,0,0:0:0:100:008C.ogg
384,192,62264,1,0,0:0:0:100:008D.ogg
42,192,62452,1,0,0:0:0:100:008E.ogg
469,192,62641,1,0,0:0:0:100:008F.ogg
128,192,63207,1,0,0:0:0:100:008G.ogg
298,192,63301,1,0,0:0:0:100:008H.ogg
469,192,63396,1,0,0:0:0:100:001M.ogg
42,192,63396,1,0,0:0:0:100:008I.ogg
298,192,63490,1,0,0:0:0:100:008J.ogg
128,192,63584,1,0,0:0:0:100:008K.ogg
384,192,63679,1,0,0:0:0:100:008L.ogg
213,192,63773,1,0,0:0:0:100:008M.ogg
469,192,63867,1,0,0:0:0:100:008N.ogg
128,192,63962,1,0,0:0:0:100:008O.ogg
384,192,64056,1,0,0:0:0:100:008P.ogg
42,192,64150,1,0,0:0:0:100:008Q.ogg
298,192,64339,1,0,0:0:0:100:008R.ogg
128,192,64528,1,0,0:0:0:100:008S.ogg
384,192,64716,1,0,0:0:0:100:008T.ogg
469,192,64905,1,0,0:0:0:100:008U.ogg
213,192,65000,1,0,0:0:0:100:008V.ogg
384,192,65094,1,0,0:0:0:100:008W.ogg
128,192,65188,1,0,0:0:0:100:008X.ogg
298,192,65283,1,0,0:0:0:100:008Y.ogg
42,192,65377,1,0,0:0:0:100:008Z.ogg
384,192,65471,1,0,0:0:0:100:0090.ogg
128,192,65566,1,0,0:0:0:100:0091.ogg
469,192,65660,1,0,0:0:0:100:0092.ogg
42,192,65849,1,0,0:0:0:100:0093.ogg
213,192,66037,1,0,0:0:0:100:0094.ogg
384,192,66226,1,0,0:0:0:100:0095.ogg
469,192,66415,1,0,0:0:0:100:00JQ.ogg
42,192,66415,1,0,0:0:0:100:001M.ogg
128,192,67924,1,0,0:0:0:100:00JR.ogg
384,192,67924,1,0,0:0:0:100:00R2.ogg
213,192,69433,1,0,0:0:0:100:001N.ogg
469,192,69433,1,0,0:0:0:100:000O.ogg
42,192,69433,1,0,0:0:0:100:000C.ogg
128,192,70188,1,0,0:0:0:100:000N.ogg
384,192,70188,1,0,0:0:0:100:001N.ogg
128,192,70566,1,0,0:0:0:100:001N.ogg
384,192,70566,1,0,0:0:0:100:000N.ogg
469,192,70943,1,0,0:0:0:100:000O.ogg
42,192,70943,1,0,0:0:0:100:001N.ogg
128,192,72075,1,0,0:0:0:100:00R9.ogg
213,192,72169,1,0,0:0:0:100:00RA.ogg
298,192,72264,1,0,0:0:0:100:00RB.ogg
384,192,72358,1,0,0:0:0:100:00RC.ogg
42,192,72452,1,0,0:0:0:100:000Q.ogg
469,192,72452,128,0,73018:0:0:0:100:00RD.ogg
213,192,72641,1,0,0:0:0:100:000P.ogg
42,192,72830,1,0,0:0:0:100:000Q.ogg
128,192,73018,1,0,0:0:0:100:000P.ogg
298,192,73018,1,0,0:0:0:100:00RE.ogg
384,192,73113,1,0,0:0:0:100:00RF.ogg
213,192,73207,1,0,0:0:0:100:000Q.ogg
42,192,73207,1,0,0:0:0:100:00RG.ogg
298,192,73396,1,0,0:0:0:100:000P.ogg
469,192,73396,1,0,0:0:0:100:00RH.ogg
128,192,73584,1,0,0:0:0:100:000Q.ogg
384,192,73584,1,0,0:0:0:100:00RI.ogg
469,192,73773,1,0,0:0:0:100:00RJ.ogg
42,192,73773,1,0,0:0:0:100:000P.ogg
128,192,73962,1,0,0:0:0:100:000Q.ogg
298,192,73962,128,0,74528:0:0:0:100:00RK.ogg
469,192,74150,1,0,0:0:0:100:000P.ogg
128,192,74339,1,0,0:0:0:100:000Q.ogg
469,192,74528,1,0,0:0:0:100:000P.ogg
42,192,74528,1,0,0:0:0:100:00RL.ogg
213,192,74622,1,0,0:0:0:100:00RM.ogg
298,192,74716,1,0,0:0:0:100:000Q.ogg
42,192,74716,128,0,75471:0:0:0:100:00RN.ogg
469,192,74905,1,0,0:0:0:100:000P.ogg
298,192,75094,1,0,0:0:0:100:000Q.ogg
469,192,75283,1,0,0:0:0:100:000P.ogg
213,192,75471,1,0,0:0:0:100:000Q.ogg
384,192,75471,1,0,0:0:0:100:00RO.ogg
128,192,75660,1,0,0:0:0:100:000P.ogg
298,192,75754,1,0,0:0:0:100:00RP.ogg
469,192,75849,1,0,0:0:0:100:00RQ.ogg
42,192,75849,1,0,0:0:0:100:000Q.ogg
213,192,76037,1,0,0:0:0:100:000P.ogg
384,192,76037,1,0,0:0:0:100:00RR.ogg
469,192,76226,1,0,0:0:0:100:00RS.ogg
42,192,76226,1,0,0:0:0:100:000Q.ogg
128,192,76415,1,0,0:0:0:100:00RT.ogg
298,192,76415,1,0,0:0:0:100:000P.ogg
469,192,76603,1,0,0:0:0:100:00RU.ogg
42,192,76603,1,0,0:0:0:100:000Q.ogg
213,192,76792,1,0,0:0:0:100:000P.ogg
384,192,76792,1,0,0:0:0:100:00RV.ogg
42,192,76981,1,0,0:0:0:100:000Q.ogg
469,192,76981,128,0,77358:0:0:0:100:00RW.ogg
128,192,77169,1,0,0:0:0:100:000P.ogg
42,192,77358,1,0,0:0:0:100:000Q.ogg
298,192,77358,128,0,77735:0:0:0:100:00RX.ogg
213,192,77547,1,0,0:0:0:100:000P.ogg
42,192,77735,1,0,0:0:0:100:000Q.ogg
384,192,77735,128,0,78113:0:0:0:100:00RY.ogg
213,192,77924,1,0,0:0:0:100:000P.ogg
469,192,78113,1,0,0:0:0:100:00RZ.ogg
42,192,78113,1,0,0:0:0:100:000Q.ogg
298,192,78207,1,0,0:0:0:100:00S0.ogg
128,192,78301,1,0,0:0:0:100:000Q.ogg
384,192,78301,1,0,0:0:0:100:00S1.ogg
469,192,78396,1,0,0:0:0:100:00S2.ogg
298,192,78490,1,0,0:0:0:100:000Q.ogg
42,192,78490,128,0,79433:0:0:0:100:00S3.ogg
469,192,78679,1,0,0:0:0:100:000P.ogg
298,192,78867,1,0,0:0:0:100:000Q.ogg
469,192,79056,1,0,0:0:0:100:000P.ogg
298,192,79245,1,0,0:0:0:100:000Q.ogg
213,192,79433,1,0,0:0:0:100:00S4.ogg
469,192,79433,1,0,0:0:0:100:000P.ogg
128,192,79528,1,0,0:0:0:100:00S5.ogg
384,192,79622,1,0,0:0:0:100:000Q.ogg
42,192,79622,1,0,0:0:0:100:00S6.ogg
128,192,79811,1,0,0:0:0:100:000P.ogg
298,192,79811,1,0,0:0:0:100:00S7.ogg
469,192,79905,1,0,0:0:0:100:00S8.ogg
42,192,80000,1,0,0:0:0:100:000Q.ogg
213,192,80000,128,0,80566:0:0:0:100:00S9.ogg
384,192,80188,1,0,0:0:0:100:000P.ogg
42,192,80377,1,0,0:0:0:100:000Q.ogg
298,192,80566,1,0,0:0:0:100:000P.ogg
469,192,80566,1,0,0:0:0:100:00SA.ogg
128,192,80660,1,0,0:0:0:100:00SB.ogg
384,192,80754,1,0,0:0:0:100:00SC.ogg
42,192,80754,1,0,0:0:0:100:000Q.ogg
128,192,80943,1,0,0:0:0:100:00SD.ogg
469,192,80943,1,0,0:0:0:100:000P.ogg
213,192,81006,1,0,0:0:0:100:00SE.ogg
298,192,81069,1,0,0:0:0:100:00SF.ogg
384,192,81132,1,0,0:0:0:100:00SG.ogg
42,192,81132,1,0,0:0:0:100:000Q.ogg
213,192,81320,1,0,0:0:0:100:000P.ogg
469,192,81320,1,0,0:0:0:100:00SH.ogg
42,192,81509,1,0,0:0:0:100:000Q.ogg
298,192,81509,128,0,81886:0:0:0:100:00SI.ogg
213,192,81698,1,0,0:0:0:100:000P.ogg
469,192,81886,1,0,0:0:0:100:00SJ.ogg
42,192,81886,1,0,0:0:0:100:000Q.ogg
384,192,81981,1,0,0:0:0:100:00SK.ogg
128,192,82075,1,0,0:0:0:100:000P.ogg
298,192,82075,1,0,0:0:0:100:00SL.ogg
384,192,82169,1,0,0:0:0:100:00SM.ogg
42,192,82264,1,0,0:0:0:100:000Q.ogg
469,192,82264,128,0,82641:0:0:0:100:00SN.ogg
213,192,82452,1,0,0:0:0:100:000P.ogg
298,192,82641,1,0,0:0:0:100:00SO.ogg
42,192,82641,1,0,0:0:0:100:000Q.ogg
384,192,82735,1,0,0:0:0:100:00SP.ogg
128,192,82830,1,0,0:0:0:100:000P.ogg
469,192,82830,1,0,0:0:0:100:00SQ.ogg
384,192,82924,1,0,0:0:0:100:00SR.ogg
298,192,83018,1,0,0:0:0:100:00SS.ogg
42,192,83018,1,0,0:0:0:100:000Q.ogg
213,192,83207,1,0,0:0:0:100:00ST.ogg
469,192,83207,1,0,0:0:0:100:000P.ogg
128,192,83301,1,0,0:0:0:100:00SU.ogg
384,192,83396,1,0,0:0:0:100:000Q.ogg
42,192,83396,1,0,0:0:0:100:00SV.ogg
128,192,83584,1,0,0:0:0:100:000P.ogg
298,192,83584,1,0,0:0:0:100:00SW.ogg
42,192,83773,1,0,0:0:0:100:000Q.ogg
469,192,83773,128,0,84150:0:0:0:100:00SX.ogg
213,192,83962,1,0,0:0:0:100:000P.ogg
298,192,84150,1,0,0:0:0:100:00R9.ogg
42,192,84150,1,0,0:0:0:100:000Q.ogg
384,192,84245,1,0,0:0:0:100:00RA.ogg
128,192,84339,1,0,0:0:0:100:000Q.ogg
469,192,84339,1,0,0:0:0:100:00RB.ogg
384,192,84433,1,0,0:0:0:100:00RC.ogg
298,192,84528,1,0,0:0:0:100:000Q.ogg
42,192,84528,128,0,85094:0:0:0:100:00RD.ogg
469,192,84716,1,0,0:0:0:100:000P.ogg
298,192,84905,1,0,0:0:0:100:000Q.ogg
213,192,85094,1,0,0:0:0:100:00RE.ogg
469,192,85094,1,0,0:0:0:100:000P.ogg
128,192,85188,1,0,0:0:0:100:00RF.ogg
298,192,85283,1,0,0:0:0:100:000Q.ogg
42,192,85283,1,0,0:0:0:100:00RG.ogg
213,192,85471,1,0,0:0:0:100:000P.ogg
469,192,85471,1,0,0:0:0:100:00RH.ogg
128,192,85660,1,0,0:0:0:100:000Q.ogg
384,192,85660,1,0,0:0:0:100:00RI.ogg
469,192,85849,1,0,0:0:0:100:00RJ.ogg
42,192,85849,1,0,0:0:0:100:000P.ogg
128,192,86037,1,0,0:0:0:100:000Q.ogg
298,192,86037,128,0,86603:0:0:0:100:00RK.ogg
469,192,86226,1,0,0:0:0:100:000P.ogg
128,192,86415,1,0,0:0:0:100:000Q.ogg
469,192,86603,1,0,0:0:0:100:000P.ogg
42,192,86603,1,0,0:0:0:100:00RL.ogg
213,192,86698,1,0,0:0:0:100:00RM.ogg
384,192,86792,1,0,0:0:0:100:000Q.ogg
42,192,86792,128,0,87547:0:0:0:100:00RN.ogg
469,192,86981,1,0,0:0:0:100:000P.ogg
298,192,87169,1,0,0:0:0:100:000Q.ogg
469,192,87358,1,0,0:0:0:100:000P.ogg
213,192,87547,1,0,0:0:0:100:000Q.ogg
384,192,87547,1,0,0:0:0:100:00RO.ogg
128,192,87735,1,0,0:0:0:100:000P.ogg
469,192,87830,1,0,0:0:0:100:00RP.ogg
298,192,87924,1,0,0:0:0:100:000Q.ogg
42,192,87924,1,0,0:0:0:100:00RQ.ogg
213,192,88113,1,0,0:0:0:100:000P.ogg
469,192,88113,1,0,0:0:0:100:00SY.ogg
128,192,88301,1,0,0:0:0:100:000Q.ogg
384,192,88301,1,0,0:0:0:100:00SZ.ogg
298,192,88490,1,0,0:0:0:100:00T0.ogg
42,192,88490,1,0,0:0:0:100:000P.ogg
128,192,88679,1,0,0:0:0:100:000Q.ogg
384,192,88679,1,0,0:0:0:100:00T1.ogg
213,192,88867,1,0,0:0:0:100:000P.ogg
469,192,88867,1,0,0:0:0:100:00T2.ogg
42,192,89056,1,0,0:0:0:100:000Q.ogg
469,192,89056,128,0,89433:0:0:0:100:00T3.ogg
128,192,89245,1,0,0:0:0:100:000P.ogg
42,192,89433,1,0,0:0:0:100:000Q.ogg
298,192,89433,128,0,89811:0:0:0:100:00T4.ogg
469,192,89622,1,0,0:0:0:100:000P.ogg
213,192,89716,1,0,0:0:0:100:00T5.ogg
128,192,89764,1,0,0:0:0:100:00T6.ogg
469,192,89811,1,0,0:0:0:100:000Q.ogg
42,192,89811,128,0,90188:0:0:0:100:00T7.ogg
384,192,90000,1,0,0:0:0:100:000P.ogg
128,192,90188,1,0,0:0:0:100:000Q.ogg
298,192,90188,1,0,0:0:0:100:00T8.ogg
469,192,90283,1,0,0:0:0:100:00T9.ogg
298,192,90377,1,0,0:0:0:100:00TA.ogg
42,192,90377,1,0,0:0:0:100:000Q.ogg
469,192,90471,1,0,0:0:0:100:00S2.ogg
42,192,90566,1,0,0:0:0:100:000Q.ogg
298,192,90566,128,0,91509:0:0:0:100:00S3.ogg
213,192,90754,1,0,0:0:0:100:000P.ogg
42,192,90943,1,0,0:0:0:100:000Q.ogg
128,192,91132,1,0,0:0:0:100:000P.ogg
42,192,91320,1,0,0:0:0:100:000Q.ogg
213,192,91509,1,0,0:0:0:100:000P.ogg
469,192,91509,1,0,0:0:0:100:00TB.ogg
42,192,91603,1,0,0:0:0:100:00TC.ogg
128,192,91698,1,0,0:0:0:100:000Q.ogg
384,192,91698,1,0,0:0:0:100:00TD.ogg
213,192,91886,1,0,0:0:0:100:000P.ogg
469,192,91886,1,0,0:0:0:100:00TE.ogg
298,192,91981,1,0,0:0:0:100:00TF.ogg
42,192,92075,1,0,0:0:0:100:000Q.ogg
469,192,92075,128,0,92452:0:0:0:100:00TG.ogg
128,192,92264,1,0,0:0:0:100:000P.ogg
298,192,92452,1,0,0:0:0:100:00TH.ogg
42,192,92452,1,0,0:0:0:100:000Q.ogg
213,192,92641,1,0,0:0:0:100:000P.ogg
384,192,92641,1,0,0:0:0:100:00TI.ogg
469,192,92735,1,0,0:0:0:100:00TJ.ogg
298,192,92830,1,0,0:0:0:100:00TK.ogg
42,192,92830,1,0,0:0:0:100:000Q.ogg
128,192,93018,1,0,0:0:0:100:000P.ogg
469,192,93018,1,0,0:0:0:100:00TL.ogg
384,192,93081,1,0,0:0:0:100:00TM.ogg
298,192,93144,1,0,0:0:0:100:00TN.ogg
213,192,93207,1,0,0:0:0:100:00TO.ogg
42,192,93207,1,0,0:0:0:100:000Q.ogg
128,192,93396,1,0,0:0:0:100:000P.ogg
384,192,93396,1,0,0:0:0:100:00TP.ogg
213,192,93584,1,0,0:0:0:100:000Q.ogg
469,192,93584,128,0,93962:0:0:0:100:00TQ.ogg
42,192,93773,1,0,0:0:0:100:000P.ogg
128,192,93962,1,0,0:0:0:100:00TR.ogg
298,192,93962,1,0,0:0:0:100:000Q.ogg
213,192,94056,1,0,0:0:0:100:00TS.ogg
384,192,94150,1,0,0:0:0:100:000P.ogg
42,192,94150,1,0,0:0:0:100:00TT.ogg
128,192,94245,1,0,0:0:0:100:00TU.ogg
469,192,94339,1,0,0:0:0:100:000Q.ogg
213,192,94339,128,0,94716:0:0:0:100:00TV.ogg
384,192,94528,1,0,0:0:0:100:000P.ogg
42,192,94528,1,0,0:0:0:100:000Q.ogg
469,192,94716,1,0,0:0:0:100:00TW.ogg
42,192,94716,1,0,0:0:0:100:000Q.ogg
298,192,94811,1,0,0:0:0:100:00TX.ogg
128,192,94905,1,0,0:0:0:100:000Q.ogg
384,192,94905,1,0,0:0:0:100:00TY.ogg
469,192,95000,1,0,0:0:0:100:00TZ.ogg
298,192,95094,1,0,0:0:0:100:000Q.ogg
42,192,95094,1,0,0:0:0:100:00U0.ogg
469,192,95283,1,0,0:0:0:100:00U1.ogg
213,192,95377,1,0,0:0:0:100:00U2.ogg
42,192,95471,1,0,0:0:0:100:00U3.ogg
298,192,95660,1,0,0:0:0:100:00U4.ogg
469,192,95849,128,0,96226:0:0:0:100:00U5.ogg
298,192,96226,128,0,96509:0:0:0:100:00U6.ogg
213,192,96509,1,0,0:0:0:100:00U7.ogg
128,192,96556,1,0,0:0:0:100:00U8.ogg
469,192,96603,1,0,0:0:0:100:00MO.ogg
42,192,96603,128,0,99245:0:0:0:100:00U9.ogg
298,192,96698,1,0,0:0:0:100:00MP.ogg
469,192,96886,1,0,0:0:0:100:00MQ.ogg
298,192,97169,1,0,0:0:0:100:00MR.ogg
469,192,97264,1,0,0:0:0:100:00MS.ogg
298,192,97452,1,0,0:0:0:100:00MT.ogg
469,192,97547,1,0,0:0:0:100:00MU.ogg
298,192,97641,1,0,0:0:0:100:00MV.ogg
469,192,97830,1,0,0:0:0:100:00MW.ogg
298,192,98018,1,0,0:0:0:100:00MX.ogg
469,192,98113,1,0,0:0:0:100:00MY.ogg
298,192,98301,1,0,0:0:0:100:00MZ.ogg
469,192,98490,1,0,0:0:0:100:00N0.ogg
298,192,98584,1,0,0:0:0:100:00N1.ogg
128,192,98679,1,0,0:0:0:100:00N2.ogg
298,192,98773,1,0,0:0:0:100:00N3.ogg
469,192,98962,1,0,0:0:0:100:00N4.ogg
298,192,99056,1,0,0:0:0:100:00N5.ogg
469,192,99150,1,0,0:0:0:100:00N6.ogg
128,192,99339,1,0,0:0:0:100:00N7.ogg
298,192,99528,1,0,0:0:0:100:00N8.ogg
469,192,99622,1,0,0:0:0:100:000H.ogg
42,192,99622,1,0,0:0:0:100:00N9.ogg
213,192,99716,1,0,0:0:0:100:00NA.ogg
384,192,99905,1,0,0:0:0:100:00NB.ogg
128,192,100188,1,0,0:0:0:100:00NC.ogg
298,192,100283,1,0,0:0:0:100:00ND.ogg
469,192,100471,1,0,0:0:0:100:00NE.ogg
42,192,100566,1,0,0:0:0:100:00NF.ogg
298,192,100660,1,0,0:0:0:100:00NG.ogg
213,192,100849,1,0,0:0:0:100:00NH.ogg
384,192,101037,1,0,0:0:0:100:00NI.ogg
128,192,101132,1,0,0:0:0:100:00NJ.ogg
42,192,101320,1,0,0:0:0:100:00NK.ogg
469,192,101509,1,0,0:0:0:100:00NL.ogg
298,192,101603,1,0,0:0:0:100:00NM.ogg
128,192,101698,1,0,0:0:0:100:00NN.ogg
298,192,101792,1,0,0:0:0:100:00NO.ogg
42,192,101981,1,0,0:0:0:100:00NP.ogg
213,192,102075,1,0,0:0:0:100:00NQ.ogg
469,192,102169,1,0,0:0:0:100:00NR.ogg
298,192,102264,1,0,0:0:0:100:00NS.ogg
128,192,102358,1,0,0:0:0:100:00NT.ogg
384,192,102452,1,0,0:0:0:100:00NU.ogg
42,192,102547,1,0,0:0:0:100:00NV.ogg
213,192,102641,1,0,0:0:0:100:00NW.ogg
469,192,102641,1,0,0:0:0:100:000H.ogg
298,192,102735,1,0,0:0:0:100:00NX.ogg
128,192,102924,1,0,0:0:0:100:00MQ.ogg
42,192,103207,1,0,0:0:0:100:00MR.ogg
384,192,103301,1,0,0:0:0:100:00MS.ogg
128,192,103490,1,0,0:0:0:100:00MT.ogg
469,192,103584,1,0,0:0:0:100:00MU.ogg
213,192,103679,1,0,0:0:0:100:00MV.ogg
298,192,103867,1,0,0:0:0:100:00MW.ogg
42,192,104056,1,0,0:0:0:100:00MX.ogg
213,192,104150,1,0,0:0:0:100:00MY.ogg
384,192,104339,1,0,0:0:0:100:00MZ.ogg
469,192,104528,1,0,0:0:0:100:00N0.ogg
298,192,104622,1,0,0:0:0:100:00N1.ogg
128,192,104716,1,0,0:0:0:100:00N2.ogg
298,192,104811,1,0,0:0:0:100:00N3.ogg
42,192,105000,1,0,0:0:0:100:00N4.ogg
384,192,105094,1,0,0:0:0:100:00N5.ogg
213,192,105188,1,0,0:0:0:100:00N6.ogg
469,192,105377,1,0,0:0:0:100:00N7.ogg
213,192,105566,1,0,0:0:0:100:00N8.ogg
469,192,105660,1,0,0:0:0:100:000H.ogg
42,192,105660,1,0,0:0:0:100:00N9.ogg
298,192,105754,1,0,0:0:0:100:00NA.ogg
128,192,105943,1,0,0:0:0:100:00NB.ogg
384,192,106226,1,0,0:0:0:100:00NC.ogg
213,192,106320,1,0,0:0:0:100:00ND.ogg
469,192,106509,1,0,0:0:0:100:00NE.ogg
128,192,106603,1,0,0:0:0:100:00NF.ogg
298,192,106698,1,0,0:0:0:100:00NG.ogg
42,192,106886,1,0,0:0:0:100:00NH.ogg
384,192,107075,1,0,0:0:0:100:00NI.ogg
128,192,107169,1,0,0:0:0:100:00NJ.ogg
298,192,107358,1,0,0:0:0:100:00NK.ogg
469,192,107547,1,0,0:0:0:100:00NL.ogg
213,192,107641,1,0,0:0:0:100:00NM.ogg
42,192,107735,1,0,0:0:0:100:00NN.ogg
213,192,107830,1,0,0:0:0:100:00NO.ogg
384,192,108018,1,0,0:0:0:100:00NP.ogg
213,192,108113,1,0,0:0:0:100:00NQ.ogg
42,192,108207,1,0,0:0:0:100:00NR.ogg
298,192,108301,1,0,0:0:0:100:00NS.ogg
128,192,108396,1,0,0:0:0:100:00NT.ogg
469,192,108490,1,0,0:0:0:100:00NU.ogg
42,192,108584,1,0,0:0:0:100:00NV.ogg
213,192,108679,1,0,0:0:0:100:00NW.ogg
469,192,108679,128,0,110000:0:0:0:100:00D3.ogg
42,192,108773,1,0,0:0:0:100:00NX.ogg
213,192,108962,1,0,0:0:0:100:00MQ.ogg
42,192,109245,1,0,0:0:0:100:00MR.ogg
213,192,109339,1,0,0:0:0:100:00MS.ogg
42,192,109528,1,0,0:0:0:100:00MT.ogg
213,192,109622,1,0,0:0:0:100:00MU.ogg
42,192,109716,1,0,0:0:0:100:00MV.ogg
128,192,109905,1,0,0:0:0:100:00MW.ogg
298,192,110000,1,0,0:0:0:100:00D4.ogg
213,192,110094,1,0,0:0:0:100:00MX.ogg
469,192,110094,1,0,0:0:0:100:00D5.ogg
298,192,110188,1,0,0:0:0:100:00MY.ogg
42,192,110188,128,0,111509:0:0:0:100:00D6.ogg
469,192,110377,1,0,0:0:0:100:00MZ.ogg
469,192,110566,1,0,0:0:0:100:00N0.ogg
298,192,110660,1,0,0:0:0:100:00N1.ogg
469,192,110754,1,0,0:0:0:100:00N2.ogg
298,192,110849,1,0,0:0:0:100:00N3.ogg
469,192,111037,1,0,0:0:0:100:00N4.ogg
298,192,111132,1,0,0:0:0:100:00N5.ogg
469,192,111226,1,0,0:0:0:100:00N6.ogg
128,192,111415,1,0,0:0:0:100:00N7.ogg
298,192,111509,1,0,0:0:0:100:00D7.ogg
213,192,111603,1,0,0:0:0:100:00D8.ogg
384,192,111603,1,0,0:0:0:100:00N8.ogg
42,192,111698,1,0,0:0:0:100:00N9.ogg
469,192,111698,128,0,114339:0:0:0:100:00D9.ogg
213,192,111792,1,0,0:0:0:100:00NA.ogg
42,192,111981,1,0,0:0:0:100:00NB.ogg
213,192,112264,1,0,0:0:0:100:00NC.ogg
42,192,112358,1,0,0:0:0:100:00ND.ogg
213,192,112547,1,0,0:0:0:100:00NE.ogg
42,192,112641,1,0,0:0:0:100:00NF.ogg
213,192,112735,1,0,0:0:0:100:00NG.ogg
42,192,112924,1,0,0:0:0:100:00NH.ogg
213,192,113113,1,0,0:0:0:100:00NI.ogg
42,192,113207,1,0,0:0:0:100:00NJ.ogg
213,192,113396,1,0,0:0:0:100:00NK.ogg
384,192,113584,1,0,0:0:0:100:00NL.ogg
213,192,113679,1,0,0:0:0:100:00NM.ogg
42,192,113773,1,0,0:0:0:100:00NN.ogg
213,192,113867,1,0,0:0:0:100:00NO.ogg
384,192,114056,1,0,0:0:0:100:00NP.ogg
42,192,114150,1,0,0:0:0:100:00NQ.ogg
213,192,114245,1,0,0:0:0:100:00NR.ogg
42,192,114339,1,0,0:0:0:100:00NS.ogg
213,192,114433,1,0,0:0:0:100:00NT.ogg
469,192,114528,1,0,0:0:0:100:00NU.ogg
42,192,114591,1,0,0:0:0:100:00D1.ogg
298,192,114622,1,0,0:0:0:100:00NV.ogg
128,192,114654,1,0,0:0:0:100:00D2.ogg
469,192,114716,1,0,0:0:0:100:00NW.ogg
213,192,114716,128,0,116037:0:0:0:100:00D3.ogg
298,192,114811,1,0,0:0:0:100:00NX.ogg
469,192,115000,1,0,0:0:0:100:00MQ.ogg
298,192,115283,1,0,0:0:0:100:00MR.ogg
469,192,115377,1,0,0:0:0:100:00MS.ogg
298,192,115566,1,0,0:0:0:100:00MT.ogg
469,192,115660,1,0,0:0:0:100:00MU.ogg
298,192,115754,1,0,0:0:0:100:00MV.ogg
469,192,115943,1,0,0:0:0:100:00MW.ogg
42,192,116037,1,0,0:0:0:100:00D4.ogg
298,192,116132,1,0,0:0:0:100:00D5.ogg
469,192,116132,1,0,0:0:0:100:00MX.ogg
213,192,116226,1,0,0:0:0:100:00MY.ogg
42,192,116226,128,0,117547:0:0:0:100:00DB.ogg
384,192,116415,1,0,0:0:0:100:00MZ.ogg
469,192,116603,1,0,0:0:0:100:00N0.ogg
213,192,116698,1,0,0:0:0:100:00N1.ogg
384,192,116792,1,0,0:0:0:100:00N2.ogg
213,192,116886,1,0,0:0:0:100:00N3.ogg
384,192,117075,1,0,0:0:0:100:00N4.ogg
213,192,117169,1,0,0:0:0:100:00N5.ogg
384,192,117264,1,0,0:0:0:100:00N6.ogg
469,192,117452,1,0,0:0:0:100:00N7.ogg
298,192,117610,1,0,0:0:0:100:00DC.ogg
128,192,117641,1,0,0:0:0:100:00N8.ogg
384,192,117672,1,0,0:0:0:100:00DD.ogg
42,192,117735,1,0,0:0:0:100:00N9.ogg
469,192,117735,128,0,120754:0:0:0:100:00DE.ogg
213,192,117830,1,0,0:0:0:100:00NA.ogg
42,192,118018,1,0,0:0:0:100:00NB.ogg
384,192,118301,1,0,0:0:0:100:00NC.ogg
42,192,118396,1,0,0:0:0:100:00ND.ogg
213,192,118584,1,0,0:0:0:100:00NE.ogg
42,192,118679,1,0,0:0:0:100:00NF.ogg
213,192,118773,1,0,0:0:0:100:00NG.ogg
42,192,118962,1,0,0:0:0:100:00NH.ogg
213,192,119150,1,0,0:0:0:100:00NI.ogg
42,192,119245,1,0,0:0:0:100:00NY.ogg
213,192,119339,1,0,0:0:0:100:00NZ.ogg
384,192,119433,1,0,0:0:0:100:00O0.ogg
128,192,119528,1,0,0:0:0:100:00O1.ogg
298,192,119622,1,0,0:0:0:100:00O2.ogg
42,192,119716,1,0,0:0:0:100:00O3.ogg
213,192,119811,1,0,0:0:0:100:00O4.ogg
384,192,119905,1,0,0:0:0:100:00O5.ogg
128,192,120000,1,0,0:0:0:100:00O6.ogg
298,192,120094,1,0,0:0:0:100:00O7.ogg
42,192,120188,1,0,0:0:0:100:00O8.ogg
213,192,120283,1,0,0:0:0:100:00O9.ogg
384,192,120377,1,0,0:0:0:100:00OA.ogg
298,192,120471,1,0,0:0:0:100:00OB.ogg
128,192,120566,1,0,0:0:0:100:00OC.ogg
42,192,120660,1,0,0:0:0:100:00OD.ogg
128,192,121391,1,0,0:0:0:100:00DF.ogg
298,192,121446,1,0,0:0:0:100:00DG.ogg
469,192,121509,1,0,0:0:0:100:00DH.ogg
42,192,121509,1,0,0:0:0:100:000H.ogg
