osu file format v14

[General]
AudioFilename: audio.mp3
AudioLeadIn: 0
PreviewTime: 37325
Countdown: 1
SampleSet: None
StackLeniency: 0.7
Mode: 0
LetterboxInBreaks: 0
WidescreenStoryboard: 1

[Editor]
Bookmarks: 3231
DistanceSpacing: 3.2
BeatDivisor: 4
GridSize: 8
TimelineZoom: 1.8

[Metadata]
Title:Place to Try (TV size)
TitleUnicode:Place to Try (TV size)
Artist:TOTALFAT
ArtistUnicode:TOTALFAT
Creator:Barbex
Version:Extra
Source:
Tags:Naruto ending opening rock epic
BeatmapID:2088203
BeatmapSetID:868156

[Difficulty]
HPDrainRate:5
CircleSize:4
OverallDifficulty:8.8
ApproachRate:9.3
SliderMultiplier:1.5
SliderTickRate:1

[Events]
//Background and Video events
0,0,"image-44615187-kyuubi-wallpapers.jpg",0,0
//Break Periods
//Storyboard Layer 0 (Background)
//Storyboard Layer 1 (Fail)
//Storyboard Layer 2 (Pass)
//Storyboard Layer 3 (Foreground)
//Storyboard Sound Samples

[TimingPoints]
565,266.666666666667,4,1,0,60,1,0
565,-117.647058823529,4,1,0,60,0,0
1458,-200,4,1,0,60,0,0
2658,-181.818181818181,4,1,0,60,0,0
3098,-285.714285714284,4,1,0,60,0,0
3765,-133.333333333333,4,1,0,60,0,0
4831,-100,4,1,0,60,0,0
5058,-100,4,1,0,60,0,0
6431,-133.333333333333,4,1,0,60,0,0
7498,-100,4,1,0,60,0,0
13365,-100,4,1,0,60,0,0
26698,-83.3333333333333,4,1,0,60,0,0
27098,-133.333333333333,4,1,0,60,0,0
28298,-80,4,1,0,70,0,0
30431,-66.6666666666667,4,1,0,65,0,1
32565,-83.3333333333333,4,1,0,65,0,1
34165,-66.6666666666667,4,1,0,65,0,1
36031,-83.3333333333333,4,1,0,65,0,1
36831,-66.6666666666667,4,1,0,65,0,1
38965,-83.3333333333333,4,1,0,65,0,1
39231,-66.6666666666667,4,1,0,65,0,1
39331,-83.3333333333333,4,1,0,65,0,1
40165,-100,4,1,0,65,0,1
41098,-83.3333333333333,4,1,0,65,0,1
43231,-66.6666666666667,4,1,0,65,0,1
45365,-100,4,1,0,60,0,0
47458,-133.333333333333,4,1,0,45,0,0
52831,-100,4,1,0,45,0,0
53365,-133.333333333333,4,1,0,45,0,0
55365,-100,4,1,0,45,0,0
56031,-133.333333333333,4,1,0,45,0,0
60258,-100,4,1,0,45,0,0
61325,-133.333333333333,4,1,0,45,0,0
62431,-100,4,1,0,60,0,0
64165,-83.3333333333333,4,1,0,60,0,0
69098,-100,4,1,0,60,0,0
73098,-66.6666666666667,4,1,0,65,0,1
75231,-76.9230769230769,4,1,0,65,0,1
77365,-66.6666666666667,4,1,0,65,0,1
79498,-76.9230769230769,4,1,0,65,0,1
80565,-66.6666666666667,4,1,0,65,0,1
82165,-100,4,1,0,65,0,1
82965,-66.6666666666667,4,1,0,65,0,1
83765,-83.3333333333333,4,1,0,65,0,1
84298,-100,4,1,0,65,0,1
85098,-80,4,1,0,65,0,1
86698,-66.6666666666667,4,1,0,65,0,1
88031,-100,4,1,0,65,0,1

[HitObjects]
91,86,565,6,0,B|110:175|187:213|187:213|186:146|246:119,1,255.000004863739
278,205,1365,1,0,0:0:0:0:
278,205,1631,2,0,B|324:150|298:86|298:86|358:52|394:113,1,225
359,189,2698,6,0,L|273:205,1,82.5000025177003
321,39,3231,2,0,L|302:97,1,52.4999983978272
277,204,3631,1,0,0:0:0:0:
277,204,3698,1,0,0:0:0:0:
277,204,3765,1,0,0:0:0:0:
118,87,3898,1,0,0:0:0:0:
186,270,4031,1,0,0:0:0:0:
255,84,4165,1,0,0:0:0:0:
83,180,4298,5,0,0:0:0:0:
202,24,4431,1,0,0:0:0:0:
277,204,4565,2,0,P|308:227|343:238,1,56.2500021457673
364,80,4831,6,0,L|333:153,1,75
345,177,5031,1,0,0:0:0:0:
355,204,5098,2,0,L|325:273,1,75
238,117,5365,2,0,L|207:190,1,75
121,30,5631,2,0,L|90:103,1,75
106,298,5898,5,0,0:0:0:0:
208,186,6031,1,0,0:0:0:0:
226,358,6165,5,0,0:0:0:0:
119,205,6298,1,0,0:0:0:0:
300,240,6431,2,0,P|308:198|304:165,1,56.2500021457673
292,161,6631,1,0,0:0:0:0:
283,134,6698,1,0,0:0:0:0:
280,106,6765,1,0,0:0:0:0:
285,78,6831,1,0,0:0:0:0:
296,52,6898,1,0,0:0:0:0:
312,29,6965,6,0,L|347:94,1,56.2500021457673
401,206,7231,1,0,0:0:0:0:
201,127,7365,1,0,0:0:0:0:
403,66,7498,2,0,P|452:93|478:130,1,75
394,240,7765,2,0,L|337:169,1,75
242,60,8031,5,0,0:0:0:0:
310,252,8165,1,0,0:0:0:0:
403,66,8298,2,0,P|363:20|331:6,1,75
218,207,8631,1,0,0:0:0:0:
181,213,8698,1,0,0:0:0:0:
145,205,8764,1,0,0:0:0:0:
114,184,8831,2,0,L|129:122,3,37.5
122,147,9098,2,0,P|110:95|71:62,1,75
79,291,9365,5,0,0:0:0:0:
206,116,9498,1,0,0:0:0:0:
176,347,9631,5,0,0:0:0:0:
56,96,9765,1,0,0:0:0:0:
297,144,9898,5,0,0:0:0:0:
113,266,10031,1,0,0:0:0:0:
75,235,10097,1,0,0:0:0:0:
57,190,10164,1,0,0:0:0:0:
260,46,10298,5,0,0:0:0:0:
326,315,10431,1,0,0:0:0:0:
130,170,10565,1,0,0:0:0:0:
161,133,10631,1,0,0:0:0:0:
206,116,10698,1,0,0:0:0:0:
164,336,10831,5,0,0:0:0:0:
106,71,10965,1,0,0:0:0:0:
317,229,11098,1,0,0:0:0:0:
352,238,11164,1,0,0:0:0:0:
389,232,11231,2,0,B|462:211|434:132|434:132|400:147,1,150
255,276,11631,5,0,0:0:0:0:
291,72,11765,1,0,0:0:0:0:
389,232,11898,1,0,0:0:0:0:
180,128,12031,1,0,0:0:0:0:
333,325,12165,1,0,0:0:0:0:
69,182,12298,1,0,0:0:0:0:
198,59,13365,6,0,L|198:218,1,150
282,145,13765,1,0,0:0:0:0:
366,81,13898,1,0,0:0:0:0:
362,185,14031,6,0,B|344:224|344:224|304:236,1,75
282,145,14298,2,0,B|251:154|251:154|233:193,1,75
206,275,14565,2,0,B|175:265|175:265|157:226,1,75
112,141,14831,2,0,P|78:173|62:225,2,75
212,156,15231,1,0,0:0:0:0:
206,275,15365,1,0,0:0:0:0:
160,57,15498,5,0,0:0:0:0:
326,217,15631,1,0,0:0:0:0:
385,131,15765,2,0,P|373:80|336:46,1,75
253,66,16031,2,0,L|297:128,1,75
326,217,16298,2,0,P|285:222|230:191,1,75
132,160,16565,5,0,0:0:0:0:
250,314,16698,1,0,0:0:0:0:
326,217,16831,2,0,B|338:107|338:107|296:71,1,150
198,126,17231,1,0,0:0:0:0:
143,219,17365,2,0,P|173:272|259:314,1,150
246,203,17765,5,0,0:0:0:0:
142,218,17898,2,0,B|98:227|98:227|62:204,1,75
128,128,18165,2,0,B|90:103|90:103|81:61,1,75
186,51,18431,2,0,B|212:65|212:65|224:108,1,75
246,203,18698,2,0,P|292:179|311:147,1,75
300,70,18965,5,0,0:0:0:0:
363,133,19098,1,0,0:0:0:0:
357,222,19231,2,0,L|392:298,1,75
232,238,19498,2,0,L|267:314,1,75
366,366,19765,5,0,0:0:0:0:
211,139,19898,1,0,0:0:0:0:
317,163,20031,2,0,L|352:245,1,75
232,238,20298,2,0,L|267:314,1,75
147,313,20565,2,0,L|182:389,1,75
338,372,20831,5,0,0:0:0:0:
168,137,20965,1,0,0:0:0:0:
371,191,21098,1,0,0:0:0:0:
155,321,21231,1,0,0:0:0:0:
155,321,21298,1,0,0:0:0:0:
155,321,21365,1,0,0:0:0:0:
251,105,21498,5,0,0:0:0:0:
260,360,21631,1,0,0:0:0:0:
80,179,21765,1,0,0:0:0:0:
317,241,21898,2,0,P|346:222|375:181,1,75
335,103,22165,2,0,P|322:54|285:22,1,75
210,37,22431,2,0,P|159:32|116:56,1,75
184,132,22698,2,0,P|187:177|170:222,1,75
51,158,22965,5,0,0:0:0:0:
118,265,23098,1,0,0:0:0:0:
241,247,23231,2,0,L|283:175,1,75
283,51,23498,1,0,0:0:0:0:
184,132,23631,1,0,0:0:0:0:
59,84,23765,2,0,P|49:126|53:172,1,75
171,328,24031,5,0,0:0:0:0:
279,146,24165,1,0,0:0:0:0:
290,355,24298,1,0,0:0:0:0:
120,232,24431,1,0,0:0:0:0:
356,182,24565,5,0,0:0:0:0:
160,43,24698,1,0,0:0:0:0:
222,274,24831,1,0,0:0:0:0:
339,63,24965,1,0,0:0:0:0:
381,40,25031,1,0,0:0:0:0:
430,39,25098,1,0,0:0:0:0:
366,270,25231,5,0,0:0:0:0:
172,149,25365,1,0,0:0:0:0:
411,149,25498,1,0,0:0:0:0:
279,335,25631,1,0,0:0:0:0:
88,92,25765,5,0,0:0:0:0:
175,309,25898,1,0,0:0:0:0:
319,48,26031,1,0,0:0:0:0:
350,270,26165,5,0,0:0:0:0:
267,152,26298,2,0,P|232:195|219:242,1,75
425,355,26565,5,0,0:0:0:0:
382,109,26698,2,0,P|342:59|281:39,1,89.9999972534181
496,287,26965,5,0,0:0:0:0:
496,287,27098,2,0,L|511:212,2,56.2500021457673
314,135,27498,5,0,0:0:0:0:
115,311,27631,1,0,0:0:0:0:
141,61,27765,1,0,0:0:0:0:
380,259,27898,5,0,0:0:0:0:
101,147,28031,1,0,0:0:0:0:
382,45,28165,5,0,0:0:0:0:
322,322,28298,1,0,0:0:0:0:
291,343,28364,1,0,0:0:0:0:
254,348,28431,1,0,0:0:0:0:
220,335,28498,1,0,0:0:0:0:
195,308,28564,1,0,0:0:0:0:
185,272,28631,1,0,0:0:0:0:
194,236,28698,2,0,P|187:188|178:176,5,46.875
181,78,29098,5,0,0:0:0:0:
236,80,29164,1,0,0:0:0:0:
284,109,29231,1,0,0:0:0:0:
313,156,29298,1,0,0:0:0:0:
316,212,29364,1,0,0:0:0:0:
293,262,29431,1,0,0:0:0:0:
293,318,29497,1,0,0:0:0:0:
325,363,29565,2,0,L|368:328,5,46.875
