osu file format v14

[General]
AudioFilename: audio.mp3
AudioLeadIn: 0
PreviewTime: 63261
Countdown: 0
SampleSet: Soft
StackLeniency: 0.4
Mode: 0
LetterboxInBreaks: 0
WidescreenStoryboard: 0

[Editor]
Bookmarks: 47042
DistanceSpacing: 0.5
BeatDivisor: 8
GridSize: 32
TimelineZoom: 2.3

[Metadata]
Title:Higurashi Moratorium
TitleUnicode:茅蜩モラトリアム
Artist:TOTAL OBJECTION
ArtistUnicode:TOTAL OBJECTION
Creator:rollpan
Version:ExtrA
Source:
Tags:japanese rock rerulili evening cicada vocaloid megpoid gumi a_blue ponbot -brethia _kotachi_ shirasaka koume ablue jrock j-rock ako ke-sanβ ke-san kesan ke-sanb kesanb reruriri 2013
BeatmapID:1486534
BeatmapSetID:702512

[Difficulty]
HPDrainRate:5
CircleSize:4
OverallDifficulty:8
ApproachRate:8
SliderMultiplier:1.8
SliderTickRate:1

[Events]
//Background and Video events
0,0,"BG.jpg",0,0
//Break Periods
2,84572,93781
2,162033,165686
2,170762,172194
//Storyboard Layer 0 (Background)
//Storyboard Layer 1 (Fail)
//Storyboard Layer 2 (Pass)
//Storyboard Layer 3 (Foreground)
//Storyboard Layer 4 (Overlay)
//Storyboard Sound Samples

[TimingPoints]
22150,317.460317460317,4,2,1,50,1,0
27229,-100,4,2,3,65,0,0
27388,-100,4,2,1,65,0,0
27864,-100,4,2,5,65,0,0
28023,-100,4,2,1,65,0,0
30404,-100,4,2,5,65,0,0
30563,-100,4,2,1,65,0,0
36118,-100,4,2,1,50,0,0
37388,-100,4,2,1,60,0,0
38023,-100,4,2,5,60,0,0
38182,-100,4,2,1,60,0,0
40563,-100,4,2,5,60,0,0
40721,-100,4,2,1,60,0,0
41198,-100,4,2,5,60,0,0
41356,-100,4,2,1,60,0,0
41833,-100,4,2,5,60,0,0
41991,-100,4,2,1,60,0,0
45642,-100,4,2,5,60,0,0
45801,-100,4,2,1,60,0,0
47547,-100,4,2,1,60,0,0
57706,-100,4,2,1,55,0,0
60245,-100,4,2,1,65,0,0
64054,-100,4,2,3,75,0,1
64372,-100,4,2,1,75,0,1
66594,-100,4,2,2,75,0,1
66912,-100,4,2,1,75,0,1
67229,-100,4,2,5,75,0,1
67388,-100,4,2,1,75,0,1
68817,-100,4,2,2,75,0,1
68975,-100,4,2,1,75,0,1
73579,-100,4,2,2,75,0,1
73658,-100,4,2,1,75,0,1
73896,-100,4,2,2,75,0,1
74055,-100,4,2,3,75,0,1
74213,-100,4,2,1,75,0,1
76753,-100,4,2,2,75,0,1
77071,-100,4,2,1,75,0,1
78817,-100,4,2,3,75,0,1
78975,-100,4,2,1,75,0,1
84372,-100,4,2,3,75,0,0
94531,-100,4,2,1,60,0,0
95166,-100,4,2,5,60,0,0
95325,-100,4,2,1,60,0,0
102150,-133.333333333333,4,2,1,50,0,0
109452,-133.333333333333,4,2,2,50,0,0
109769,-133.333333333333,4,2,1,50,0,0
111356,-133.333333333333,4,2,2,50,0,0
111568,-133.333333333333,4,2,1,50,0,0
114848,-100,4,2,1,55,0,0
117388,-100,4,2,1,65,0,0
121197,-100,4,2,3,75,0,1
121515,-100,4,2,1,75,0,1
123737,-100,4,2,2,75,0,1
124055,-100,4,2,1,75,0,1
124372,-100,4,2,5,75,0,1
124531,-100,4,2,1,75,0,1
125960,-100,4,2,2,75,0,1
126118,-100,4,2,1,75,0,1
130722,-100,4,2,2,75,0,1
130801,-100,4,2,1,75,0,1
131039,-100,4,2,2,75,0,1
131198,-100,4,2,3,75,0,1
131356,-100,4,2,1,75,0,1
133896,-100,4,2,2,75,0,1
134214,-100,4,2,1,75,0,1
135960,-100,4,2,3,75,0,1
136118,-100,4,2,1,75,0,1
141515,-100,4,2,1,70,0,0
144055,-100,4,2,2,70,0,0
144213,-100,4,2,1,70,0,0
150404,-100,4,2,2,70,0,0
150563,-100,4,2,1,70,0,0
154213,-100,4,2,2,70,0,0
154372,-100,4,2,1,70,0,0
172944,-76.9230769230769,4,2,1,55,0,0
173579,-100,4,2,1,65,0,0
174530,-100,4,2,3,75,0,1
174848,-100,4,2,1,75,0,1
177070,-100,4,2,2,75,0,1
177229,-100,4,2,1,75,0,1
177705,-100,4,2,5,75,0,1
177864,-100,4,2,1,75,0,1
179293,-100,4,2,2,75,0,1
179451,-100,4,2,1,75,0,1
184055,-100,4,2,2,75,0,1
184134,-100,4,2,1,75,0,1
184372,-100,4,2,2,75,0,1
184531,-100,4,2,3,75,0,1
184689,-100,4,2,1,75,0,1
187229,-100,4,2,2,75,0,1
187547,-100,4,2,1,75,0,1
189293,-100,4,2,3,75,0,1
189451,-100,4,2,1,75,0,1
198657,-100,4,2,3,75,0,0

[Colours]
Combo1 : 21,97,181
Combo2 : 228,78,27
Combo3 : 163,200,36
Combo4 : 214,84,158

[HitObjects]
373,168,25959,5,2,3:3:0:0:
91,312,26436,5,2,3:0:0:0:
91,312,26516,1,0,3:0:0:0:
91,312,26594,1,2,3:0:0:0:
110,212,26753,1,2,3:2:0:0:
182,141,26912,1,2,3:2:0:0:
281,125,27071,1,2,3:2:0:0:
372,167,27229,6,0,L|365:257,1,90,14|2,0:1|0:0,0:0:0:0:
365,257,27547,1,8,0:0:0:0:
512,171,27706,2,0,B|453:155|453:155|428:101|428:101|370:86,1,180,2|2,0:0|0:0,0:0:0:0:
247,213,28182,2,0,L|255:310,1,90,8|2,0:0|0:0,0:0:0:0:
194,363,28420,1,2,0:0:0:0:
160,372,28499,6,0,P|115:351|94:310,1,90,10|2,0:1|0:0,0:0:0:0:
44,104,28817,1,8,0:0:0:0:
0,246,28975,1,2,0:0:0:0:
0,246,29055,1,2,0:0:0:0:
0,246,29134,2,0,L|93:232,1,90,10|2,0:1|0:0,0:0:0:0:
300,152,29452,2,0,L|211:138,1,90,8|0,0:0|0:0,0:0:0:0:
0,58,29769,6,0,L|93:44,1,90,10|0,0:1|0:0,0:0:0:0:
211,138,30086,1,8,0:0:0:0:
355,10,30245,2,0,P|289:66|300:152,1,180,2|2,0:0|0:0,0:0:0:0:
464,168,30641,1,0,0:0:0:0:
456,126,30721,2,0,P|419:101|375:100,1,90,8|2,0:0|0:0,0:0:0:0:
337,231,31039,6,0,P|373:256|418:257,1,90,10|2,0:1|0:0,0:0:0:0:
508,328,31356,1,8,0:0:0:0:
315,384,31515,1,2,0:0:0:0:
199,189,31674,5,10,0:1:0:0:
171,154,31753,1,2,0:0:0:0:
129,138,31832,1,2,0:0:0:0:
86,147,31912,1,2,0:0:0:0:
53,176,31991,1,10,0:0:0:0:
40,219,32070,1,2,0:0:0:0:
51,262,32150,1,2,0:3:0:0:
83,293,32229,1,2,0:3:0:0:
126,303,32308,5,12,0:1:0:0:
275,236,32467,2,0,L|228:228,1,45,2|0,0:0|0:0,0:0:0:0:
49,379,32626,1,8,0:0:0:0:
49,379,32705,1,2,0:0:0:0:
49,379,32784,2,0,L|99:370,1,45,2|0,0:0|0:0,0:0:0:0:
231,314,32943,1,8,0:1:0:0:
121,186,33102,1,2,0:0:0:0:
123,170,33182,1,2,0:0:0:0:
126,154,33261,1,10,0:0:0:0:
129,138,33340,1,2,0:0:0:0:
132,122,33419,1,2,0:0:0:0:
134,107,33499,1,2,0:0:0:0:
137,91,33579,6,0,P|180:63|231:63,1,90,10|2,0:1|0:0,0:0:0:0:
352,183,33896,2,0,L|343:94,1,90,8|2,0:0|0:0,0:0:0:0:
343,94,34134,1,0,0:0:0:0:
343,94,34213,1,8,0:1:0:0:
275,236,34372,1,2,0:0:0:0:
469,154,34531,1,8,0:0:0:0:
343,94,34690,2,0,L|352:183,1,90,2|8,0:0|0:1,0:0:0:0:
503,384,35007,5,2,0:0:0:0:
507,339,35086,1,2,0:0:0:0:
512,294,35165,1,10,0:0:0:0:
275,236,35325,2,0,P|253:275|260:334,1,90,2|8,0:0|0:1,0:0:0:0:
430,201,35642,1,2,0:0:0:0:
269,143,35801,1,10,1:2:0:0:
171,282,35959,1,2,1:2:0:0:
10,224,36118,5,2,0:3:0:0:
26,194,36277,1,2,0:3:0:0:
54,176,36436,1,2,0:3:0:0:
87,174,36594,1,2,0:3:0:0:
87,174,36912,1,2,0:3:0:0:
230,338,37388,6,0,L|325:324,1,90,12|2,0:1|0:0,0:0:0:0:
484,238,37706,1,10,0:1:0:0:
439,360,37864,2,0,P|387:290|410:206,1,180,2|2,0:0|0:0,0:0:0:0:
507,150,38340,1,10,0:1:0:0:
382,52,38499,6,0,L|289:67,1,90,2|8,0:0|0:1,0:0:0:0:
270,250,38817,2,0,L|301:165,1,90,2|8,0:0|0:1,0:0:0:0:
154,54,39134,2,0,L|213:127,1,90,2|8,0:0|0:1,0:0:0:0:
301,166,39451,1,2,0:0:0:0:
108,221,39610,2,0,P|84:179|94:129,1,90,8|2,0:1|0:0,0:0:0:0:
162,302,39928,6,0,P|101:240|16:254,1,180,10|8,0:1|0:1,0:0:0:0:
153,384,40404,2,0,B|212:374|212:374|242:322|242:322|301:313,1,180,2|0,0:0|0:0,0:0:0:0:
389,336,40880,1,8,0:1:0:0:
503,179,41039,6,0,P|417:178|364:247,1,180,2|2,0:0|0:0,0:0:0:0:
365,248,41515,1,8,0:1:0:0:
206,110,41674,2,0,L|397:83,1,180,2|2,0:0|0:0,0:0:0:0:
365,248,42150,2,0,L|275:235,1,90,8|2,0:1|0:0,0:0:0:0:
187,27,42467,6,0,P|129:71|147:173,1,180,10|10,0:1|0:1,0:0:0:0:
237,202,42944,1,2,0:0:0:0:
31,257,43102,2,0,L|42:162,1,90,8|2,0:1|0:0,0:0:0:0:
237,202,43420,1,10,0:1:0:0:
170,384,43579,6,0,P|147:345|147:301,1,90,2|8,0:0|0:1,0:0:0:0:
365,248,43896,2,0,P|372:291|357:333,1,90,2|8,0:0|0:1,0:0:0:0:
105,330,44213,2,0,P|104:285|127:247,1,90,2|8,0:0|0:1,0:0:0:0:
430,194,44531,1,2,0:0:0:0:
491,328,44690,2,0,L|393:311,1,90,8|2,0:1|0:0,0:0:0:0:
330,158,45007,6,0,P|360:107|475:96,1,180,10|8,0:1|0:1,0:0:0:0:
334,11,45483,2,0,B|276:35|248:95|248:95|223:76|191:77,1,180,2|2,0:0|0:0,0:0:0:0:
128,248,45959,1,10,0:1:0:0:
234,196,46118,1,2,0:0:0:0:
36,124,46277,6,0,L|45:213,1,90,8|2,0:1|0:0,0:0:0:0:
203,370,46594,2,0,L|212:280,1,90,8|2,0:1|0:0,0:0:0:0:
392,130,46912,5,0,0:0:0:0:
434,144,47071,1,0,0:3:0:0:
420,186,47229,1,0,0:0:0:0:
378,172,47388,1,0,0:0:0:0:
512,129,47547,5,12,0:1:0:0:
354,263,47706,1,10,0:1:0:0:
457,51,47864,1,8,0:0:0:0:
319,235,48023,1,10,0:1:0:0:
370,11,48182,1,10,0:1:0:0:
275,228,48340,1,10,0:1:0:0:
275,19,48499,1,8,0:0:0:0:
129,177,48658,6,0,P|118:228|136:279,1,90,2|8,0:0|0:1,0:0:0:0:
275,228,48975,1,10,0:1:0:0:
186,84,49134,2,0,L|85:100,1,90,8|10,0:0|0:1,0:0:0:0:
43,275,49452,1,10,0:1:0:0:
196,219,49610,1,10,0:1:0:0:
321,324,49769,1,12,0:0:0:0:
168,380,49928,6,0,L|160:287,1,90,10|8,0:1|0:1,0:0:0:0:
311,171,50245,1,8,0:1:0:0:
446,251,50404,2,0,P|457:299|433:346,1,90,8|10,0:0|0:1,0:0:0:0:
311,171,50721,2,0,P|300:123|324:76,1,90,10|8,0:1|0:1,0:0:0:0:
441,34,51039,1,8,0:0:0:0:
441,34,51198,1,10,0:1:0:0:
310,261,51356,6,0,L|207:244,1,90,8|0,0:1|0:0,0:0:0:0:
424,128,51674,2,0,L|527:145,1,90,8|10,0:0|0:1,0:0:0:0:
467,323,51991,1,8,0:1:0:0:
342,176,52150,1,10,0:1:0:0:
152,210,52309,1,8,0:0:0:0:
185,315,52467,1,10,0:1:0:0:
29,233,52626,6,0,L|59:50,1,180,10|8,0:1|0:0,0:0:0:0:
207,0,53102,1,10,0:1:0:0:
314,23,53261,2,0,P|335:64|327:116,1,90,10|10,0:1|0:1,0:0:0:0:
185,315,53579,1,8,0:0:0:0:
152,210,53738,2,0,P|177:171|226:152,1,90,10|10,0:1|0:1,0:0:0:0:
469,175,54055,5,10,0:1:0:0:
394,256,54214,2,0,P|347:253|306:220,1,90,8|8,0:0|0:1,0:0:0:0:
244,72,54531,2,0,L|334:62,1,90,10|8,0:1|0:1,0:0:0:0:
497,164,54848,5,8,0:0:0:0:
380,283,55007,2,0,P|333:280|292:247,1,90,10|10,0:1|0:1,0:0:0:0:
486,255,55325,5,10,0:1:0:0:
472,343,55483,2,0,L|486:255,1,90,8|0,0:0|0:0,0:0:0:0:
285,168,55801,5,10,0:1:0:0:
299,256,55959,2,0,L|285:168,1,90,8|8,0:1|0:0,0:0:0:0:
485,80,56277,5,2,0:0:0:0:
471,168,56436,1,10,0:1:0:0:
343,15,56594,1,2,0:0:0:0:
359,102,56753,1,10,0:0:0:0:
186,3,56912,1,2,0:0:0:0:
231,78,57071,1,10,0:1:0:0:
156,123,57229,1,2,0:0:0:0:
111,48,57388,1,14,0:0:0:0:
50,251,57547,5,0,3:0:0:0:
50,251,57626,1,0,3:0:0:0:
50,251,57706,2,0,L|142:233,1,90,12|8,0:1|0:1,0:0:0:0:
169,240,57944,1,0,0:0:0:0:
199,246,58023,1,8,0:1:0:0:
328,363,58182,6,0,P|280:306|327:216,1,180,2|10,0:0|0:1,0:0:0:0:
440,149,58658,2,0,P|462:192|450:255,1,90,8|2,0:1|0:0,0:0:0:0:
206,83,58975,5,2,3:0:0:0:
314,51,59134,1,2,3:0:0:0:
314,51,59213,1,0,3:0:0:0:
314,51,59293,1,2,3:0:0:0:
214,100,59452,5,2,3:0:0:0:
305,33,59611,1,12,0:0:0:0:
141,257,59769,5,8,0:1:0:0:
141,257,59848,1,8,0:1:0:0:
141,257,59928,2,0,L|156:165,1,90,12|2,0:0|0:0,0:0:0:0:
281,282,60245,5,14,0:1:0:0:
66,356,60404,2,0,L|51:267,1,90,8|8,0:1|0:0,0:0:0:0:
363,247,60721,2,0,P|371:290|354:331,1,90,2|8,0:0|0:1,0:0:0:0:
197,381,61039,1,10,0:1:0:0:
245,183,61198,1,8,0:0:0:0:
418,76,61356,2,0,L|507:95,1,90,2|0,0:0|0:0,0:0:0:0:
363,247,61673,5,8,1:0:0:0:
452,229,61833,2,0,L|363:247,1,90,8|0,1:0|0:0,0:0:0:0:
219,59,62150,5,8,1:0:0:0:
307,77,62309,2,0,L|219:59,1,90,8|0,1:0|0:0,0:0:0:0:
145,281,62626,5,8,1:0:0:0:
162,198,62785,2,0,P|167:242|145:281,1,90,8|0,1:0|0:0,0:0:0:0:
40,20,63102,5,8,1:0:0:0:
58,101,63261,2,0,P|63:57|40:20,1,90,0|2,1:0|0:3,0:0:0:0:
0,168,63579,1,2,0:3:0:0:
91,228,63737,1,2,0:3:0:0:
215,189,63896,1,2,0:3:0:0:
273,43,64055,6,0,L|464:28,1,180,14|8,0:1|0:0,0:0:0:0:
496,222,64531,1,2,0:0:0:0:
444,142,64690,1,10,0:1:0:0:
333,116,64848,1,2,0:0:0:0:
215,189,65007,1,8,0:0:0:0:
178,338,65166,1,2,0:0:0:0:
357,380,65325,6,0,L|327:187,1,180,10|8,0:1|0:0,0:0:0:0:
188,38,65801,1,2,0:0:0:0:
62,92,65959,1,10,0:1:0:0:
74,228,66118,1,2,0:0:0:0:
207,258,66277,1,8,0:0:0:0:
276,140,66436,1,2,0:0:0:0:
89,354,66594,6,0,L|278:329,1,180,12|8,0:1|0:0,0:0:0:0:
414,202,67070,2,0,P|328:208|276:140,1,180,2|2,0:0|0:0,0:0:0:0:
276,105,67467,1,2,0:0:0:0:
294,74,67547,2,0,P|333:46|379:43,1,90,8|2,0:0|0:0,0:0:0:0:
512,231,67864,5,8,0:1:0:0:
450,308,68023,1,2,3:2:0:0:
450,308,68102,1,0,3:0:0:0:
450,308,68182,2,0,L|347:290,1,90,8|2,0:0|3:0,0:0:0:0:
221,202,68499,1,8,3:1:0:0:
179,186,68578,1,0,3:0:0:0:
134,190,68657,1,2,3:0:0:0:
96,213,68737,1,2,3:0:0:0:
72,250,68817,2,0,P|64:301|80:351,1,90,12|2,0:0|0:0,0:0:0:0:
177,104,69134,6,0,L|-19:136,1,180,12|8,0:1|0:0,0:0:0:0:
201,18,69610,2,0,P|242:38|263:82,1,90,2|8,0:0|0:1,0:0:0:0:
179,186,69928,1,2,0:0:0:0:
264,294,70086,1,8,0:0:0:0:
390,239,70245,2,0,L|380:144,1,90,2|8,0:0|0:1,0:0:0:0:
178,271,70563,6,0,P|177:318|208:364,1,90,2|8,0:0|0:0,0:0:0:0:
323,381,70880,1,2,0:0:0:0:
430,310,71039,1,8,0:1:0:0:
272,274,71198,1,2,0:0:0:0:
257,112,71357,1,8,0:0:0:0:
406,47,71516,1,2,0:0:0:0:
512,171,71673,5,12,0:1:0:0:
272,274,71833,1,2,3:3:0:0:
272,274,71912,1,2,3:3:0:0:
272,274,71991,2,0,L|165:255,1,90,8|2,0:0|3:3,0:0:0:0:
0,91,72309,1,8,0:1:0:0:
119,62,72467,1,8,0:1:0:0:
148,181,72626,1,8,0:0:0:0:
29,210,72785,1,8,0:1:0:0:
192,11,72944,5,12,0:1:0:0:
336,110,73102,1,0,3:0:0:0:
331,154,73181,1,0,3:0:0:0:
327,199,73260,1,8,0:0:0:0:
137,384,73420,5,2,3:0:0:0:
146,332,73499,1,2,3:0:0:0:
176,290,73578,1,12,0:1:0:0:
222,264,73658,1,0,3:0:0:0:
274,260,73737,1,2,3:3:0:0:
322,277,73816,1,2,3:3:0:0:
360,314,73896,2,0,L|354:366,1,45,14|0,0:0|0:0,0:0:0:0:
460,275,74055,2,0,L|454:230,1,45,6|0,0:2|0:0,0:0:0:0:
312,39,74213,6,0,B|352:99|352:99|458:79,1,180,12|8,0:1|0:0,0:0:0:0:
510,206,74690,1,2,0:0:0:0:
418,166,74848,1,10,0:1:0:0:
301,199,75007,1,2,0:0:0:0:
218,319,75166,1,8,0:0:0:0:
48,274,75325,1,2,0:0:0:0:
27,61,75483,6,0,P|113:54|165:122,1,180,10|8,0:1|0:0,0:0:0:0:
129,266,75959,1,2,0:0:0:0:
253,345,76118,1,10,0:1:0:0:
366,251,76277,1,2,0:0:0:0:
311,114,76436,1,10,0:0:0:0:
165,122,76594,1,2,0:0:0:0:
253,345,76753,6,0,L|435:317,1,180,12|8,0:1|0:0,0:0:0:0:
512,199,77229,2,0,P|468:206|425:186,1,90,2|8,0:0|0:1,0:0:0:0:
263,50,77547,1,2,0:0:0:0:
335,0,77706,2,0,L|426:17,1,90,8|2,0:0|0:0,0:0:0:0:
480,127,78023,5,10,0:1:0:0:
334,232,78182,1,2,3:0:0:0:
301,201,78261,1,2,3:0:0:0:
258,189,78340,1,10,3:2:0:0:
214,198,78420,1,0,0:0:0:0:
179,226,78499,1,2,0:3:0:0:
160,266,78578,1,2,0:3:0:0:
162,311,78658,1,10,0:1:0:0:
30,169,78817,1,4,0:0:0:0:
30,169,78975,2,0,L|125:152,1,90,12|0,0:0|0:0,0:0:0:0:
265,51,79293,6,0,P|256:71|255:94,1,45,12|0,0:1|0:0,0:0:0:0:
334,232,79452,2,0,P|342:211|343:188,1,45,8|8,0:3|0:3,0:0:0:0:
179,225,79610,1,8,0:0:0:0:
175,270,79689,1,8,0:3:0:0:
194,309,79768,1,4,0:3:0:0:
232,333,79848,1,4,0:3:0:0:
277,333,79928,1,10,0:1:0:0:
316,312,80007,1,4,0:3:0:0:
361,314,80086,1,4,0:3:0:0:
398,337,80166,1,4,0:3:0:0:
419,377,80245,1,8,0:0:0:0:
495,192,80404,1,2,0:0:0:0:
365,31,80563,5,10,0:1:0:0:
365,31,80642,1,2,0:0:0:0:
365,31,80721,2,0,L|370:88,1,45,6|6,0:3|0:3,0:0:0:0:
257,252,80880,1,8,0:0:0:0:
257,252,80959,1,8,0:3:0:0:
257,252,81038,2,0,L|262:195,1,45,4|4,0:3|0:3,0:0:0:0:
165,103,81198,1,10,0:1:0:0:
124,84,81277,1,8,0:3:0:0:
79,86,81356,1,4,0:3:0:0:
41,109,81436,1,4,0:3:0:0:
18,147,81515,1,12,0:0:0:0:
257,252,81674,1,2,0:0:0:0:
29,352,81833,5,8,1:0:0:0:
17,262,81991,2,0,L|29:352,1,90,8|0,1:0|0:0,0:0:0:0:
257,252,82309,5,8,1:0:0:0:
268,162,82467,2,0,L|257:252,1,90,8|0,1:0|0:0,0:0:0:0:
81,87,82785,5,8,1:0:0:0:
163,109,82944,2,0,P|125:86|81:87,1,90,8|0,1:0|0:0,0:0:0:0:
242,336,83261,5,8,1:0:0:0:
325,314,83420,2,0,P|286:335|242:336,1,90,8|0,1:0|0:0,0:0:0:0:
396,139,83737,5,8,1:0:0:0:
503,165,83896,1,2,3:0:0:0:
503,165,83975,1,2,3:0:0:0:
503,165,84055,1,2,3:0:0:0:
503,165,84372,5,14,0:1:0:0:
319,190,94531,5,12,0:1:0:0:
417,168,94690,1,2,0:0:0:0:
439,266,94848,1,10,0:1:0:0:
341,288,95007,2,0,L|155:260,1,180,2|2,0:0|0:0,0:0:0:0:
66,326,95483,1,10,0:1:0:0:
34,244,95642,6,0,P|59:281|66:326,1,90,2|8,0:0|0:1,0:0:0:0:
197,144,95959,2,0,P|173:181|167:226,1,90,2|8,0:0|0:1,0:0:0:0:
0,112,96277,2,0,P|39:133|66:168,1,90,2|8,0:0|0:1,0:0:0:0:
316,51,96594,1,2,0:0:0:0:
233,12,96753,2,0,P|193:33|166:68,1,90,8|10,0:1|0:1,0:0:0:0:
274,205,97071,6,0,B|327:161|327:161|316:51,1,180,10|8,0:1|0:1,0:0:0:0:
477,106,97547,2,0,P|425:111|393:142,1,90,2|8,0:0|0:1,0:0:0:0:
433,241,97864,2,0,P|485:236|517:205,1,90,2|8,0:0|0:1,0:0:0:0:
274,205,98182,6,0,L|285:317,1,90,2|8,0:0|0:1,0:0:0:0:
361,349,98499,1,2,0:0:0:0:
166,384,98658,2,0,L|174:294,1,90,8|2,0:1|0:0,0:0:0:0:
205,132,98975,1,8,0:1:0:0:
32,215,99134,1,2,0:0:0:0:
63,81,99293,2,0,P|99:51|140:50,1,90,8|10,0:1|0:1,0:0:0:0:
289,178,99610,6,0,L|270:0,1,180,10|10,0:1|0:1,0:0:0:0:
438,89,100086,1,2,0:0:0:0:
321,260,100245,2,0,P|279:267|231:242,1,90,8|2,0:1|0:0,0:0:0:0:
428,178,100563,1,10,0:1:0:0:
438,89,100721,6,0,L|428:178,1,90,2|8,0:0|0:1,0:0:0:0:
330,349,101039,2,0,L|321:260,1,90,2|8,0:0|0:1,0:0:0:0:
198,120,101356,2,0,L|188:209,1,90,2|8,0:0|0:1,0:0:0:0:
96,290,101674,1,10,0:1:0:0:
96,290,101833,1,2,0:0:0:0:
246,58,102150,5,2,0:0:0:0:
267,63,102626,5,2,0:0:0:0:
288,68,103102,5,2,0:0:0:0:
452,193,103420,5,2,0:0:0:0:
440,145,103525,5,2,0:0:0:0:
398,120,103631,5,8,0:1:0:0:
351,133,103737,5,10,0:1:0:0:
328,176,103843,5,2,0:0:0:0:
342,222,103949,5,0,0:0:0:0:
385,245,104054,5,10,0:1:0:0:
214,352,104266,5,2,0:0:0:0:
214,352,104372,2,0,L|224:261,1,90.0000034332277,8|0,0:0|0:0,0:0:0:0:
177,134,104690,6,0,P|144:164|101:169,1,90.0000034332277,8|0,0:1|0:0,0:0:0:0:
185,49,105007,2,0,P|227:62|254:97,1,90.0000034332277,2|0,0:0|0:0,0:0:0:0:
107,83,105325,2,0,P|97:40|115:0,1,90.0000034332277,8|2,0:0|0:0,0:0:0:0:
115,0,105642,1,2,0:0:0:0:
29,244,105854,1,2,0:0:0:0:
104,217,105959,6,0,P|145:245|162:296,1,90.0000034332277,10|2,0:1|0:0,0:0:0:0:
229,382,106277,2,0,P|248:341|285:318,1,90.0000034332277,2|2,0:0|0:0,0:0:0:0:
354,256,106594,2,0,P|388:284|432:289,1,90.0000034332277,8|2,0:0|0:0,0:0:0:0:
500,246,106912,1,2,0:0:0:0:
288,11,107124,1,2,0:0:0:0:
226,60,107229,6,0,L|238:162,1,90.0000034332277,8|2,0:1|0:0,0:0:0:0:
376,182,107547,2,0,L|386:92,1,90.0000034332277,2|0,0:0|0:0,0:0:0:0:
210,261,107864,2,0,P|199:227|235:241,1,90.0000034332277,8|0,0:0|0:0,0:0:0:0:
402,293,108182,2,0,P|413:259|377:273,1,90.0000034332277,2|2,0:0|0:0,0:0:0:0:
253,362,108499,6,0,L|160:343,1,90.0000034332277,10|0,0:1|0:0,0:0:0:0:
27,270,108817,2,0,L|120:251,1,90.0000034332277,10|0,0:1|0:0,0:0:0:0:
253,178,109134,2,0,L|160:159,1,90.0000034332277,8|0,0:0|0:0,0:0:0:0:
27,86,109452,1,2,3:0:0:0:
87,134,109557,1,2,3:0:0:0:
148,88,109663,1,2,3:0:0:0:
119,17,109769,5,12,0:1:0:0:
324,67,109981,1,2,0:0:0:0:
324,67,110086,2,0,P|300:111|299:165,1,90.0000034332277,6|8,0:0|0:1,0:0:0:0:
356,208,110404,1,12,0:0:0:0:
503,307,110616,1,2,0:0:0:0:
424,328,110721,1,4,0:0:0:0:
240,384,110933,1,10,0:1:0:0:
319,363,111039,6,0,P|313:318|291:279,1,90.0000034332277,4|8,0:0|0:1,0:0:0:0:
257,189,111356,2,0,P|221:215|198:254,1,90.0000034332277,12|0,0:1|0:0,0:0:0:0:
158,322,111674,1,12,0:0:0:0:
0,137,111885,1,8,0:1:0:0:
66,185,111991,2,0,L|160:171,1,90.0000034332277,4|8,0:0|0:1,0:0:0:0:
206,102,112309,5,12,0:1:0:0:
469,59,112521,1,2,0:0:0:0:
398,31,112626,2,0,P|375:72|388:130,1,90.0000034332277,4|0,0:0|0:0,0:0:0:0:
448,160,112944,1,12,0:0:0:0:
285,239,113155,2,0,L|292:190,1,45.0000017166138,8|4,0:1|0:0,0:0:0:0:
472,300,113473,1,10,0:1:0:0:
125,354,114848,5,12,0:1:0:0:
200,201,115007,2,0,L|209:292,1,90,8|8,0:1|0:1,0:0:0:0:
61,174,115325,2,0,B|111:192|140:150|140:150|169:109|220:126,1,180,2|10,0:0|0:1,0:0:0:0:
335,89,115801,2,0,L|326:0,1,90,8|2,0:1|0:0,0:0:0:0:
446,186,116118,5,2,3:0:0:0:
344,228,116277,1,2,3:0:0:0:
344,228,116356,1,0,3:0:0:0:
344,228,116436,1,2,3:0:0:0:
432,296,116594,1,2,3:0:0:0:
446,186,116753,1,12,0:0:0:0:
207,369,116912,1,8,0:1:0:0:
207,369,116991,1,8,0:1:0:0:
206,368,117071,2,0,P|202:324|220:283,1,90,12|2,0:0|0:0,0:0:0:0:
289,127,117388,5,14,0:1:0:0:
198,211,117547,1,8,0:1:0:0:
79,174,117706,1,8,0:0:0:0:
169,89,117864,2,0,P|199:123|206:167,1,90,2|8,0:0|0:1,0:0:0:0:
25,315,118182,1,10,0:1:0:0:
29,280,118261,1,0,0:0:0:0:
33,245,118340,1,8,0:0:0:0:
238,384,118499,1,2,0:0:0:0:
238,384,118817,5,8,1:0:0:0:
326,368,118975,2,0,L|238:384,1,90,8|0,1:0|0:0,0:0:0:0:
313,213,119293,5,8,1:0:0:0:
402,229,119451,2,0,L|313:213,1,90,8|0,1:0|0:0,0:0:0:0:
488,197,119769,5,8,1:0:0:0:
476,281,119928,2,0,P|494:240|488:197,1,90,8|0,1:0|0:0,0:0:0:0:
222,67,120245,5,8,1:0:0:0:
234,150,120404,2,0,P|215:110|222:67,1,90,0|2,1:0|0:3,0:0:0:0:
362,96,120721,1,2,0:3:0:0:
312,212,120880,1,2,0:3:0:0:
159,230,121039,1,2,0:3:0:0:
48,82,121198,6,0,L|74:279,1,180,14|8,0:1|0:0,0:0:0:0:
297,363,121674,1,2,0:0:0:0:
199,344,121833,1,10,0:1:0:0:
159,230,121991,1,2,0:0:0:0:
253,120,122150,1,8,0:0:0:0:
423,151,122309,1,2,0:0:0:0:
492,345,122467,6,0,P|374:316|354:251,1,180,10|8,0:1|0:0,0:0:0:0:
345,50,122944,1,2,0:0:0:0:
349,179,123102,1,10,0:1:0:0:
228,219,123260,1,2,0:0:0:0:
151,116,123419,1,8,0:0:0:0:
223,12,123578,1,2,0:0:0:0:
461,114,123737,6,0,L|445:300,1,180,12|8,0:1|0:0,0:0:0:0:
301,375,124213,1,2,0:0:0:0:
301,375,124293,1,2,0:0:0:0:
300,374,124372,2,0,P|280:334|281:289,1,90,0|2,0:0|0:0,0:0:0:0:
372,192,124690,1,8,0:0:0:0:
182,135,124848,6,0,L|192:226,1,90,2|8,0:0|0:1,0:0:0:0:
64,326,125166,1,2,3:2:0:0:
68,281,125245,1,0,3:0:0:0:
73,236,125325,1,8,0:0:0:0:
268,168,125483,1,2,3:0:0:0:
16,26,125642,1,8,3:1:0:0:
31,67,125721,1,0,3:0:0:0:
63,98,125800,1,2,3:0:0:0:
106,110,125880,1,2,3:0:0:0:
149,101,125959,2,0,P|190:82|214:45,1,90,12|2,0:0|0:0,0:0:0:0:
445,196,126277,6,0,L|268:168,1,180,12|8,0:1|0:0,0:0:0:0:
314,350,126753,2,0,P|347:313|345:256,1,90,2|8,0:0|0:1,0:0:0:0:
156,176,127071,1,2,0:0:0:0:
191,286,127229,1,8,0:0:0:0:
19,134,127388,2,0,L|106:110,1,90,2|8,0:0|0:1,0:0:0:0:
313,53,127706,5,2,0:0:0:0:
269,41,127785,1,2,0:0:0:0:
226,29,127864,1,8,0:0:0:0:
234,208,128023,1,2,0:0:0:0:
386,111,128182,1,8,0:1:0:0:
226,29,128341,1,2,0:0:0:0:
234,208,128499,1,8,0:0:0:0:
386,111,128658,1,2,0:0:0:0:
279,299,128817,6,0,L|187:285,1,90,12|2,0:1|3:3,0:0:0:0:
167,281,129055,1,2,3:3:0:0:
145,278,129134,1,8,0:0:0:0:
383,212,129293,1,2,3:3:0:0:
383,212,129372,1,0,0:0:0:0:
383,212,129452,1,8,0:1:0:0:
234,375,129610,1,8,0:1:0:0:
359,339,129769,1,8,0:0:0:0:
156,154,129928,5,8,0:0:0:0:
156,154,130007,1,8,0:0:0:0:
156,154,130086,1,12,0:1:0:0:
458,267,130245,1,0,3:0:0:0:
458,267,130325,1,0,3:0:0:0:
458,267,130404,1,8,0:0:0:0:
338,11,130563,5,2,3:0:0:0:
294,20,130642,1,2,3:0:0:0:
259,48,130721,1,12,0:1:0:0:
241,89,130801,1,0,3:0:0:0:
244,133,130880,1,2,3:3:0:0:
266,172,130959,1,2,3:3:0:0:
304,196,131039,1,14,0:0:0:0:
348,200,131118,1,0,0:0:0:0:
389,184,131197,1,6,0:2:0:0:
419,150,131277,1,0,0:0:0:0:
430,107,131356,6,0,L|409:290,1,180,12|8,0:1|0:0,0:0:0:0:
483,351,131833,1,2,0:0:0:0:
389,382,131991,1,10,0:1:0:0:
282,328,132150,1,2,0:0:0:0:
236,191,132309,1,8,0:0:0:0:
80,112,132467,1,2,0:0:0:0:
1,306,132626,6,0,L|182:280,1,180,10|8,0:1|0:0,0:0:0:0:
366,240,133102,1,2,0:0:0:0:
236,191,133261,1,10,0:1:0:0:
242,52,133420,1,2,0:0:0:0:
376,14,133579,1,10,0:0:0:0:
453,129,133737,1,2,0:0:0:0:
270,331,133896,6,0,P|209:272|236:191,1,180,12|8,0:1|0:0,0:0:0:0:
379,98,134372,2,0,L|284:117,1,90,2|8,0:0|0:1,0:0:0:0:
87,195,134690,1,2,0:0:0:0:
71,75,134848,1,8,0:0:0:0:
182,122,135007,1,2,0:0:0:0:
47,303,135166,5,10,0:1:0:0:
86,281,135245,1,0,0:0:0:0:
129,272,135324,1,2,3:0:0:0:
174,277,135404,1,2,3:0:0:0:
215,295,135483,1,10,3:2:0:0:
248,326,135562,1,0,0:0:0:0:
270,365,135642,1,2,0:3:0:0:
392,180,135801,1,10,0:1:0:0:
494,326,135959,1,4,0:0:0:0:
494,326,136118,2,0,L|390:304,1,90,12|0,0:0|0:0,0:0:0:0:
303,54,136436,5,12,0:1:0:0:
303,54,136515,1,0,0:0:0:0:
303,54,136594,2,0,P|305:20|319:-2,1,45,8|8,0:3|0:3,0:0:0:0:
398,136,136753,1,8,0:0:0:0:
398,136,136832,1,8,0:3:0:0:
398,136,136911,2,0,P|396:170|382:192,1,45,4|4,0:3|0:3,0:0:0:0:
272,231,137071,1,10,0:1:0:0:
254,190,137150,1,4,0:3:0:0:
219,161,137229,1,4,0:3:0:0:
176,153,137309,1,4,0:3:0:0:
133,166,137388,1,8,0:0:0:0:
76,305,137547,1,2,0:0:0:0:
0,72,137706,5,10,0:1:0:0:
36,96,137785,1,2,0:0:0:0:
81,102,137864,1,6,0:3:0:0:
123,87,137944,1,6,0:3:0:0:
153,54,138023,1,8,0:0:0:0:
188,27,138102,1,8,0:3:0:0:
232,19,138181,1,4,0:3:0:0:
275,32,138261,1,4,0:3:0:0:
307,63,138340,1,10,0:1:0:0:
307,63,138420,2,0,L|299:121,1,45,8|4,0:3|0:3,0:0:0:0:
435,195,138579,1,4,0:3:0:0:
435,195,138657,2,0,L|428:150,1,45,12|0,0:0|0:0,0:0:0:0:
259,242,138817,1,2,0:0:0:0:
486,284,138975,5,8,1:0:0:0:
498,373,139134,2,0,L|486:284,1,90,8|0,1:0|0:0,0:0:0:0:
259,242,139452,5,8,1:0:0:0:
246,331,139611,2,0,L|259:242,1,90,8|0,1:0|0:0,0:0:0:0:
417,100,139928,5,8,1:0:0:0:
499,121,140087,2,0,P|454:123|417:100,1,90,8|0,1:0|0:0,0:0:0:0:
340,0,140404,5,8,1:0:0:0:
257,20,140563,2,0,P|301:22|340:0,1,90,8|0,1:0|0:0,0:0:0:0:
172,182,140880,5,8,1:0:0:0:
28,237,141038,2,0,P|86:173|173:182,1,180,10|0,1:0|0:0,0:0:0:0:
179,189,141436,1,0,0:0:0:0:
179,189,141515,6,0,L|168:286,1,90,12|2,0:1|0:0,0:0:0:0:
293,352,141833,2,0,L|282:262,1,90,8|2,0:0|0:0,0:0:0:0:
388,136,142150,2,0,L|377:233,1,90,8|2,0:1|0:0,0:0:0:0:
502,299,142468,2,0,L|491:209,1,90,8|2,0:0|0:0,0:0:0:0:
491,209,142706,1,2,0:0:0:0:
491,209,142785,5,8,0:1:0:0:
282,262,142944,1,2,0:0:0:0:
229,52,143102,1,8,0:0:0:0:
439,0,143261,1,2,0:0:0:0:
439,0,143340,1,2,0:0:0:0:
439,0,143420,2,0,P|456:40|454:85,1,90,8|2,0:1|0:0,0:0:0:0:
336,202,143737,2,0,P|318:161|320:116,1,90,8|2,0:0|0:0,0:0:0:0:
502,299,144055,5,12,0:1:0:0:
241,372,144213,1,2,0:0:0:0:
241,372,144293,1,2,0:0:0:0:
241,372,144372,2,0,L|255:283,1,90,8|2,0:0|0:0,0:0:0:0:
126,129,144690,1,8,0:1:0:0:
41,308,144848,1,2,3:0:0:0:
41,308,144928,1,2,3:0:0:0:
41,308,145007,2,0,L|99:318,1,45,8|0,0:0|0:0,0:0:0:0:
179,242,145166,2,0,L|134:234,1,45,2|0,0:3|0:0,0:0:0:0:
0,140,145325,5,10,0:1:0:0:
179,242,145483,1,2,3:2:0:0:
181,198,145562,1,2,3:2:0:0:
197,156,145641,1,8,3:2:0:0:
225,121,145721,1,0,3:0:0:0:
263,97,145800,1,2,3:0:0:0:
306,86,145879,1,0,0:0:0:0:
351,89,145959,6,0,L|400:98,1,45,8|0,0:1|0:0,0:0:0:0:
484,229,146118,1,2,0:0:0:0:
297,338,146277,2,0,P|287:314|285:295,1,45,12|0,0:0|0:0,0:0:0:0:
353,171,146436,2,0,P|362:194|364:213,1,45,2|0,0:0|0:0,0:0:0:0:
196,360,146594,6,0,L|107:344,1,90,12|2,0:1|0:0,0:0:0:0:
107,344,146833,1,2,0:0:0:0:
107,344,146912,1,8,0:0:0:0:
0,210,147071,2,0,L|88:194,1,90,2|8,0:0|0:1,0:0:0:0:
306,92,147388,1,2,0:0:0:0:
174,141,147547,1,8,0:0:0:0:
65,51,147706,1,2,0:0:0:0:
197,2,147864,6,0,P|223:39|223:89,1,90,10|2,0:1|0:0,0:0:0:0:
174,141,148102,1,2,0:0:0:0:
174,141,148182,2,0,L|121:132,1,45,8|0,0:0|0:0,0:0:0:0:
269,211,148340,2,0,L|322:202,1,45,2|2,0:0|0:0,0:0:0:0:
183,297,148499,1,8,0:1:0:0:
183,297,148658,1,2,0:0:0:0:
357,125,148817,1,8,0:0:0:0:
418,361,148975,1,2,0:0:0:0:
97,328,149134,6,0,P|93:280|116:238,1,90,12|2,1:1|3:0,0:0:0:0:
143,218,149372,1,2,3:0:0:0:
182,205,149452,2,0,L|273:223,1,90,12|0,1:2|1:0,0:0:0:0:
512,278,149769,1,10,0:1:0:0:
320,337,149928,1,0,1:0:0:0:
261,145,150086,1,8,0:3:0:0:
453,86,150245,1,4,0:3:0:0:
387,212,150404,5,12,0:1:0:0:
286,43,150563,1,2,0:0:0:0:
241,37,150642,1,2,0:0:0:0:
200,53,150721,1,10,3:2:0:0:
171,87,150801,1,2,3:0:0:0:
161,131,150880,1,2,3:0:0:0:
136,168,150959,1,2,3:0:0:0:
96,187,151039,1,10,3:1:0:0:
52,182,151119,1,2,3:0:0:0:
17,155,151198,1,2,3:0:0:0:
2,113,151277,1,2,3:0:0:0:
11,69,151357,1,12,3:2:0:0:
42,37,151436,1,0,3:0:0:0:
85,26,151515,2,0,L|129:39,1,45,10|2,3:1|3:0,0:0:0:0:
261,145,151674,6,0,P|228:184|225:230,1,90,12|2,0:1|0:0,0:0:0:0:
98,384,151991,2,0,P|90:340|60:307,1,90,8|2,0:0|0:0,0:0:0:0:
147,129,152309,1,8,0:1:0:0:
195,297,152467,1,2,0:0:0:0:
364,339,152626,1,8,0:0:0:0:
484,213,152785,1,2,0:0:0:0:
258,30,152944,6,0,L|266:137,1,90,8|2,0:1|0:0,0:0:0:0:
325,184,153182,1,2,0:0:0:0:
325,184,153261,2,0,P|386:178|413:141,1,90,8|2,0:0|0:0,0:0:0:0:
274,321,153579,2,0,P|239:295|195:297,1,90,8|2,0:1|0:0,0:0:0:0:
135,232,153817,1,2,0:0:0:0:
135,232,153896,2,0,L|141:142,1,90,8|2,0:0|0:0,0:0:0:0:
16,69,154213,5,12,0:1:0:0:
241,154,154372,1,2,0:0:0:0:
241,154,154531,1,10,0:0:0:0:
54,306,154690,1,2,0:0:0:0:
230,68,154848,2,0,P|276:71|313:101,1,90,10|2,0:1|0:0,0:0:0:0:
324,301,155166,1,8,0:0:0:0:
172,206,155325,6,0,P|151:164|159:117,1,90,2|8,0:0|0:1,0:0:0:0:
320,187,155642,1,2,0:0:0:0:
320,187,155721,1,2,0:0:0:0:
320,187,155801,2,0,P|294:225|249:242,1,90,8|0,0:0|0:0,0:0:0:0:
417,67,156118,1,10,0:1:0:0:
422,111,156197,1,2,0:0:0:0:
427,156,156276,1,2,0:0:0:0:
502,326,156436,2,0,P|464:274|394:278,1,135,12|0,0:0|0:0,0:0:0:0:
333,329,156753,5,12,0:1:0:0:
134,212,156912,1,8,0:3:0:0:
334,100,157071,1,8,0:0:0:0:
200,327,157229,5,4,0:3:0:0:
200,327,157309,1,4,0:3:0:0:
200,327,157388,1,8,0:1:0:0:
201,98,157547,1,4,0:3:0:0:
400,215,157706,1,8,0:0:0:0:
119,130,157864,1,4,0:3:0:0:
119,130,157944,1,4,0:3:0:0:
119,130,158023,6,0,P|111:87|133:41,1,90,8|2,0:1|0:0,0:0:0:0:
465,104,158340,1,8,0:0:0:0:
196,220,158499,1,2,0:0:0:0:
334,42,158658,5,10,0:1:0:0:
422,261,158817,1,2,0:0:0:0:
202,350,158975,1,12,0:0:0:0:
119,130,159134,1,2,0:0:0:0:
119,130,159213,1,2,0:0:0:0:
119,130,159293,2,0,P|163:103|205:98,1,90,12|8,1:0|1:0,0:0:0:0:
325,230,159610,5,0,0:0:0:0:
32,81,159769,2,0,L|44:179,1,90,8|8,1:0|1:0,0:0:0:0:
344,146,160086,5,0,0:0:0:0:
190,376,160245,2,0,L|200:286,1,90,8|8,1:0|1:0,0:0:0:0:
474,238,160563,5,0,0:0:0:0:
265,10,160721,2,0,L|275:99,1,90,8|8,1:1|1:0,0:0:0:0:
442,326,161039,1,0,0:0:0:0:
243,187,161198,1,8,1:0:0:0:
462,84,161356,1,10,1:0:0:0:
462,84,161436,1,2,0:0:0:0:
462,84,161515,1,2,0:0:0:0:
462,84,161594,1,2,0:0:0:0:
462,84,161674,1,2,0:0:0:0:
462,84,161753,1,2,0:0:0:0:
462,84,161833,1,4,0:0:0:0:
130,217,166436,5,2,3:3:0:0:
244,133,166594,1,0,1:0:0:0:
244,133,166674,2,0,L|249:170,2,22.5,0|0|0,1:0|1:0|1:0,0:0:0:0:
120,45,166833,1,0,1:0:0:0:
85,58,166912,6,0,P|62:104|70:155,1,90,4|0,1:2|1:0,0:0:0:0:
130,217,167150,2,0,L|125:254,2,22.5,0|0|0,1:0|1:0|1:0,0:0:0:0:
17,332,167388,1,0,1:0:0:0:
39,328,167467,1,0,1:0:0:0:
62,325,167547,6,0,L|98:320,2,22.5,0|0|0,1:0|1:0|1:0,0:0:0:0:
149,373,167706,2,0,P|173:336|214:319,1,90,0|0,1:0|1:0,0:0:0:0:
313,268,167944,1,0,1:0:0:0:
329,302,168023,2,0,L|322:338,4,22.5,4|0|0|0|0,1:0|1:0|1:0|1:0|1:0,0:0:0:0:
440,233,168340,6,0,L|435:210,4,22.5,0|0|0|0|0,1:0|1:0|1:0|1:0|1:0,0:0:0:0:
354,183,168579,1,0,1:0:0:0:
332,154,168658,2,0,P|334:127|345:104,1,45,0|0,1:0|1:0,0:0:0:0:
421,60,168817,2,0,L|451:67,2,22.5,0|0|0,1:0|1:0|1:0,0:0:0:0:
237,113,168975,6,0,P|235:86|224:63,1,45,0|0,1:0|1:0,0:0:0:0:
148,19,169134,2,0,L|118:26,2,22.5,0|0|0,1:0|1:0|1:0,0:0:0:0:
43,130,169293,6,0,L|92:139,1,45,0|0,1:0|1:0,0:0:0:0:
196,197,169452,2,0,P|152:214|127:263,1,90,4|0,1:0|1:0,0:0:0:0:
220,341,169769,1,0,1:0:0:0:
260,333,169848,1,0,1:0:0:0:
301,326,169928,2,0,P|305:337|306:352,4,22.5,0|0|0|0|0,1:0|1:0|1:0|1:0|1:0,1:0:0:0:
385,213,170245,6,0,P|381:223|379:234,4,22.5,0|0|0|0|0,1:0|1:0|1:0|1:0|1:0,0:0:0:0:
425,219,170483,1,0,1:0:0:0:
465,227,170562,1,2,1:0:0:0:
92,121,172944,6,0,P|77:24|160:66,1,233.999989288331,0|0,1:0|0:0,1:0:0:0:
172,159,173340,2,0,L|168:192,6,29.2499986610413,0|0|0|0|0|0|0,1:0|1:0|1:0|1:0|1:0|1:0|1:0,0:0:0:0:
43,321,173737,5,2,0:3:0:0:
117,255,173896,1,2,0:3:0:0:
234,261,174055,1,2,0:3:0:0:
328,365,174213,1,2,0:3:0:0:
483,301,174372,1,2,0:3:0:0:
508,99,174531,6,0,L|331:132,1,180,14|8,0:1|0:0,0:0:0:0:
161,11,175007,5,2,0:0:0:0:
262,30,175166,1,10,0:1:0:0:
331,132,175325,1,2,0:0:0:0:
303,276,175483,1,8,0:0:0:0:
137,336,175642,1,2,0:0:0:0:
13,163,175801,6,0,P|74:101|162:100,1,180,10|8,0:1|0:0,0:0:0:0:
380,314,176277,1,2,0:0:0:0:
244,353,176436,1,10,0:1:0:0:
164,236,176594,1,2,0:0:0:0:
251,124,176753,1,8,0:0:0:0:
383,170,176912,1,2,0:0:0:0:
244,353,177071,6,0,L|143:338,1,90,12|2,0:1|0:0,0:0:0:0:
30,228,177388,1,8,0:0:0:0:
219,165,177547,1,2,0:0:0:0:
219,165,177626,1,2,0:0:0:0:
219,165,177706,2,0,P|250:203|256:244,1,90,0|2,0:0|0:0,0:0:0:0:
84,306,178023,1,8,0:0:0:0:
31,85,178182,6,0,L|120:98,1,90,2|8,0:0|0:1,0:0:0:0:
333,169,178499,1,2,3:2:0:0:
164,236,178658,1,8,0:0:0:0:
294,36,178817,2,0,P|320:41|343:53,1,45,2|0,3:0|3:0,0:0:0:0:
484,157,178975,5,8,3:1:0:0:
449,129,179054,1,0,3:0:0:0:
405,121,179133,1,2,3:0:0:0:
363,136,179213,1,2,3:0:0:0:
333,169,179292,1,12,3:2:0:0:
323,213,179371,1,0,3:0:0:0:
335,255,179452,2,0,L|392:268,1,45,2|2,3:0|3:0,0:0:0:0:
230,384,179610,6,0,L|246:204,1,180,12|8,0:1|0:0,0:0:0:0:
175,83,180086,1,2,0:0:0:0:
29,146,180245,1,8,0:1:0:0:
29,146,180404,1,2,0:0:0:0:
156,240,180563,1,8,0:0:0:0:
259,53,180721,2,0,P|232:17|189:-1,1,90,2|8,0:0|0:1,0:0:0:0:
65,229,181039,5,2,0:0:0:0:
211,166,181198,1,8,0:0:0:0:
84,72,181356,1,2,0:0:0:0:
30,304,181515,1,8,0:1:0:0:
156,240,181674,1,2,0:0:0:0:
294,271,181833,1,8,0:0:0:0:
380,383,181991,1,2,0:0:0:0:
494,170,182150,6,0,L|393:189,1,90,12|2,0:1|3:3,0:0:0:0:
247,137,182467,1,8,0:3:0:0:
232,94,182546,1,8,0:3:0:0:
240,51,182625,1,6,3:3:0:0:
268,16,182705,1,4,0:3:0:0:
310,0,182784,1,8,0:1:0:0:
371,234,182944,1,8,0:1:0:0:
137,169,183102,1,8,0:0:0:0:
310,0,183261,2,0,L|410:20,1,90,8|12,0:1|0:1,0:0:0:0:
512,256,183579,5,0,3:0:0:0:
512,256,183658,1,0,3:0:0:0:
512,256,183737,1,8,0:0:0:0:
344,135,183896,1,2,3:0:0:0:
303,154,183975,1,2,3:0:0:0:
276,189,184054,1,12,0:1:0:0:
267,233,184134,1,0,3:0:0:0:
279,276,184213,1,2,3:3:0:0:
272,319,184293,1,2,3:3:0:0:
244,355,184372,1,14,0:0:0:0:
203,371,184452,1,0,0:0:0:0:
159,366,184531,1,6,0:2:0:0:
123,339,184610,1,0,0:0:0:0:
106,299,184690,6,0,L|134:121,1,180,12|8,0:1|0:0,0:0:0:0:
338,0,185166,5,2,0:0:0:0:
241,30,185325,1,10,0:1:0:0:
206,143,185483,1,2,0:0:0:0:
293,255,185642,1,8,0:0:0:0:
462,247,185801,1,2,0:0:0:0:
512,51,185959,6,0,P|424:56|372:125,1,180,10|8,0:1|0:0,0:0:0:0:
325,354,186436,1,2,0:0:0:0:
179,383,186594,1,10,0:1:0:0:
106,254,186753,1,2,0:0:0:0:
206,143,186912,1,10,0:0:0:0:
341,204,187071,1,2,0:0:0:0:
89,345,187229,6,0,P|22:289|32:203,1,180,12|8,0:1|0:0,0:0:0:0:
293,117,187706,1,2,0:0:0:0:
169,55,187864,1,8,0:1:0:0:
178,192,188023,1,2,0:0:0:0:
178,192,188102,1,2,0:0:0:0:
178,192,188182,1,10,0:0:0:0:
293,117,188340,1,2,0:0:0:0:
232,312,188499,5,10,0:1:0:0:
498,276,188658,1,2,3:0:0:0:
480,234,188737,1,2,3:0:0:0:
446,206,188816,1,10,3:2:0:0:
402,197,188896,1,0,0:0:0:0:
359,209,188975,1,2,0:3:0:0:
308,364,189134,1,10,0:1:0:0:
425,103,189293,1,4,0:0:0:0:
425,103,189452,2,0,L|517:126,1,90,12|0,0:0|0:0,0:0:0:0:
214,3,189769,6,0,P|206:24|207:46,1,45,12|0,0:1|0:0,0:0:0:0:
286,160,189928,2,0,P|293:139|293:117,1,45,8|8,0:3|0:3,0:0:0:0:
115,124,190086,1,8,0:0:0:0:
71,132,190165,1,8,0:3:0:0:
38,162,190244,1,4,0:3:0:0:
26,205,190324,1,4,0:3:0:0:
37,248,190403,1,10,0:1:0:0:
69,279,190482,1,4,0:3:0:0:
112,289,190562,1,4,0:3:0:0:
154,276,190641,1,4,0:3:0:0:
183,242,190720,1,8,0:0:0:0:
312,366,190880,1,2,0:0:0:0:
448,173,191039,6,0,L|387:180,1,45,10|2,0:1|0:0,0:0:0:0:
297,262,191198,1,6,0:3:0:0:
335,240,191277,1,6,0:3:0:0:
363,205,191356,1,8,0:0:0:0:
376,162,191436,1,8,0:3:0:0:
371,117,191515,1,4,0:3:0:0:
349,78,191594,1,4,0:3:0:0:
315,50,191674,1,10,0:1:0:0:
274,68,191753,1,8,0:3:0:0:
230,65,191832,1,4,0:3:0:0:
192,40,191912,1,4,0:3:0:0:
172,1,191991,1,12,0:0:0:0:
94,241,192150,1,2,0:0:0:0:
288,155,192309,5,12,1:0:0:0:
299,244,192467,2,0,L|288:155,1,90,8|0,1:0|0:0,0:0:0:0:
94,241,192785,5,8,1:0:0:0:
83,331,192943,2,0,L|94:241,1,90,8|0,1:0|0:0,0:0:0:0:
351,80,193261,5,8,1:0:0:0:
424,120,193420,2,0,P|380:112|351:80,1,90,8|0,1:0|0:0,0:0:0:0:
74,142,193737,5,10,1:0:0:0:
0,182,193896,1,10,1:0:0:0:
184,314,194055,5,12,0:0:0:0:
184,314,194134,1,8,0:0:0:0:
184,314,194213,1,12,1:0:0:0:
273,327,194372,2,0,L|184:314,1,90,8|0,1:0|0:0,0:0:0:0:
261,92,194690,5,8,1:0:0:0:
351,79,194849,2,0,L|261:92,1,90,8|0,1:0|0:0,0:0:0:0:
376,299,195166,5,8,1:0:0:0:
358,383,195325,2,0,P|378:343|376:299,1,90,8|0,1:0|0:0,0:0:0:0:
453,104,195642,5,10,1:0:0:0:
436,19,195801,1,12,1:0:0:0:
265,230,195959,5,12,0:0:0:0:
265,230,196039,1,8,0:0:0:0:
265,230,196118,1,12,1:1:0:0:
276,140,196277,2,0,L|265:230,1,90,8|0,1:0|0:0,0:0:0:0:
75,330,196594,5,10,1:0:0:0:
64,241,196753,2,0,L|75:330,1,90,10|0,1:0|0:0,0:0:0:0:
259,49,197071,5,10,1:0:0:0:
173,76,197229,1,10,1:0:0:0:
173,76,197547,5,2,0:0:0:0:
372,109,197706,1,2,0:0:0:0:
339,308,197864,1,2,0:0:0:0:
140,275,198023,1,0,3:0:0:0:
256,192,198182,5,2,3:0:0:0:
256,192,198340,1,2,3:0:0:0:
256,192,198658,5,14,0:1:0:0:
