osu file format v14

[General]
AudioFilename: audio.mp3
AudioLeadIn: 0
PreviewTime: 43908
Countdown: 0
SampleSet: Soft
StackLeniency: 0.7
Mode: 0
LetterboxInBreaks: 0
WidescreenStoryboard: 0

[Editor]
Bookmarks: 172661
DistanceSpacing: 0.6
BeatDivisor: 4
GridSize: 32
TimelineZoom: 2.1

[Metadata]
Title:RAT RACE
TitleUnicode:RAT RACE
Artist:TORIENA
ArtistUnicode:TORIENA
Creator:Acyl
Version:Team :3c's Extra
Source:
Tags:Electronic Chippunk osu!international mapping contest #3 o!imc3 len moecho necho fast kawashiro flask
BeatmapID:2148690
BeatmapSetID:1027510

[Difficulty]
HPDrainRate:6
CircleSize:4.5
OverallDifficulty:9
ApproachRate:9.6
SliderMultiplier:2
SliderTickRate:1

[Events]
//Background and Video events
0,0,"contest_background.jpg",0,0
//Break Periods
//Storyboard Layer 0 (Background)
//Storyboard Layer 1 (Fail)
//Storyboard Layer 2 (Pass)
//Storyboard Layer 3 (Foreground)
//Storyboard Layer 4 (Overlay)
//Storyboard Sound Samples

[TimingPoints]
108,342.857142857143,4,2,1,35,1,0
279,-100,4,2,0,50,0,0
622,-100,4,2,1,35,0,0
793,-100,4,2,0,50,0,0
1136,-100,4,2,1,35,0,0
1308,-100,4,2,0,50,0,0
1479,-100,4,2,1,35,0,0
1650,-100,4,2,0,50,0,0
1993,-100,4,2,1,35,0,0
2165,-100,4,2,0,50,0,0
2336,-100,4,2,1,35,0,0
2850,-100,4,2,1,35,0,0
3022,-100,4,2,0,50,0,0
3365,-100,4,2,1,35,0,0
3536,-100,4,2,0,50,0,0
3879,-100,4,2,1,35,0,0
4050,-100,4,2,0,50,0,0
4222,-100,4,2,1,35,0,0
4393,-100,4,2,0,50,0,0
4736,-100,4,2,1,35,0,0
4908,-100,4,2,0,50,0,0
5079,-100,4,2,1,35,0,0
5593,-100,4,2,1,35,0,0
5765,-100,4,2,0,50,0,0
6108,-100,4,2,1,35,0,0
6279,-100,4,2,0,50,0,0
6622,-100,4,2,1,35,0,0
6793,-100,4,2,0,50,0,0
6965,-100,4,2,1,35,0,0
7136,-100,4,2,0,50,0,0
7479,-100,4,2,1,35,0,0
7650,-100,4,2,0,50,0,0
7822,-100,4,2,1,35,0,0
8250,-100,4,2,0,50,0,0
8336,-100,4,2,1,35,0,0
8508,-100,4,2,0,50,0,0
8850,-100,4,2,1,35,0,0
9022,-100,4,2,0,50,0,0
9365,-100,4,2,1,35,0,0
9536,-100,4,2,0,50,0,0
9622,-100,4,2,0,50,0,0
9708,-57.1428571428571,4,2,0,50,0,0
9765,-57.1428571428571,4,2,1,25,0,0
9936,-57.1428571428571,4,2,0,50,0,0
9993,-57.1428571428571,4,2,1,25,0,0
10165,-57.1428571428571,4,2,0,50,0,0
10222,-57.1428571428571,4,2,1,25,0,0
10393,-57.1428571428571,4,2,0,50,0,0
10436,-57.1428571428571,4,2,1,25,0,0
10565,-57.1428571428571,4,2,1,35,0,0
10908,-100,4,2,0,50,0,0
11079,-66.6666666666667,4,2,1,60,0,0
11593,-100,4,2,1,60,0,0
13308,-100,4,2,1,75,0,1
13393,-100,4,2,1,60,0,1
13479,-80,4,2,1,75,0,1
13565,-80,4,2,1,60,0,1
13650,-66.6666666666667,4,2,1,75,0,1
13736,-66.6666666666667,4,2,1,60,0,1
13822,-66.6666666666667,4,2,1,60,0,0
14336,-100,4,2,1,60,0,0
16050,-100,4,2,1,75,0,1
16136,-100,4,2,1,60,0,1
16222,-80,4,2,1,75,0,1
16308,-80,4,2,1,60,0,1
16393,-66.6666666666667,4,2,1,75,0,1
16479,-66.6666666666667,4,2,1,60,0,1
16565,-66.6666666666667,4,2,1,60,0,0
17079,-100,4,2,1,60,0,0
18793,-100,4,2,1,75,0,1
18879,-100,4,2,1,60,0,1
18965,-80,4,2,1,75,0,1
19050,-80,4,2,1,60,0,1
19136,-66.6666666666667,4,2,1,75,0,1
19222,-66.6666666666667,4,2,1,60,0,1
19308,-66.6666666666667,4,2,1,60,0,0
19822,-100,4,2,1,60,0,0
20679,-100,4,2,1,65,0,1
21365,-100,4,2,1,70,0,1
22050,-100,4,2,1,55,0,0
22222,-100,4,2,0,55,0,0
22393,-100,4,2,1,55,0,0
22565,-100,4,2,0,55,0,0
22650,-100,4,2,1,55,0,0
23079,-100,4,2,0,55,0,0
23250,-100,4,2,1,55,0,0
23336,-100,4,2,0,55,0,0
23422,-100,4,2,1,55,0,0
23593,-100,4,2,0,55,0,0
23765,-100,4,2,1,55,0,0
23936,-100,4,2,0,55,0,0
24022,-100,4,2,1,55,0,0
24450,-100,4,2,0,55,0,0
24793,-100,4,2,1,55,0,0
24965,-100,4,2,0,55,0,0
25136,-100,4,2,1,55,0,0
25308,-100,4,2,0,55,0,0
25393,-100,4,2,1,55,0,0
25822,-100,4,2,0,55,0,0
25993,-100,4,2,1,55,0,0
26079,-100,4,2,0,55,0,0
26165,-100,4,2,1,55,0,0
26336,-100,4,2,0,55,0,0
26508,-100,4,2,1,55,0,0
26679,-100,4,2,0,55,0,0
26765,-100,4,2,1,55,0,0
27193,-100,4,2,0,55,0,0
27536,-100,4,2,1,55,0,0
27708,-100,4,2,0,55,0,0
27879,-100,4,2,1,55,0,0
28050,-100,4,2,0,55,0,0
28136,-100,4,2,1,55,0,0
28565,-100,4,2,0,55,0,0
28736,-100,4,2,1,55,0,0
28822,-100,4,2,0,55,0,0
28908,-100,4,2,1,55,0,0
29079,-100,4,2,0,55,0,0
29250,-100,4,2,1,55,0,0
29422,-100,4,2,0,55,0,0
29508,-100,4,2,1,55,0,0
29936,-100,4,2,0,55,0,0
30279,-100,4,2,1,55,0,0
30450,-100,4,2,0,55,0,0
30622,-100,4,2,1,55,0,0
30793,-100,4,2,0,55,0,0
30879,-100,4,2,1,55,0,0
31136,-66.6666666666667,4,2,0,55,0,0
31308,-100,4,2,0,55,0,0
31479,-100,4,2,1,55,0,0
31565,-100,4,2,0,55,0,0
31650,-80,4,2,1,50,0,0
31822,-80,4,2,0,55,0,0
31908,-80,4,2,1,55,0,0
32165,-80,4,2,0,55,0,0
32250,-80,4,2,1,55,0,0
32508,-80,4,2,0,55,0,0
32593,-80,4,2,1,55,0,0
32679,-80,4,2,1,55,0,0
33022,-100,4,2,1,60,0,0
33365,-100,4,2,0,60,0,0
33536,-80,4,2,1,60,0,0
34050,-66.6666666666667,4,2,0,60,0,0
34222,-66.6666666666667,4,2,1,60,0,0
34393,-80,4,2,1,60,0,0
34736,-80,4,2,0,60,0,0
34908,-80,4,2,1,60,0,0
35422,-80,4,2,0,60,0,0
35508,-80,4,2,1,60,0,0
36108,-80,4,2,0,60,0,0
36279,-80,4,2,1,60,0,0
36793,-80,4,2,0,60,0,0
36965,-80,4,2,1,60,0,0
37479,-80,4,2,0,60,0,0
37650,-80,4,2,1,60,0,0
38508,-80,4,2,1,65,0,0
38850,-80,4,2,0,65,0,0
39022,-80,4,2,1,65,0,0
39536,-80,4,2,0,65,0,0
39622,-80,4,2,1,65,0,0
40222,-80,4,2,0,65,0,0
40308,-80,4,2,1,65,0,0
40908,-80,4,2,0,65,0,0
40993,-80,4,2,1,65,0,0
41593,-80,4,2,0,65,0,0
41679,-80,4,2,1,65,0,0
42279,-80,4,2,0,65,0,0
42365,-80,4,2,1,65,0,0
42622,-133.333333333333,4,2,1,65,0,1
43308,-133.333333333333,4,2,1,65,0,0
43650,-333.333333333333,4,2,1,50,0,0
43908,-333.333333333333,4,2,0,5,0,0
43993,-50,4,2,1,75,0,1
44336,-100,4,2,1,75,0,1
44508,-50,4,2,1,75,0,1
45022,-66.6666666666667,4,2,1,75,0,1
45708,-100,4,2,1,75,0,1
45879,-50,4,2,1,75,0,1
47079,-100,4,2,1,75,0,1
47250,-50,4,2,1,75,0,1
48279,-66.6666666666667,4,2,1,75,0,1
48450,-50,4,2,1,75,0,1
49136,-50,4,2,1,75,0,0
49479,-50,4,2,1,75,0,1
49822,-100,4,2,1,75,0,1
49993,-50,4,2,1,75,0,1
50679,-66.6666666666667,4,2,1,75,0,1
51193,-100,4,2,1,75,0,1
51365,-50,4,2,1,75,0,1
52565,-100,4,2,1,75,0,1
52736,-50,4,2,1,75,0,1
53593,-100,4,2,1,75,0,1
53936,-66.6666666666667,4,2,1,75,0,1
54965,-100,4,2,1,70,0,0
65936,-66.6666666666667,4,2,1,65,0,1
66108,-100,4,2,1,65,0,1
66279,-100,4,2,1,65,0,0
66622,-50,4,2,1,65,0,1
66793,-100,4,2,1,65,0,1
66965,-100,4,2,1,65,0,0
67308,-66.6666666666667,4,2,1,65,0,1
67479,-100,4,2,1,65,0,1
67650,-100,4,2,1,65,0,0
67993,-66.6666666666667,4,2,1,65,0,1
68165,-50,4,2,1,65,0,1
68336,-50,4,2,1,65,0,0
68679,-66.6666666666667,4,2,1,65,0,1
68850,-100,4,2,1,65,0,1
69022,-100,4,2,1,65,0,0
69193,-50,4,2,1,65,0,0
69365,-100,4,2,1,65,0,1
69536,-100,4,2,1,65,0,1
69708,-100,4,2,1,65,0,0
70050,-50,4,2,1,65,0,1
70222,-100,4,2,1,65,0,1
70393,-100,4,2,1,65,0,0
70736,-66.6666666666667,4,2,1,65,0,1
70908,-50,4,2,1,65,0,1
71079,-50,4,2,0,65,0,0
71422,-66.6666666666667,4,2,1,70,0,1
71765,-100,4,2,1,70,0,1
72108,-66.6666666666667,4,2,1,70,0,1
72279,-100,4,2,1,70,0,1
72622,-100,4,2,1,70,0,0
72793,-66.6666666666667,4,2,1,70,0,1
72965,-50,4,2,1,70,0,1
73308,-66.6666666666667,4,2,1,70,0,1
73650,-33.3333333333333,4,2,1,70,0,0
74165,-50,4,2,1,70,0,1
74336,-66.6666666666667,4,2,1,70,0,1
74679,-100,4,2,1,70,0,1
74850,-66.6666666666667,4,2,1,70,0,1
75536,-66.6666666666667,4,2,0,50,0,0
78193,-66.6666666666667,4,2,0,5,0,0
78279,-133.333333333333,4,2,0,35,0,0
83422,-133.333333333333,4,2,0,25,0,0
83508,-133.333333333333,4,2,0,35,0,0
88565,-133.333333333333,4,2,1,40,0,0
88908,-133.333333333333,4,2,1,45,0,0
89250,-100,4,2,1,50,0,0
89508,-100,4,2,0,50,0,0
89593,-100,4,2,0,50,0,0
89765,-100,4,2,1,50,0,0
89936,-100,4,2,0,50,0,0
90108,-133.333333333333,4,2,1,50,0,0
90622,-100,4,2,1,50,0,0
90965,-100,4,2,0,50,0,0
91136,-100,4,2,1,50,0,0
91308,-100,4,2,0,50,0,0
91479,-100,4,2,1,50,0,0
92336,-100,4,2,0,50,0,0
92508,-100,4,2,1,50,0,0
92679,-100,4,2,0,50,0,0
92850,-133.333333333333,4,2,1,50,0,0
93365,-100,4,2,1,50,0,0
94050,-100,4,2,0,50,0,0
94222,-100,4,2,1,50,0,0
95079,-100,4,2,0,50,0,0
95250,-100,4,2,1,50,0,0
95422,-100,4,2,0,50,0,0
95593,-100,4,2,1,50,0,0
95765,-133.333333333333,4,2,1,50,0,0
96108,-100,4,2,1,50,0,0
96450,-100,4,2,0,50,0,0
96622,-100,4,2,1,50,0,0
96793,-100,4,2,0,50,0,0
96965,-100,4,2,1,50,0,0
97050,-100,4,2,0,50,0,0
97136,-100,4,2,1,50,0,0
97822,-100,4,2,0,50,0,0
97993,-100,4,2,1,50,0,0
98165,-100,4,2,0,50,0,0
98336,-100,4,2,1,50,0,0
99193,-100,4,2,0,50,0,0
99365,-100,4,2,1,50,0,0
99536,-100,4,2,0,50,0,0
99708,-100,4,2,1,50,0,0
100222,-100,4,2,1,60,0,1
100479,-100,4,2,0,60,0,1
100565,-100,4,2,1,60,0,1
100736,-133.333333333333,4,2,1,60,0,1
100908,-133.333333333333,4,2,1,60,0,1
101250,-133.333333333333,4,2,1,60,0,1
102279,-133.333333333333,4,2,1,60,0,1
102622,-133.333333333333,4,2,1,60,0,1
102879,-133.333333333333,4,2,0,60,0,1
102965,-133.333333333333,4,2,1,60,0,1
103136,-100,4,2,1,60,0,1
103393,-100,4,2,0,60,0,1
103479,-133.333333333333,4,2,1,60,0,1
103650,-133.333333333333,4,2,1,60,0,1
103993,-133.333333333333,4,2,1,60,0,1
104250,-133.333333333333,4,2,0,60,0,1
104336,-133.333333333333,4,2,1,60,0,1
105022,-100,4,2,1,60,0,1
105279,-100,4,2,0,60,0,1
105365,-100,4,2,1,60,0,1
105708,-133.333333333333,4,2,1,60,0,1
106393,-133.333333333333,4,2,1,60,0,1
106736,-133.333333333333,4,2,1,60,0,1
107079,-100,4,2,1,60,0,1
107336,-100,4,2,0,60,0,1
107422,-133.333333333333,4,2,1,60,0,1
107765,-66.6666666666667,4,2,1,60,0,1
108022,-66.6666666666667,4,2,0,60,0,1
108108,-200,4,2,1,60,0,1
108450,-100,4,2,1,60,0,1
108708,-100,4,2,0,60,0,1
108793,-100,4,2,1,60,0,1
109136,-133.333333333333,4,2,1,60,0,1
109479,-133.333333333333,4,2,1,60,0,1
110508,-133.333333333333,4,2,1,60,0,1
110850,-133.333333333333,4,2,1,60,0,1
111193,-100,4,2,1,60,0,0
111450,-100,4,2,0,60,0,0
111536,-100,4,2,1,60,0,1
111708,-100,4,2,1,60,0,1
111879,-133.333333333333,4,2,1,60,0,1
112222,-133.333333333333,4,2,1,60,0,1
112393,-133.333333333333,4,2,1,60,0,1
112908,-133.333333333333,4,2,1,60,0,1
113079,-133.333333333333,4,2,1,60,0,1
113593,-133.333333333333,4,2,1,60,0,1
113765,-133.333333333333,4,2,1,60,0,1
114279,-133.333333333333,4,2,1,60,0,1
114450,-133.333333333333,4,2,1,60,0,1
114965,-133.333333333333,4,2,1,60,0,1
115136,-133.333333333333,4,2,1,60,0,1
115650,-133.333333333333,4,2,1,60,0,1
115822,-133.333333333333,4,2,1,60,0,1
116336,-133.333333333333,4,2,1,60,0,1
116508,-133.333333333333,4,2,1,60,0,1
116593,-133.333333333333,4,2,0,60,0,1
117022,-100,4,2,1,60,0,1
117193,-100,4,2,1,60,0,1
117536,-133.333333333333,4,2,1,60,0,1
117708,-133.333333333333,4,2,1,60,0,1
117879,-133.333333333333,4,2,1,60,0,1
118393,-133.333333333333,4,2,1,60,0,1
118565,-133.333333333333,4,2,1,60,0,1
119079,-133.333333333333,4,2,1,60,0,1
119250,-133.333333333333,4,2,1,60,0,1
119422,-133.333333333333,4,2,1,60,0,0
120108,-100,4,2,1,65,0,0
120450,-66.6666666666667,4,2,1,65,0,0
120793,-66.6666666666667,4,2,1,60,0,0
121136,-133.333333333333,4,2,1,60,0,0
121308,-80,4,2,1,60,0,0
122165,-100,4,2,1,75,0,1
123793,-100,4,2,1,50,0,1
123879,-100,4,2,1,75,0,1
124136,-100,4,2,1,50,0,1
124222,-100,4,2,1,75,0,1
124479,-100,4,2,1,50,0,1
124565,-100,4,2,1,75,0,1
124908,-100,4,2,1,70,0,1
127650,-100,4,2,1,75,0,1
129279,-100,4,2,1,50,0,1
129365,-100,4,2,1,75,0,1
129622,-100,4,2,1,50,0,1
129708,-100,4,2,1,75,0,1
129965,-100,4,2,1,50,0,1
130050,-100,4,2,1,75,0,1
130393,-100,4,2,1,70,0,0
133136,-80,4,2,1,75,0,1
143079,-100,4,2,1,75,0,1
143422,-133.333333333333,4,2,1,75,0,1
143593,-133.333333333333,4,2,0,50,0,1
143765,-133.333333333333,4,2,1,75,0,1
144108,-133.333333333333,4,2,1,50,0,0
145308,-100,4,2,1,50,0,0
145393,-100,4,2,0,50,0,0
145479,-133.333333333333,4,2,1,50,0,0
148136,-133.333333333333,4,2,0,50,0,0
148222,-133.333333333333,4,2,1,50,0,0
150793,-100,4,2,1,50,0,0
150879,-100,4,2,0,50,0,0
150965,-100,4,2,1,50,0,0
151136,-133.333333333333,4,2,1,50,0,0
153536,-100,4,2,1,50,0,0
153708,-133.333333333333,4,2,1,50,0,0
154050,-100,4,2,1,50,0,0
154393,-80,4,2,1,50,0,0
155079,-100,4,2,1,60,0,0
155422,-100,4,2,0,60,0,0
155508,-100,4,2,1,60,0,0
156108,-100,4,2,0,60,0,0
156193,-100,4,2,1,60,0,0
156793,-100,4,2,0,60,0,0
156879,-100,4,2,1,60,0,0
157479,-100,4,2,0,60,0,0
157565,-100,4,2,1,60,0,0
158165,-100,4,2,0,60,0,0
158250,-100,4,2,1,60,0,0
158850,-100,4,2,0,60,0,0
158936,-100,4,2,1,60,0,0
159536,-100,4,2,0,60,0,0
159622,-100,4,2,1,60,0,0
160565,-100,4,2,1,65,0,0
160908,-100,4,2,0,65,0,0
161079,-100,4,2,1,65,0,0
162279,-100,4,2,0,65,0,0
162450,-100,4,2,1,65,0,0
163650,-100,4,2,0,65,0,0
163736,-100,4,2,1,65,0,0
165536,-100,4,2,0,32,0,0
165708,-333.333333333333,4,2,1,50,0,0
165965,-333.333333333333,4,2,0,5,0,0
166050,-80,4,2,1,75,0,1
171193,-80,4,2,1,75,0,0
171536,-80,4,2,1,75,0,1
176679,-80,4,2,1,75,0,0
177022,-80,4,2,1,75,0,1
181136,-62.5,4,2,1,75,0,1
182165,-62.5,4,2,1,75,0,0
182508,-62.5,4,2,1,75,0,1
182850,-80,4,2,1,75,0,1
186108,-50,4,2,1,75,0,1
186622,-66.6666666666667,4,2,1,75,0,1
186965,-133.333333333333,4,2,1,75,0,1
187650,-133.333333333333,4,2,1,75,0,0
187993,-66.6666666666667,4,2,1,70,0,1
188165,-100,4,2,1,70,0,1
188336,-100,4,2,1,70,0,0
188679,-66.6666666666667,4,2,1,70,0,1
188850,-50,4,2,1,70,0,1
189022,-50,4,2,1,70,0,0
189193,-133.333333333333,4,2,1,70,0,0
189365,-66.6666666666667,4,2,1,70,0,1
189536,-100,4,2,1,70,0,1
189708,-100,4,2,1,70,0,0
190050,-66.6666666666667,4,2,1,70,0,1
190222,-50,4,2,1,70,0,1
190393,-50,4,2,1,70,0,0
190736,-66.6666666666667,4,2,1,70,0,1
190908,-100,4,2,1,70,0,1
191079,-100,4,2,1,70,0,0
191422,-66.6666666666667,4,2,1,70,0,1
191593,-50,4,2,1,70,0,1
191765,-50,4,2,1,70,0,0
191936,-133.333333333333,4,2,1,70,0,0
192108,-66.6666666666667,4,2,1,70,0,1
192279,-100,4,2,1,70,0,1
192450,-100,4,2,1,70,0,0
192793,-66.6666666666667,4,2,1,70,0,1
192965,-50,4,2,1,70,0,1
193136,-50,4,2,0,70,0,0
193479,-133.333333333333,4,2,1,70,0,1
193736,-50,4,2,1,70,0,1
193822,-50,4,2,1,70,0,0
194165,-133.333333333333,4,2,1,70,0,1
194422,-50,4,2,1,70,0,1
194508,-50,4,2,1,70,0,0
194850,-133.333333333333,4,2,1,70,0,1
195108,-50,4,2,1,70,0,1
195193,-50,4,2,1,70,0,0
195536,-66.6666666666667,4,2,1,70,0,1
195708,-50,4,2,1,70,0,1
195879,-50,4,2,1,70,0,0
196222,-66.6666666666667,4,2,1,70,0,1
196393,-100,4,2,1,70,0,1
196565,-100,4,2,1,70,0,1
196908,-66.6666666666667,4,2,1,70,0,1
197079,-50,4,2,1,70,0,1
197593,-50,4,2,1,65,0,0
197936,-100,4,2,1,65,0,0
198965,-100,4,2,1,60,0,0
208565,-100,4,2,1,55,0,0
209936,-133.333333333333,4,2,1,50,0,0
219708,-133.333333333333,4,2,1,40,0,0
219879,-133.333333333333,4,2,1,50,0,0
220050,-133.333333333333,4,2,1,40,0,0
220222,-133.333333333333,4,2,1,50,0,0
220393,-133.333333333333,4,2,1,40,0,0

[Colours]
Combo1 : 128,128,128
Combo2 : 134,227,165
Combo3 : 233,206,160
Combo4 : 139,226,214
Combo5 : 27,179,186
Combo6 : 255,128,64
Combo7 : 239,16,33
Combo8 : 192,192,192

[HitObjects]
44,208,108,5,2,0:0:0:0:
187,151,279,1,0,0:0:0:0:
167,302,450,1,0,0:0:0:0:
142,82,622,85,2,0:0:0:0:
142,82,793,2,0,P|115:109|117:185,1,100,0|0,0:0|0:0,0:0:0:0:
162,230,1136,5,2,0:0:0:0:
307,143,1308,2,0,L|242:147,1,50,0|0,0:0|0:0,0:0:0:0:
187,151,1479,5,2,0:0:0:0:
333,222,1650,1,0,0:0:0:0:
320,63,1822,1,0,0:0:0:0:
241,242,1993,5,2,0:0:0:0:
245,253,2165,1,0,0:0:0:0:
455,176,2336,37,2,0:0:0:0:
381,158,2508,1,2,0:0:0:0:
307,143,2679,1,2,0:0:0:0:
245,253,2850,53,2,0:0:0:0:
190,184,3022,2,0,P|147:189|98:242,1,100,0|0,0:0|0:0,0:0:0:0:
82,352,3365,85,2,0:0:0:0:
31,210,3536,2,0,P|12:246|18:313,1,100,0|0,0:0|0:0,0:0:0:0:
82,352,3879,5,2,0:0:0:0:
269,324,4050,2,0,P|243:333|217:369,1,50,0|0,0:0|0:0,0:0:0:0:
161,382,4222,6,0,L|147:260,1,100,2|0,0:0|0:0,0:0:0:0:
105,225,4565,1,0,0:0:0:0:
258,70,4736,5,2,0:0:0:0:
234,219,4908,1,0,0:0:0:0:
57,163,5079,37,2,0:0:0:0:
132,153,5250,1,2,0:0:0:0:
206,140,5422,1,2,0:0:0:0:
383,172,5593,53,2,0:0:0:0:
234,219,5765,1,0,0:0:0:0:
256,70,5936,1,0,0:0:0:0:
317,240,6108,85,2,0:0:0:0:
317,240,6279,2,0,P|313:187|257:140,1,100,0|0,0:0|0:0,0:0:0:0:
206,140,6622,5,2,0:0:0:0:
396,51,6793,2,0,L|387:121,1,50,0|0,0:0|0:0,0:0:0:0:
383,172,6965,5,2,0:0:0:0:
321,12,7136,1,0,0:0:0:0:
487,35,7308,1,0,0:0:0:0:
284,72,7479,5,2,0:0:0:0:
286,84,7650,1,0,0:0:0:0:
64,48,7822,37,2,0:0:0:0:
135,67,7993,1,2,0:0:0:0:
205,88,8165,2,0,L|193:147,1,50,2|0,0:0|0:0,0:0:0:0:
131,176,8336,53,2,0:0:0:0:
205,302,8508,2,0,P|226:268|287:251,1,100,0|0,0:0|0:0,0:0:0:0:
383,305,8850,85,2,0:0:0:0:
331,188,9022,2,0,P|395:212|422:275,1,100,0|0,0:0|0:0,0:0:0:0:
434,364,9365,5,2,0:0:0:0:
506,291,9536,2,0,L|449:297,1,50,0|0,0:0|0:0,0:0:0:0:
242,377,9708,70,0,B|222:355|222:355|170:345,2,58.3333338896433,2|2|2,0:0|0:0|0:0,0:0:0:0:
312,282,9936,2,0,B|301:312|301:312|320:359,2,58.3333338896433,2|2|2,0:0|0:0|0:0,0:0:0:0:
200,273,10165,2,0,B|229:267|229:267|259:228,2,58.3333338896433,2|2|2,0:0|0:0|0:0,0:0:0:0:
50,357,10393,6,0,L|5:351,2,43.7500004172325,0|2|2,0:0|0:0|0:0,0:0:0:0:
122,357,10565,37,2,0:0:0:0:
109,281,10736,1,2,0:0:0:0:
96,206,10908,2,0,L|150:202,1,50,2|0,0:0|0:0,0:0:0:0:
328,140,11079,54,0,B|272:128|272:128|237:143|237:143|144:128,1,150.000005722046,6|0,1:3|0:0,0:0:0:0:
122,85,11422,1,8,3:2:0:0:
227,6,11593,1,2,1:2:0:0:
223,14,11679,1,0,1:0:0:0:
219,22,11765,2,0,L|231:94,1,50,2|0,1:2|0:0,0:0:0:0:
96,206,11936,2,0,L|108:134,1,50,0|0,1:0|0:0,0:0:0:0:
43,18,12108,1,10,3:2:0:0:
236,184,12279,2,0,P|200:188|168:236,1,50,10|0,1:0|0:0,0:0:0:0:
0,94,12450,70,0,P|34:104|82:72,1,50,2|0,1:2|0:0,0:0:0:0:
156,56,12622,1,0,1:0:0:0:
156,56,12708,1,0,1:0:0:0:
156,56,12793,2,0,P|129:79|132:137,1,50,10|0,3:2|0:0,0:0:0:0:
24,174,12965,1,2,1:2:0:0:
48,170,13050,1,0,1:0:0:0:
72,175,13136,1,0,1:0:0:0:
93,189,13222,1,0,1:0:0:0:
108,209,13308,6,0,P|100:173|48:147,1,50,10|0,1:2|0:0,0:0:0:0:
172,240,13479,6,0,P|196:216|208:172,1,62.5,10|0,1:2|0:0,0:0:0:0:
200,304,13650,70,0,P|236:301|276:272,1,75.0000028610231,10|0,1:2|0:0,0:0:0:0:
392,188,13822,54,0,P|340:140|244:172,1,150.000005722046,4|0,1:3|0:0,0:0:0:0:
204,116,14165,1,8,3:2:0:0:
288,32,14336,1,2,1:2:0:0:
288,32,14422,1,0,1:0:0:0:
288,32,14508,2,0,P|272:60|268:100,1,50,2|0,1:2|0:0,0:0:0:0:
144,176,14679,2,0,P|137:144|114:111,1,50,0|0,1:0|0:0,0:0:0:0:
212,0,14850,1,8,3:2:0:0:
376,120,15022,2,0,L|288:112,1,50,10|0,1:0|0:0,0:0:0:0:
120,28,15193,70,0,P|138:45|203:45,1,50,2|0,1:2|0:0,0:0:0:0:
272,156,15365,1,0,1:0:0:0:
272,156,15450,1,0,1:0:0:0:
272,156,15536,2,0,P|247:158|226:171,1,50,10|0,3:2|0:0,0:0:0:0:
372,8,15708,1,2,1:2:0:0:
387,27,15793,1,0,1:0:0:0:
408,40,15879,1,0,1:0:0:0:
433,44,15965,1,0,1:0:0:0:
457,40,16050,6,0,P|444:76|468:124,1,50,10|0,1:2|0:0,0:0:0:0:
336,73,16222,6,0,P|350:98|403:128,1,62.5,10|0,1:2|0:0,0:0:0:0:
276,196,16393,70,0,P|324:200|388:148,1,75.0000028610231,10|0,1:2|0:0,0:0:0:0:
144,80,16565,54,0,P|216:68|264:160,1,150.000005722046,4|0,1:3|0:0,0:0:0:0:
96,20,16908,1,8,3:2:0:0:
156,200,17079,1,2,1:2:0:0:
156,200,17165,1,0,1:0:0:0:
156,200,17250,2,0,P|161:167|175:143,1,50,2|0,1:2|0:0,0:0:0:0:
16,64,17422,2,0,P|29:94|30:122,1,50,0|0,1:0|0:0,0:0:0:0:
168,0,17593,1,8,3:2:0:0:
8,188,17765,2,0,L|92:180,1,50,10|0,1:0|0:0,0:0:0:0:
248,80,17936,70,0,P|219:65|170:80,1,50,2|0,1:2|0:0,0:0:0:0:
103,125,18108,2,0,P|110:101|128:84,1,50,2|0,1:2|0:0,0:0:0:0:
248,0,18279,1,8,3:2:0:0:
352,152,18450,1,0,1:0:0:0:
327,153,18536,1,0,1:0:0:0:
302,154,18622,1,0,1:0:0:0:
277,156,18708,1,0,1:0:0:0:
252,157,18793,6,0,P|256:189|292:229,1,50,10|0,1:2|0:0,0:0:0:0:
210,258,18965,6,0,P|181:246|160:224,1,62.5,10|0,1:2|0:0,0:0:0:0:
140,344,19136,70,0,P|188:344|228:312,1,75.0000028610231,10|0,1:2|0:0,0:0:0:0:
356,240,19308,54,0,B|316:256|316:256|344:388,1,150.000005722046,4|0,1:3|0:0,0:0:0:0:
400,180,19650,1,8,3:2:0:0:
452,304,19822,1,2,1:2:0:0:
452,304,19908,1,0,1:0:0:0:
452,304,19993,2,0,L|380:300,1,50,2|0,1:2|0:0,0:0:0:0:
280,180,20165,2,0,L|348:168,1,50,0|0,1:0|0:0,0:0:0:0:
504,244,20336,1,8,3:2:0:0:
338,360,20508,69,8,1:0:0:0:
342,356,20593,1,0,1:0:0:0:
346,352,20679,2,0,P|322:320|282:320,1,50,6|0,1:3|0:0,0:0:0:0:
276,256,20850,2,0,P|244:260|216:308,1,50,8|0,1:2|0:0,0:0:0:0:
160,232,21022,1,2,3:0:0:0:
172,352,21193,53,0,1:0:0:0:
172,352,21279,1,0,1:0:0:0:
172,352,21365,2,0,L|164:280,1,50,6|0,1:3|0:0,0:0:0:0:
148,112,21536,2,0,L|156:184,1,50,6|0,1:3|0:0,0:0:0:0:
160,232,21708,1,6,1:3:0:0:
140,40,21879,1,2,0:0:0:0:
304,60,22050,38,0,L|204:68,1,100,6|8,3:0|0:0,0:0:0:0:
84,84,22393,1,2,1:2:0:0:
244,192,22565,1,8,0:0:0:0:
244,192,22650,2,0,P|248:156|272:124,1,50,2|0,1:2|0:0,0:0:0:0:
332,152,22822,1,0,1:0:0:0:
332,152,22908,2,0,P|352:124|392:120,1,50,10|0,3:1|0:0,0:0:0:0:
508,176,23079,1,8,1:2:0:0:
432,52,23250,1,8,1:0:0:0:
432,52,23336,1,8,1:2:0:0:
432,52,23422,6,0,L|440:172,1,100,2|8,3:0|0:0,0:0:0:0:
504,248,23765,1,2,1:2:0:0:
388,200,23936,1,8,1:2:0:0:
388,200,24022,2,0,P|408:228|408:268,1,50,2|0,1:2|0:0,0:0:0:0:
368,300,24193,1,0,1:0:0:0:
368,300,24279,2,0,P|364:332|340:360,1,50,10|0,3:1|0:0,0:0:0:0:
216,224,24450,1,8,1:2:0:0:
240,226,24536,1,8,1:2:0:0:
265,228,24622,1,8,1:2:0:0:
290,230,24708,1,8,1:2:0:0:
315,233,24793,102,0,L|303:101,1,100,2|8,3:0|0:0,0:0:0:0:
368,84,25136,1,2,1:2:0:0:
276,16,25308,1,8,0:0:0:0:
276,16,25393,2,0,P|292:44|292:68,1,50,2|0,1:2|0:0,0:0:0:0:
236,112,25565,1,0,1:0:0:0:
236,112,25650,2,0,P|220:152|180:176,1,50,10|0,3:1|0:0,0:0:0:0:
80,112,25822,1,8,1:2:0:0:
132,264,25993,1,10,1:0:0:0:
132,264,26079,1,8,1:2:0:0:
132,264,26165,6,0,L|140:164,1,100,2|8,3:0|0:0,0:0:0:0:
152,24,26508,1,2,1:2:0:0:
79,111,26679,1,8,1:2:0:0:
79,111,26765,2,0,P|57:100|42:81,1,50,2|0,1:2|0:0,0:0:0:0:
186,146,26936,1,0,1:0:0:0:
186,146,27022,2,0,P|165:159|141:164,1,50,10|0,3:1|0:0,0:0:0:0:
260,0,27193,1,8,1:2:0:0:
244,19,27279,1,8,1:2:0:0:
235,42,27365,1,8,1:2:0:0:
233,67,27450,1,8,1:2:0:0:
238,91,27536,102,0,L|382:83,1,100,2|8,3:0|0:0,0:0:0:0:
473,176,27879,1,2,1:2:0:0:
492,60,28050,1,8,0:0:0:0:
492,60,28136,2,0,P|468:84|464:124,1,50,2|0,1:2|0:0,0:0:0:0:
401,138,28308,1,0,1:0:0:0:
401,138,28393,2,0,P|393:178|413:218,1,50,10|0,3:1|0:0,0:0:0:0:
436,248,28565,1,8,1:2:0:0:
264,260,28736,1,10,1:0:0:0:
264,260,28822,1,8,1:2:0:0:
264,260,28908,6,0,L|368:252,1,100,2|8,3:0|0:0,0:0:0:0:
466,171,29250,1,2,1:2:0:0:
400,368,29422,1,8,1:2:0:0:
400,368,29508,2,0,P|384:336|336:316,1,50,2|0,1:2|0:0,0:0:0:0:
364,252,29679,1,0,1:0:0:0:
364,252,29765,2,0,P|332:240|288:248,1,50,10|0,3:1|0:0,0:0:0:0:
187,349,29936,1,8,1:2:0:0:
210,340,30022,1,8,1:2:0:0:
235,341,30107,1,8,1:2:0:0:
257,351,30193,1,0,1:2:0:0:
274,369,30279,102,0,P|247:319|271:247,1,100,2|8,3:0|0:0,0:0:0:0:
316,239,30622,1,2,1:2:0:0:
156,256,30793,1,8,0:0:0:0:
156,256,30879,2,0,P|184:244|212:208,1,50,2|0,1:2|0:0,0:0:0:0:
228,112,31050,5,2,1:2:0:0:
228,112,31136,2,0,B|216:72|216:72|208:116,1,75.0000028610231,12|0,1:0|0:0,0:0:0:0:
252,278,31308,1,8,1:0:0:0:
332,160,31479,1,8,1:0:0:0:
332,160,31565,1,8,1:2:0:0:
332,160,31650,54,0,P|288:168|252:216,1,62.5,14|0,3:0|0:0,0:0:0:0:
174,83,31822,2,0,P|206:107|258:107,1,62.5,8|0,1:2|0:0,0:0:0:0:
420,0,31993,2,0,L|396:148,1,125,14|8,3:0|0:0,0:0:0:0:
328,312,32250,1,2,1:2:0:0:
328,312,32336,2,0,L|320:232,1,62.5,14|0,3:0|0:0,0:0:0:0:
512,192,32508,2,0,L|449:185,1,62.5,8|0,1:2|0:0,0:0:0:0:
284,8,32679,1,8,1:2:0:0:
281,23,32765,1,0,1:2:0:0:
281,39,32850,1,8,1:2:0:0:
284,54,32936,1,0,1:2:0:0:
289,68,33022,37,2,3:0:0:0:
360,32,33193,1,2,1:2:0:0:
208,4,33365,1,8,1:0:0:0:
260,144,33536,1,2,1:2:0:0:
260,144,33622,2,0,L|364:136,1,62.5,2|0,1:2|0:0,0:0:0:0:
492,4,33793,1,2,1:2:0:0:
492,4,33879,2,0,L|388:-4,1,62.5,2|0,1:2|0:0,0:0:0:0:
420,176,34050,2,0,B|400:184|388:204|388:204|394:97,1,150.000005722046,8|0,1:0|1:0,0:0:0:0:
512,224,34308,1,0,1:0:0:0:
512,224,34393,54,0,P|480:240|428:232,1,62.5,2|0,1:2|0:0,0:0:0:0:
496,88,34565,2,0,P|512:124|504:160,1,62.5,2|0,1:2|0:0,0:0:0:0:
384,272,34736,1,8,1:0:0:0:
512,376,34908,1,2,1:2:0:0:
512,376,34993,2,0,L|500:300,1,62.5,2|0,1:2|0:0,0:0:0:0:
404,136,35165,1,2,1:2:0:0:
404,136,35250,2,0,L|392:212,1,62.5,2|0,1:2|0:0,0:0:0:0:
284,284,35422,1,8,1:0:0:0:
252,283,35508,1,0,1:0:0:0:
222,281,35593,1,0,1:0:0:0:
190,281,35679,1,0,1:0:0:0:
160,280,35765,54,0,L|152:176,1,62.5,2|0,1:2|0:0,0:0:0:0:
284,156,35936,2,0,L|180:148,1,62.5,2|0,1:2|0:0,0:0:0:0:
66,74,36108,1,8,1:0:0:0:
248,16,36279,1,2,1:2:0:0:
248,16,36365,2,0,L|260:108,1,62.5,2|0,1:2|0:0,0:0:0:0:
87,234,36536,1,2,1:2:0:0:
87,234,36622,2,0,L|99:142,1,62.5,2|0,1:2|0:0,0:0:0:0:
323,43,36793,1,8,1:0:0:0:
66,74,36965,1,2,1:2:0:0:
95,82,37050,1,0,1:0:0:0:
126,80,37136,54,0,P|158:65|176:38,1,62.5,2|0,1:2|0:0,0:0:0:0:
356,121,37308,1,2,1:2:0:0:
215,255,37479,2,0,L|202:123,1,125,8|2,1:0|1:2,0:0:0:0:
447,23,37736,1,2,1:2:0:0:
447,23,37822,2,0,P|429:49|424:98,1,62.5,0|0,3:0|0:0,0:0:0:0:
497,248,37993,1,2,3:2:0:0:
277,182,38165,1,2,1:0:0:0:
292,180,38250,1,2,1:0:0:0:
308,179,38336,1,2,1:0:0:0:
323,178,38422,1,2,1:0:0:0:
339,177,38508,54,0,B|357:153|357:153|355:99,1,62.5,6|0,3:0|0:0,0:0:0:0:
209,0,38679,2,0,B|206:29|206:29|229:61,1,62.5,2|0,1:2|0:0,0:0:0:0:
434,161,38850,1,8,1:0:0:0:
213,252,39022,2,0,L|276:260,1,62.5,2|0,1:2|0:0,0:0:0:0:
464,52,39193,1,2,1:2:0:0:
464,52,39279,2,0,L|401:59,1,62.5,2|0,1:2|0:0,0:0:0:0:
352,376,39450,2,0,L|336:288,1,62.5,2|8,1:2|1:0,0:0:0:0:
116,128,39622,1,2,1:0:0:0:
142,145,39708,1,2,1:0:0:0:
173,151,39793,1,2,1:0:0:0:
203,145,39879,53,2,1:2:0:0:
204,156,39965,1,2,1:2:0:0:
206,165,40050,2,0,B|231:182|231:182|303:178,1,62.5,2|0,1:2|0:0,0:0:0:0:
401,59,40222,69,8,1:0:0:0:
395,50,40308,1,2,1:2:0:0:
390,42,40393,2,0,B|360:36|360:36|296:69,1,62.5,2|0,1:2|0:0,0:0:0:0:
189,269,40565,2,0,L|202:144,1,125,2|0,1:2|1:0,0:0:0:0:
152,36,40822,1,2,1:2:0:0:
148,48,40908,37,8,1:0:0:0:
177,57,40993,1,2,1:0:0:0:
208,54,41079,1,2,1:0:0:0:
235,40,41165,1,2,1:0:0:0:
255,16,41250,53,2,1:2:0:0:
260,28,41336,1,2,1:2:0:0:
264,36,41422,2,0,L|252:128,1,62.5,2|0,1:2|0:0,0:0:0:0:
64,256,41593,5,8,1:0:0:0:
68,244,41679,1,2,1:2:0:0:
72,236,41765,2,0,L|60:144,1,62.5,2|0,1:2|0:0,0:0:0:0:
364,148,41936,101,2,1:2:0:0:
364,148,42022,2,0,L|288:156,1,62.5,2|0,1:2|3:0,0:0:0:0:
120,328,42193,1,2,1:2:0:0:
120,328,42279,2,0,L|196:336,1,62.5,8|0,1:0|0:0,0:0:0:0:
8,48,42450,1,2,1:2:0:0:
12,64,42536,1,2,1:2:0:0:
12,80,42622,54,0,P|28:60|96:56,1,75.0000028610231,6|2,3:0|0:0,0:0:0:0:
136,0,42965,2,0,P|164:16|188:84,1,75.0000028610231,6|2,3:0|0:0,0:0:0:0:
188,64,43222,1,2,1:2:0:0:
184,76,43308,1,6,3:0:0:0:
372,0,43650,22,0,L|380:56,1,44.999998626709,8|0,1:0|0:0,0:0:0:0:
388,116,43993,69,6,3:0:0:0:
272,276,44165,1,2,1:0:0:0:
184,76,44336,2,0,P|196:105|188:148,1,50,10|0,3:2|0:0,0:0:0:0:
336,172,44508,5,2,1:0:0:0:
336,172,44593,2,0,P|278:167|242:229,1,100,2|2,0:0|3:0,0:0:0:0:
172,216,44765,1,0,1:0:0:0:
172,216,44850,2,0,P|152:277|244:348,1,100,2|0,0:0|0:0,0:0:0:0:
224,368,45022,1,8,3:1:0:0:
0,353,45193,2,0,P|28:349|68:317,1,75.0000028610231,2|0,3:2|0:0,0:0:0:0:
162,309,45365,101,2,3:0:0:0:
0,272,45536,1,2,1:0:0:0:
132,140,45708,2,0,L|104:208,1,50,10|0,3:2|0:0,0:0:0:0:
92,316,45879,5,2,1:0:0:0:
92,316,45965,2,0,P|88:272|32:216,1,100,2|2,0:0|3:0,0:0:0:0:
248,112,46136,1,0,1:0:0:0:
248,112,46222,2,0,P|211:137|191:213,1,100,2|0,3:2|3:0,0:0:0:0:
60,128,46393,5,8,3:1:0:0:
101,122,46479,1,2,1:0:0:0:
135,98,46565,1,2,1:0:0:0:
155,62,46650,1,2,1:0:0:0:
157,20,46736,85,2,3:0:0:0:
2,84,46908,1,2,1:0:0:0:
199,234,47079,2,0,P|191:190|171:166,1,50,10|0,3:2|0:0,0:0:0:0:
356,8,47250,5,2,1:0:0:0:
356,8,47336,2,0,P|327:47|328:100,1,100,2|0,3:2|0:0,0:0:0:0:
272,160,47508,1,0,1:0:0:0:
272,160,47593,2,0,P|291:204|337:230,1,100,2|0,3:2|0:0,0:0:0:0:
388,296,47765,1,8,3:1:0:0:
504,68,47936,1,2,3:1:0:0:
472,44,48022,1,2,3:1:0:0:
432,48,48108,101,2,3:0:0:0:
472,272,48279,1,2,3:1:0:0:
488,176,48450,5,8,3:2:0:0:
488,176,48536,2,0,P|449:130|368:158,1,100,2|0,0:0|3:0,0:0:0:0:
341,96,48708,1,0,3:0:0:0:
341,96,48793,2,0,P|297:116|270:200,1,100,2|0,0:0|3:0,0:0:0:0:
344,296,48965,21,2,3:2:0:0:
348,300,49050,1,2,3:2:0:0:
388,236,49136,101,8,3:1:0:0:
356,223,49222,1,2,1:0:0:0:
323,224,49308,1,2,3:1:0:0:
294,240,49393,1,2,1:0:0:0:
275,266,49479,85,2,3:0:0:0:
456,384,49650,1,2,1:0:0:0:
488,176,49822,2,0,P|464:200|452:232,1,50,10|0,3:2|0:0,0:0:0:0:
365,325,49993,5,2,1:0:0:0:
365,325,50079,2,0,P|393:281|381:225,1,100,2|2,0:0|3:0,0:0:0:0:
404,160,50250,1,0,1:0:0:0:
404,160,50336,2,0,P|380:112|328:88,1,100,2|0,0:0|0:0,0:0:0:0:
272,116,50508,1,8,3:1:0:0:
472,0,50679,2,0,P|440:20|424:80,1,75.0000028610231,2|0,3:2|0:0,0:0:0:0:
488,176,50850,101,2,3:0:0:0:
352,20,51022,1,2,1:0:0:0:
292,228,51193,2,0,L|308:160,1,50,10|0,3:2|0:0,0:0:0:0:
432,328,51365,5,2,1:0:0:0:
432,328,51450,2,0,P|392:284|332:280,1,100,2|2,0:0|3:0,0:0:0:0:
140,232,51622,1,0,1:0:0:0:
140,232,51708,2,0,P|211:212|243:130,1,100,2|0,3:2|3:0,0:0:0:0:
464,40,51879,5,8,3:1:0:0:
423,52,51965,1,2,1:0:0:0:
394,83,52050,1,2,1:0:0:0:
382,123,52136,1,2,1:0:0:0:
390,165,52222,85,2,3:0:0:0:
196,36,52393,1,2,1:0:0:0:
336,0,52565,2,0,L|316:84,1,50,10|0,3:2|0:0,0:0:0:0:
227,195,52736,5,2,1:0:0:0:
227,195,52822,2,0,P|211:143|127:111,1,100,2|0,3:2|0:0,0:0:0:0:
116,60,52993,1,0,1:0:0:0:
116,60,53079,2,0,P|61:85|38:158,1,100,2|0,3:2|0:0,0:0:0:0:
0,184,53250,1,8,3:1:0:0:
192,308,53422,1,2,3:1:0:0:
160,299,53508,1,2,3:1:0:0:
144,268,53593,102,0,P|148:236|176:200,1,50,2|0,3:0|0:0,0:0:0:0:
268,171,53765,2,0,P|244:177|227:195,1,50,2|0,1:2|0:0,0:0:0:0:
60,336,53936,102,0,L|54:261,1,75.0000028610231,2|0,3:0|0:0,0:0:0:0:
164,73,54108,2,0,L|169:147,1,75.0000028610231,2|0,3:2|0:0,0:0:0:0:
292,280,54279,37,2,3:0:0:0:
275,277,54365,1,0,1:0:0:0:
259,274,54450,1,2,1:0:0:0:
0,184,54622,1,2,0:1:0:0:
18,182,54708,1,2,0:1:0:0:
37,180,54793,1,2,0:1:0:0:
56,178,54879,1,2,0:1:0:0:
74,177,54965,70,0,L|60:72,1,100,2|2,3:2|1:0,0:0:0:0:
233,45,55222,1,2,1:0:0:0:
233,45,55308,2,0,B|178:52|178:52|138:32,1,100,2|0,3:2|0:0,0:0:0:0:
324,6,55565,2,0,L|312:110,1,100,2|0,1:2|0:0,0:0:0:0:
298,215,55822,2,0,P|278:200|253:196,1,50,2|0,3:2|0:0,0:0:0:0:
104,200,55993,1,8,1:0:0:0:
184,236,56165,1,2,0:1:0:0:
184,236,56250,1,2,0:1:0:0:
184,236,56336,22,0,L|176:116,1,100,2|2,3:2|1:0,0:0:0:0:
16,111,56593,1,2,1:0:0:0:
16,111,56679,2,0,B|62:125|62:125|109:105,1,100,2|0,3:2|3:0,0:0:0:0:
258,9,56936,2,0,L|244:138,1,100,2|0,1:2|0:0,0:0:0:0:
279,197,57193,2,0,P|289:174|318:154,1,50,2|0,3:2|0:0,0:0:0:0:
438,124,57365,1,8,1:0:0:0:
413,127,57450,1,2,0:1:0:0:
389,120,57536,1,2,0:1:0:0:
369,106,57622,1,2,0:1:0:0:
356,85,57708,86,0,P|390:118|369:207,1,100,2|2,3:2|1:0,0:0:0:0:
250,278,57965,1,2,1:0:0:0:
250,278,58050,2,0,L|370:269,1,100,2|0,3:2|0:0,0:0:0:0:
466,231,58308,2,0,P|430:264|434:344,1,100,2|0,1:2|0:0,0:0:0:0:
375,384,58565,2,0,P|365:361|339:341,1,50,2|0,3:2|0:0,0:0:0:0:
179,294,58736,1,8,1:0:0:0:
299,198,58908,1,2,0:1:0:0:
299,198,58993,1,2,0:1:0:0:
299,198,59079,22,0,P|284:251|226:283,1,100,2|2,3:2|1:0,0:0:0:0:
112,384,59336,1,2,1:0:0:0:
112,384,59422,2,0,P|96:337|54:310,1,100,2|0,3:2|3:0,0:0:0:0:
26,153,59679,2,0,L|125:157,1,100,2|0,1:2|0:0,0:0:0:0:
198,83,59936,2,0,P|205:103|199:135,1,50,2|0,3:2|0:0,0:0:0:0:
99,248,60108,1,8,1:0:0:0:
124,251,60193,1,2,0:1:0:0:
148,244,60279,1,2,0:1:0:0:
168,230,60365,1,2,0:1:0:0:
181,209,60450,86,0,L|168:331,1,100,2|2,3:2|1:0,0:0:0:0:
226,381,60708,1,2,1:0:0:0:
226,381,60793,2,0,P|239:354|281:338,1,50,2|0,3:2|0:0,0:0:0:0:
348,275,60965,1,2,1:0:0:0:
348,275,61051,2,0,L|235:270,1,100,2|0,1:2|0:0,0:0:0:0:
171,308,61307,1,2,3:0:0:0:
329,382,61479,1,8,1:0:0:0:
464,311,61650,1,2,0:1:0:0:
464,311,61736,1,2,0:1:0:0:
464,311,61822,22,0,P|470:250|431:208,1,100,2|2,3:2|1:0,0:0:0:0:
344,205,62079,1,2,1:0:0:0:
344,205,62165,2,0,P|357:224|394:235,1,50,2|0,3:2|0:0,0:0:0:0:
468,121,62336,1,2,3:1:0:0:
468,121,62422,2,0,L|344:130,1,100,2|0,1:2|0:0,0:0:0:0:
319,67,62679,1,2,3:0:0:0:
259,184,62850,1,8,1:0:0:0:
265,160,62935,1,2,0:1:0:0:
262,135,63021,1,2,0:1:0:0:
250,112,63107,1,2,0:1:0:0:
231,97,63193,86,0,P|267:100|324:56,1,100,2|2,1:2|1:0,0:0:0:0:
405,3,63450,1,2,1:0:0:0:
405,3,63536,2,0,P|395:36|404:79,1,50,2|0,3:2|0:0,0:0:0:0:
444,179,63708,1,2,1:0:0:0:
443,178,63793,2,0,P|415:139|368:127,1,100,2|0,1:2|0:0,0:0:0:0:
318,66,64050,1,2,3:0:0:0:
498,119,64222,1,8,1:0:0:0:
454,312,64393,1,2,0:1:0:0:
454,312,64479,1,2,0:1:0:0:
454,312,64565,22,0,L|331:306,1,100,2|2,3:2|1:0,0:0:0:0:
280,323,64822,1,2,1:0:0:0:
280,323,64907,2,0,P|277:297|311:249,1,50,2|0,3:2|0:0,0:0:0:0:
185,159,65079,1,2,1:0:0:0:
185,159,65165,2,0,P|211:189|183:279,1,100,2|0,1:2|0:0,0:0:0:0:
280,323,65422,1,2,3:0:0:0:
381,215,65593,1,8,1:0:0:0:
357,221,65678,1,2,0:1:0:0:
332,218,65764,1,2,0:1:0:0:
309,206,65850,1,2,0:1:0:0:
294,187,65936,54,0,L|285:89,1,75.0000028610231,2|0,3:0|0:0,0:0:0:0:
327,53,66108,2,0,B|277:34|277:34|226:68,1,100,8|2,3:1|0:0,0:0:0:0:
381,215,66450,5,2,1:2:0:0:
381,215,66536,1,2,1:2:0:0:
381,215,66622,2,0,L|372:321,1,100,2|0,3:0|0:0,0:0:0:0:
469,327,66793,2,0,L|429:357,1,50,0|0,3:0|0:0,0:0:0:0:
280,297,66965,2,0,L|306:339,1,50,0|0,3:0|0:0,0:0:0:0:
364,384,67137,1,2,0:0:0:0:
182,184,67308,102,0,L|191:59,1,75.0000028610231,2|0,3:0|0:0,0:0:0:0:
238,59,67479,2,0,B|197:31|197:31|138:55,1,100,8|2,3:1|0:0,0:0:0:0:
97,181,67822,5,2,1:2:0:0:
97,181,67908,1,2,1:2:0:0:
97,181,67993,2,0,L|104:283,1,75.0000028610231,2|0,3:0|0:0,0:0:0:0:
63,325,68165,2,0,B|110:339|110:339|155:314,1,100,8|0,3:1|0:0,0:0:0:0:
102,255,68336,1,10,3:2:0:0:
376,313,68679,22,0,L|301:322,1,75.0000028610231,2|0,3:0|0:0,0:0:0:0:
249,373,68850,2,0,B|224:332|224:332|238:283,1,100,8|2,3:1|0:0,0:0:0:0:
286,160,69193,6,0,L|385:168,1,100,2|0,3:2|0:0,0:0:0:0:
425,261,69365,2,0,P|445:248|474:242,1,50,2|0,3:0|0:0,0:0:0:0:
437,76,69536,2,0,P|466:101|506:107,1,50,0|0,3:0|0:0,0:0:0:0:
508,176,69708,1,2,3:1:0:0:
508,176,69793,1,2,3:1:0:0:
508,176,69879,2,0,L|418:173,1,50,0|0,3:0|0:0,0:0:0:0:
287,83,70050,102,0,L|155:90,1,100,2|0,3:0|0:0,0:0:0:0:
128,44,70222,2,0,B|107:90|107:90|129:133,1,100,8|2,3:1|0:0,0:0:0:0:
49,274,70565,5,2,0:1:0:0:
49,274,70650,1,2,0:1:0:0:
49,274,70736,2,0,L|144:276,1,75.0000028610231,2|0,3:0|0:0,0:0:0:0:
183,327,70908,2,0,B|207:283|207:283|186:228,1,100,8|0,3:1|0:0,0:0:0:0:
123,275,71079,1,6,1:0:0:0:
363,382,71422,54,0,L|368:285,1,75.0000028610231,2|0,3:0|0:0,0:0:0:0:
374,183,71593,1,2,1:2:0:0:
300,277,71765,2,0,P|319:245|326:208,1,50,8|0,3:1|0:0,0:0:0:0:
439,283,71937,2,0,P|421:253|416:214,1,50,0|0,0:0|0:0,0:0:0:0:
247,28,72108,6,0,L|254:122,1,75.0000028610231,2|0,3:0|0:0,0:0:0:0:
260,187,72279,1,2,1:2:0:0:
339,96,72450,2,0,P|317:122|312:153,1,50,8|0,3:1|0:0,0:0:0:0:
161,113,72622,2,0,P|187:131|209:183,1,50,0|0,3:0|0:0,0:0:0:0:
457,158,72793,102,0,L|462:72,1,75.0000028610231,2|0,3:0|0:0,0:0:0:0:
421,22,72965,2,0,B|470:5|470:5|512:30,1,100,10|0,1:2|0:0,0:0:0:0:
461,83,73136,1,8,3:1:0:0:
285,69,73308,5,2,0:1:0:0:
285,69,73393,1,2,0:1:0:0:
285,69,73479,2,0,L|292:143,1,75.0000028610231,2|0,3:0|0:0,0:0:0:0:
246,208,73651,2,0,B|290:213|305:251|305:251|311:211|349:197,1,150.000005722046,0|0,0:1|0:0,0:0:0:0:
293,144,73823,1,8,3:1:0:0:
235,281,74165,22,0,L|91:271,1,100,2|0,3:0|0:0,0:0:0:0:
146,160,74336,2,0,B|128:187|128:187|88:199,1,75.0000028610231,2|0,3:1|0:0,0:0:0:0:
121,383,74508,2,0,B|102:346|102:346|52:328,1,75.0000028610231,8|0,3:1|0:0,0:0:0:0:
14,260,74679,2,0,L|75:266,1,50,2|0,3:1|0:0,0:0:0:0:
306,322,74850,6,0,L|411:312,1,75.0000028610231,2|0,3:2|0:0,0:0:0:0:
451,307,75022,1,10,3:2:0:0:
422,376,75194,5,8,3:1:0:0:
422,376,75279,1,8,3:1:0:0:
406,250,75365,1,14,3:1:0:0:
406,250,75451,1,14,3:1:0:0:
256,192,75536,12,0,78193,0:0:0:0:
467,96,78280,21,2,0:0:0:0:
396,68,78965,1,2,0:0:0:0:
280,175,79650,101,2,0:0:0:0:
348,145,80336,1,2,0:0:0:0:
238,31,81022,5,2,0:0:0:0:
209,101,81708,1,2,0:0:0:0:
43,147,82393,101,2,0:0:0:0:
60,218,83079,1,2,0:0:0:0:
43,147,83422,5,2,0:0:0:0:
60,218,83765,101,2,0:0:0:0:
64,231,84450,1,2,0:0:0:0:
188,146,85136,5,2,0:0:0:0:
184,159,85821,1,2,0:0:0:0:
319,232,86507,101,2,0:0:0:0:
323,245,87193,1,2,0:0:0:0:
401,193,87878,5,2,0:0:0:0:
257,163,88565,102,0,L|254:181,6,18.7500007152558,2|0|0|0|0|0|0,0:0|0:0|0:0|0:0|0:0|0:0|0:0,0:0:0:0:
211,96,88908,2,0,L|213:77,6,18.7500007152558,2|0|0|0|0|0|0,0:0|0:0|0:0|0:0|0:0|0:0|0:0,0:0:0:0:
257,163,89250,37,2,0:0:0:0:
309,11,89422,2,0,P|302:35|253:66,1,50,2|0,0:1|0:0,0:0:0:0:
111,88,89593,2,0,L|210:95,1,100,2|2,0:0|0:1,0:0:0:0:
91,14,89936,1,2,0:0:0:0:
91,14,90022,1,0,0:0:0:0:
91,14,90108,1,2,0:0:0:0:
17,192,90279,2,0,P|50:161|102:161,1,75.0000028610231,8|2,0:0|0:1,0:0:0:0:
144,208,90536,1,2,0:1:0:0:
144,208,90622,70,0,P|181:232|195:308,1,100,2|2,0:0|0:1,0:0:0:0:
148,343,90965,1,2,0:0:0:0:
354,277,91136,1,2,0:1:0:0:
287,384,91308,2,0,L|273:255,1,100,2|2,0:0|0:1,0:0:0:0:
425,169,91651,1,8,0:0:0:0:
423,181,91737,1,0,0:0:0:0:
421,193,91823,1,2,0:1:0:0:
419,206,91908,1,0,0:0:0:0:
418,218,91994,37,2,0:0:0:0:
406,340,92165,2,0,P|426:315|431:275,1,50,2|0,0:1|0:0,0:0:0:0:
351,181,92336,2,0,L|233:188,1,100,2|2,0:0|0:1,0:0:0:0:
170,141,92679,1,2,0:0:0:0:
170,141,92765,1,0,0:0:0:0:
170,141,92850,1,2,0:1:0:0:
327,58,93022,2,0,P|288:91|283:132,1,75.0000028610231,8|2,0:0|0:1,0:0:0:0:
251,186,93280,1,0,0:0:0:0:
251,186,93365,70,0,P|271:230|315:252,1,100,2|2,0:0|0:1,0:0:0:0:
440,267,93708,1,0,0:0:0:0:
440,254,93793,1,0,0:0:0:0:
438,242,93879,1,2,0:1:0:0:
433,230,93965,1,0,0:0:0:0:
426,220,94050,2,0,P|398:208|358:215,1,50,2|0,0:0|0:0,0:0:0:0:
315,252,94222,1,2,0:1:0:0:
477,163,94393,1,8,0:0:0:0:
478,150,94478,1,0,0:0:0:0:
479,138,94564,1,2,0:1:0:0:
481,125,94650,1,0,0:0:0:0:
482,113,94735,37,2,0:0:0:0:
377,2,94908,2,0,P|388:29|384:56,1,50,2|0,0:1|0:0,0:0:0:0:
329,174,95079,2,0,P|365:130|441:131,1,100,2|2,0:0|0:1,0:0:0:0:
291,6,95422,1,2,0:0:0:0:
291,6,95508,1,0,0:0:0:0:
291,6,95593,1,2,0:1:0:0:
253,147,95765,2,0,L|239:59,1,75.0000028610231,8|2,0:0|0:1,0:0:0:0:
377,2,96022,1,0,0:0:0:0:
377,2,96108,70,0,L|360:133,1,100,2|2,0:0|0:1,0:0:0:0:
423,151,96450,1,2,0:0:0:0:
291,6,96622,1,2,0:1:0:0:
491,68,96793,1,2,0:0:0:0:
491,68,96879,1,0,0:0:0:0:
491,68,96965,2,0,P|459:73|433:95,1,50,2|0,0:1|0:0,0:0:0:0:
366,221,97136,1,8,0:0:0:0:
360,196,97221,1,0,0:0:0:0:
347,175,97307,1,2,0:1:0:0:
327,160,97393,1,0,0:0:0:0:
304,152,97478,37,2,0:0:0:0:
441,226,97650,1,2,0:1:0:0:
314,305,97822,1,2,0:0:0:0:
314,305,97908,1,0,0:0:0:0:
314,305,97993,1,2,0:1:0:0:
441,226,98165,2,0,L|378:216,1,50,2|0,0:0|0:0,0:0:0:0:
235,191,98336,1,2,0:1:0:0:
397,296,98508,1,8,0:0:0:0:
421,109,98679,1,2,0:1:0:0:
421,109,98765,1,0,0:0:0:0:
421,109,98850,69,2,0:0:0:0:
353,144,99022,1,2,0:1:0:0:
421,109,99193,5,2,0:0:0:0:
282,124,99364,1,2,1:0:0:0:
421,109,99536,101,2,0:0:0:0:
255,55,99708,1,2,3:1:0:0:
212,206,99880,5,8,0:0:0:0:
210,193,99965,1,0,0:0:0:0:
208,181,100051,1,2,0:1:0:0:
206,168,100137,1,2,0:1:0:0:
204,156,100222,38,0,B|270:149|270:149|290:152|290:152|400:138,1,150,2|0,3:2|0:0,0:0:0:0:
352,143,100565,1,0,1:0:0:0:
307,4,100736,2,0,L|300:78,1,75.0000028610231,2|0,0:0|0:0,0:0:0:0:
350,224,101079,1,0,1:0:0:0:
418,80,101250,1,0,3:0:0:0:
496,179,101422,6,0,L|399:186,1,75.0000028610231,2|0,0:0|0:0,0:0:0:0:
350,224,101765,1,0,1:0:0:0:
429,331,101936,2,0,L|419:235,1,75.0000028610231,2|0,3:2|0:0,0:0:0:0:
307,98,102279,2,0,B|316:136|316:136|296:179,1,75.0000028610231,2|0,0:0|0:0,0:0:0:0:
166,208,102622,1,0,1:0:0:0:
226,115,102793,102,0,L|231:164,1,37.5000014305115,2|0,0:0|0:0,0:0:0:0:
253,264,102965,1,0,3:0:0:0:
166,208,103136,2,0,B|111:217|111:217|84:238|84:238|2:248,1,150,2|0,0:0|0:0,0:0:0:0:
24,245,103479,1,0,1:0:0:0:
153,364,103650,2,0,L|164:277,1,75.0000028610231,2|0,0:0|0:0,0:0:0:0:
89,178,103993,1,0,1:0:0:0:
267,251,104165,6,0,L|204:251,1,37.5000014305115,2|0,3:2|0:0,0:0:0:0:
166,208,104336,1,0,1:0:0:0:
273,139,104508,1,0,1:0:0:0:
166,208,104679,2,0,L|156:109,1,75.0000028610231,2|0,3:2|0:0,0:0:0:0:
186,25,105022,2,0,B|232:63|232:63|330:44,1,150,2|0,0:0|0:0,0:0:0:0:
321,46,105365,1,0,3:0:0:0:
459,141,105535,1,0,1:0:0:0:
432,0,105708,102,0,L|414:96,1,75.0000028610231,2|0,3:2|0:0,0:0:0:0:
459,141,106051,1,0,1:0:0:0:
317,199,106393,6,0,L|303:125,1,75.0000028610231,2|0,0:0|0:0,0:0:0:0:
233,79,106736,1,0,3:0:0:0:
114,204,106908,1,0,1:0:0:0:
57,101,107079,2,0,B|114:110|114:110|138:130|138:130|206:143,1,150,2|0,0:0|0:0,0:0:0:0:
197,144,107422,2,0,L|185:241,1,75.0000028610231,2|0,3:2|0:0,0:0:0:0:
12,303,107765,102,0,B|80:332|125:297|139:274|139:274|123:331|175:372,1,225.000008583069,2|0,0:0|0:0,0:0:0:0:
252,279,108108,2,0,P|223:287|205:319,1,50,2|0,0:0|0:0,0:0:0:0:
234,371,108450,6,0,B|316:400|303:332|397:365,1,150,2|0,3:2|0:0,0:0:0:0:
438,320,108793,1,0,1:0:0:0:
383,186,108965,1,0,1:0:0:0:
512,249,109136,2,0,P|454:248|421:223,1,75.0000028610231,2|0,0:0|0:0,0:0:0:0:
328,64,109479,1,0,1:0:0:0:
388,111,109650,102,0,L|381:214,1,75.0000028610231,2|0,3:2|0:0,0:0:0:0:
453,71,109993,1,0,1:0:0:0:
259,20,110165,2,0,P|216:84|124:78,1,150.000005722046,2|0,3:2|0:0,0:0:0:0:
47,44,110679,2,0,P|61:81|61:144,1,75.0000028610231,2|0,0:0|3:0,0:0:0:0:
24,184,111022,1,0,1:0:0:0:
129,313,111193,6,0,P|131:239|155:168,1,150,2|0,3:2|0:0,0:0:0:0:
155,168,111536,1,4,1:0:0:0:
56,274,111708,1,0,1:0:0:0:
174,384,111879,2,0,P|203:351|261:338,1,75.0000028610231,2|0,0:0|0:0,0:0:0:0:
332,293,112222,2,0,P|299:274|262:270,1,75.0000028610231,10|0,3:2|0:0,0:0:0:0:
204,220,112565,101,0,1:0:0:0:
373,109,112736,2,0,L|366:183,1,75.0000028610231,2|4,0:0|3:1,0:0:0:0:
301,139,113079,1,0,0:0:0:0:
366,184,113250,6,0,P|408:186|443:158,2,75.0000028610231,2|0|8,0:0|0:0|1:2,0:0:0:0:
301,139,113765,1,0,1:0:0:0:
412,260,113936,2,0,P|400:299|393:350,1,75.0000028610231,2|0,3:2|0:0,0:0:0:0:
455,384,114279,1,4,1:0:0:0:
332,265,114450,2,0,B|252:249|265:307|183:289,1,150.000005722046,2|0,0:0|0:0,0:0:0:0:
88,244,114964,1,8,1:2:0:0:
88,244,115308,102,0,P|106:289|112:334,1,75.0000028610231,2|0,0:0|0:0,0:0:0:0:
65,378,115650,1,4,3:1:0:0:
188,290,115822,1,2,0:1:0:0:
188,290,115908,1,2,0:1:0:0:
188,290,115993,1,0,0:0:0:0:
319,348,116165,101,0,1:0:0:0:
420,360,116336,1,8,1:2:0:0:
319,348,116508,22,0,P|332:336|368:329,1,37.5000014305115,2|0,0:0|0:0,0:0:0:0:
420,360,116679,2,0,L|426:258,1,75.0000028610231,2|0,3:2|0:0,0:0:0:0:
480,144,117022,2,0,P|372:163|381:234,1,200,10|0,1:2|0:0,0:0:0:0:
497,276,117536,2,0,P|490:247|434:217,1,75.0000028610231,2|4,0:0|3:1,0:0:0:0:
379,231,117879,1,0,1:0:0:0:
270,189,118050,102,0,P|303:167|347:180,1,75.0000028610231,2|0,0:0|0:0,0:0:0:0:
456,219,118393,2,0,L|445:66,1,150.000005722046,10|0,1:2|0:0,0:0:0:0:
473,0,118908,1,0,1:0:0:0:
331,52,119079,2,0,P|367:75|377:124,1,75.0000028610231,10|0,1:2|0:0,0:0:0:0:
337,173,119422,53,2,0:1:0:0:
312,186,119507,1,2,0:1:0:0:
284,189,119593,1,2,0:1:0:0:
258,180,119679,1,2,0:1:0:0:
238,160,119764,1,2,0:1:0:0:
218,140,119850,1,2,0:1:0:0:
192,131,119936,1,2,0:1:0:0:
164,134,120022,1,2,0:1:0:0:
140,148,120108,38,0,P|129:177|136:215,1,50,2|0,1:0|0:0,0:0:0:0:
75,243,120279,2,0,P|83:266|99:285,1,50,2|0,1:0|0:0,0:0:0:0:
181,377,120450,38,0,P|206:345|273:339,1,75.0000028610231,8|0,1:2|0:0,0:0:0:0:
267,271,120622,2,0,P|313:280|340:311,1,75.0000028610231,8|0,1:2|0:0,0:0:0:0:
348,370,120794,101,2,1:2:0:0:
480,265,120965,1,2,1:2:0:0:
424,383,121136,102,0,L|426:345,1,37.5000014305115,0|0,3:0|0:0,0:0:0:0:
339,173,121308,2,0,L|332:306,1,125,8|0,1:0|0:0,0:0:0:0:
509,357,121650,101,2,3:2:0:0:
445,122,121822,37,14,1:0:0:0:
451,150,121907,1,2,1:0:0:0:
448,177,121993,1,2,1:0:0:0:
433,201,122079,1,2,1:0:0:0:
411,218,122165,85,2,3:0:0:0:
290,41,122336,2,0,P|290:67|326:113,1,50,2|0,0:1|0:0,0:0:0:0:
507,44,122508,6,0,P|454:36|397:87,1,100,8|2,1:0|0:1,0:0:0:0:
290,41,122765,1,2,0:1:0:0:
290,41,122850,2,0,P|253:92|264:166,1,100,0|2,3:0|0:1,0:0:0:0:
172,207,123108,1,2,0:1:0:0:
172,207,123193,2,0,P|184:268|229:304,1,100,8|2,1:0|0:1,0:0:0:0:
314,258,123450,1,2,0:1:0:0:
314,258,123536,53,0,3:0:0:0:
166,384,123708,2,0,P|158:359|129:329,1,50,2|2,0:1|0:0,0:0:0:0:
70,322,123879,1,8,1:0:0:0:
314,258,124050,102,0,P|296:277|284:317,1,50,2|2,0:1|0:0,0:0:0:0:
308,372,124221,1,0,3:0:0:0:
122,204,124393,22,0,P|147:209|188:199,1,50,2|2,0:1|0:0,0:0:0:0:
223,152,124565,1,8,1:0:0:0:
223,139,124650,1,2,0:1:0:0:
224,127,124736,1,2,0:1:0:0:
225,114,124822,1,2,0:1:0:0:
226,102,124907,5,0,3:0:0:0:
402,14,125079,2,0,P|377:26|363:60,1,50,0|0,1:0|0:0,0:0:0:0:
204,29,125250,38,0,P|253:28|300:89,1,100,8|0,0:1|1:0,0:0:0:0:
426,99,125508,1,0,1:0:0:0:
426,99,125593,2,0,P|443:144|427:210,1,100,2|0,3:2|1:0,0:0:0:0:
469,325,125850,1,0,1:0:0:0:
469,325,125936,2,0,P|426:372|370:386,1,100,8|2,0:1|1:2,0:0:0:0:
282,349,126193,1,0,1:0:0:0:
282,349,126280,37,0,3:0:0:0:
127,384,126450,2,0,P|143:370|175:366,1,50,0|0,1:0|0:0,0:0:0:0:
287,259,126622,1,8,0:1:0:0:
142,166,126793,102,0,L|139:253,1,50,0|0,1:0|0:0,0:0:0:0:
282,349,126965,1,2,3:2:0:0:
376,187,127136,102,0,P|336:183|306:160,1,50,0|0,1:0|0:0,0:0:0:0:
249,0,127308,1,8,1:0:0:0:
258,23,127393,1,0,1:0:0:0:
259,47,127479,1,2,1:2:0:0:
253,72,127565,1,0,1:0:0:0:
239,92,127650,69,2,3:0:0:0:
232,215,127822,2,0,P|233:198|251:165,1,50,2|0,0:1|0:0,0:0:0:0:
183,41,127993,6,0,P|127:54|96:118,1,100,8|2,1:0|0:1,0:0:0:0:
12,168,128250,1,2,0:1:0:0:
12,168,128336,2,0,P|14:223|67:282,1,100,0|2,3:0|0:1,0:0:0:0:
115,375,128593,1,2,0:1:0:0:
115,375,128679,2,0,P|177:372|220:335,1,100,8|2,1:0|0:1,0:0:0:0:
248,258,128936,1,2,0:1:0:0:
248,258,129022,53,0,3:0:0:0:
333,343,129193,2,0,P|302:325|275:325,1,50,2|2,0:1|0:0,0:0:0:0:
366,98,129365,101,8,1:0:0:0:
249,129,129536,2,0,P|280:111|293:87,1,50,2|2,0:1|0:0,0:0:0:0:
440,281,129708,21,0,3:0:0:0:
471,164,129879,2,0,P|470:199|484:223,1,50,2|2,0:1|0:0,0:0:0:0:
497,384,130050,1,8,1:0:0:0:
478,366,130135,1,0,0:0:0:0:
457,354,130221,1,0,0:0:0:0:
432,349,130307,1,0,0:0:0:0:
407,350,130392,5,0,3:0:0:0:
240,276,130565,2,0,P|262:293|279:336,1,50,0|0,1:0|0:0,0:0:0:0:
398,207,130736,38,0,P|371:254|313:276,1,100,8|0,0:1|1:0,0:0:0:0:
211,345,130993,1,0,1:0:0:0:
211,345,131079,2,0,P|159:334|120:279,1,100,2|0,3:2|1:0,0:0:0:0:
12,219,131336,1,0,1:0:0:0:
12,219,131422,2,0,P|3:163|42:103,1,100,8|2,0:1|1:2,0:0:0:0:
150,79,131679,1,0,1:0:0:0:
150,79,131765,37,2,3:2:0:0:
204,205,131936,2,0,P|172:213|140:248,1,50,0|0,1:0|0:0,0:0:0:0:
0,56,132108,1,8,0:1:0:0:
82,249,132279,102,0,L|90:167,1,50,0|0,1:0|0:0,0:0:0:0:
210,17,132450,1,2,3:2:0:0:
55,1,132623,102,0,P|72:32|113:48,1,50,0|0,1:0|0:0,0:0:0:0:
250,151,132793,1,8,1:0:0:0:
269,135,132878,1,0,1:0:0:0:
291,124,132964,1,0,1:0:0:0:
316,120,133050,1,0,1:0:0:0:
341,123,133136,70,0,L|323:-17,1,125,2|2,3:0|1:2,0:0:0:0:
501,85,133393,1,2,1:2:0:0:
500,0,133479,22,0,P|444:22|428:124,1,125,8|2,3:1|1:2,0:0:0:0:
441,233,133736,1,2,1:2:0:0:
507,188,133822,70,0,P|472:156|428:154,1,62.5,2|0,3:0|0:0,0:0:0:0:
418,78,133993,2,0,P|387:81|361:98,1,62.5,0|0,3:0|0:0,0:0:0:0:
316,242,134165,6,0,L|482:230,1,125,8|2,3:1|1:2,0:0:0:0:
438,384,134422,1,2,1:2:0:0:
510,359,134508,22,0,P|447:307|374:342,1,125,2|2,3:0|1:2,0:0:0:0:
250,288,134765,1,2,1:2:0:0:
328,366,134850,70,0,L|314:225,1,125,8|2,3:1|1:2,0:0:0:0:
197,141,135108,1,2,1:2:0:0:
180,217,135193,6,0,P|215:218|252:189,1,62.5,2|0,3:0|0:0,0:0:0:0:
275,140,135365,2,0,P|288:117|290:79,1,62.5,0|0,3:0|0:0,0:0:0:0:
503,92,135536,37,8,3:1:0:0:
512,83,135621,1,2,3:1:0:0:
437,51,135708,101,8,3:1:0:0:
439,39,135793,1,2,3:1:0:0:
363,58,135879,86,0,L|370:182,1,125,2|2,3:0|1:2,0:0:0:0:
269,316,136136,1,2,1:2:0:0:
328,366,136222,22,0,P|344:297|297:243,1,125,8|2,3:1|1:2,0:0:0:0:
196,189,136479,1,2,1:2:0:0:
185,262,136565,70,0,P|216:261|256:225,1,62.5,2|0,3:0|0:0,0:0:0:0:
316,254,136736,2,0,P|332:228|329:177,1,62.5,0|0,3:0|0:0,0:0:0:0:
362,57,136908,6,0,L|238:49,1,125,8|2,3:1|1:2,0:0:0:0:
91,81,137165,1,2,1:2:0:0:
125,146,137250,22,0,P|162:98|150:38,1,125,2|2,3:0|1:2,0:0:0:0:
23,300,137508,1,2,1:2:0:0:
0,229,137593,70,0,L|176:218,1,125,8|2,3:1|1:2,0:0:0:0:
245,128,137850,1,2,1:2:0:0:
254,206,137936,6,0,P|223:204|196:188,1,62.5,2|0,3:0|0:0,0:0:0:0:
237,49,138108,2,0,P|267:50|294:66,1,62.5,0|0,3:0|0:0,0:0:0:0:
316,254,138279,37,12,3:1:0:0:
339,181,138364,1,12,3:1:0:0:
406,147,138450,1,12,3:1:0:0:
481,160,138536,1,12,3:1:0:0:
485,330,138622,70,0,L|354:320,1,125,2|2,3:0|1:2,0:0:0:0:
186,168,138879,1,2,1:2:0:0:
147,237,138965,22,0,P|207:244|254:206,1,125,8|2,3:1|1:2,0:0:0:0:
428,86,139223,1,2,1:2:0:0:
389,25,139308,70,0,P|367:46|367:109,1,62.5,2|0,3:0|0:0,0:0:0:0:
312,130,139479,2,0,P|331:176|374:198,1,62.5,0|0,3:0|0:0,0:0:0:0:
473,222,139650,38,0,L|484:133,1,62.5,8|0,3:1|0:0,0:0:0:0:
389,369,139822,1,0,3:2:0:0:
385,352,139908,1,2,3:1:0:0:
461,323,139993,86,0,P|437:290|319:306,1,125,2|2,3:0|1:2,0:0:0:0:
164,263,140250,1,2,1:2:0:0:
243,384,140336,22,0,L|237:230,1,125,8|2,3:1|1:2,0:0:0:0:
204,71,140593,1,2,1:2:0:0:
170,143,140679,86,0,P|180:179|206:200,1,62.5,2|0,3:0|0:0,0:0:0:0:
307,135,140850,2,0,P|297:99|271:78,1,62.5,0|0,3:0|0:0,0:0:0:0:
150,2,141022,37,8,3:1:0:0:
158,14,141108,1,2,3:1:0:0:
91,46,141193,101,8,3:1:0:0:
99,58,141279,1,2,3:1:0:0:
31,86,141365,86,0,L|41:252,1,125,2|2,3:0|1:2,0:0:0:0:
118,349,141622,1,2,1:2:0:0:
43,331,141708,22,0,P|81:278|172:302,1,125,8|2,3:1|1:2,0:0:0:0:
325,312,141965,1,2,1:2:0:0:
255,348,142050,70,0,P|245:317|282:252,1,62.5,2|0,3:0|0:0,0:0:0:0:
301,233,142222,2,0,P|318:211|396:215,1,62.5,0|0,3:0|0:0,0:0:0:0:
451,159,142393,6,0,P|415:150|387:114,1,62.5,8|0,3:1|0:0,0:0:0:0:
192,52,142565,1,2,3:2:0:0:
191,42,142650,1,2,3:2:0:0:
264,25,142736,22,0,L|255:200,1,125,2|2,3:0|1:2,0:0:0:0:
423,230,142993,1,2,1:2:0:0:
451,159,143079,70,0,P|413:152|358:192,1,100,8|2,3:1|1:2,0:0:0:0:
255,308,143336,1,2,1:2:0:0:
233,237,143422,70,0,P|270:233|302:252,1,75.0000028610231,2|10,3:0|1:0,0:0:0:0:
488,272,143765,2,0,P|463:299|426:305,1,75.0000028610231,8|2,3:1|1:2,0:0:0:0:
423,230,144022,1,2,1:2:0:0:
423,230,144108,21,2,3:2:0:0:
395,87,144279,1,0,0:0:0:0:
494,181,144450,1,2,0:1:0:0:
364,163,144622,1,2,0:0:0:0:
479,99,144793,1,0,0:0:0:0:
351,12,144965,85,0,3:0:0:0:
272,19,145137,1,2,0:0:0:0:
195,26,145308,2,0,L|202:91,1,50,0|0,3:0|0:0,0:0:0:0:
169,237,145480,21,2,3:2:0:0:
289,195,145650,2,0,P|255:179|218:181,1,75.0000028610231,0|2,0:0|0:1,0:0:0:0:
143,303,145993,2,0,P|146:266|169:237,1,75.0000028610231,2|0,3:2|0:0,0:0:0:0:
190,364,146336,53,2,3:2:0:0:
324,349,146508,1,2,0:0:0:0:
310,336,146593,21,2,0:1:0:0:
294,327,146679,85,2,0:0:0:0:
276,322,146765,21,2,0:1:0:0:
257,322,146850,21,2,3:2:0:0:
462,242,147021,2,0,P|465:279|445:310,1,75.0000028610231,0|2,0:0|0:1,0:0:0:0:
386,219,147365,2,0,P|366:250|369:287,1,75.0000028610231,2|0,0:0|0:0,0:0:0:0:
277,125,147708,85,0,3:0:0:0:
277,125,147793,1,0,3:0:0:0:
277,125,147879,1,2,3:2:0:0:
372,140,148050,2,0,P|349:158|319:163,1,37.5000014305115,0|0,3:0|0:0,0:0:0:0:
236,241,148222,21,2,3:2:0:0:
214,170,148393,1,0,0:0:0:0:
163,223,148565,1,2,0:1:0:0:
254,355,148736,85,2,3:2:0:0:
274,338,148908,1,0,0:0:0:0:
253,329,149079,85,2,3:2:0:0:
390,276,149250,1,2,0:0:0:0:
371,274,149336,21,2,0:1:0:0:
352,272,149421,85,2,0:0:0:0:
333,271,149507,21,2,0:1:0:0:
315,269,149593,21,2,3:2:0:0:
236,108,149764,1,0,0:0:0:0:
394,187,149936,1,2,0:1:0:0:
217,215,150108,1,2,0:0:0:0:
344,92,150279,1,0,0:0:0:0:
475,277,150450,85,0,3:0:0:0:
395,273,150622,1,2,0:0:0:0:
315,269,150793,2,0,L|311:213,1,50,0|0,3:0|0:0,0:0:0:0:
344,92,150965,21,2,3:2:0:0:
512,2,151136,1,0,0:0:0:0:
464,64,151308,2,0,P|420:52|396:12,1,75.0000028610231,2|2,0:1|3:2,0:0:0:0:
235,89,151650,5,0,0:0:0:0:
286,0,151822,38,0,L|296:52,1,37.5000014305115,2|0,3:2|0:0,0:3:0:0:
384,196,151993,1,2,3:2:0:0:
390,178,152078,21,2,0:1:0:0:
401,163,152164,85,2,3:2:0:0:
415,150,152250,21,2,0:1:0:0:
432,142,152335,21,2,3:2:0:0:
420,316,152507,1,0,0:0:0:0:
316,164,152679,1,10,0:1:0:0:
488,232,152850,1,2,0:0:0:0:
320,272,153021,1,0,0:0:0:0:
231,156,153193,85,0,3:0:0:0:
316,164,153365,1,10,3:2:0:0:
400,168,153536,2,0,L|396:232,1,50,0|0,0:0|0:0,0:0:0:0:
276,380,153708,70,0,P|273:344|230:304,1,75.0000028610231,10|0,3:2|0:0,0:0:0:0:
216,244,153965,1,0,0:0:0:0:
229,234,154050,102,0,P|168:212|119:235,1,100,10|2,3:2|0:0,0:0:0:0:
56,232,154308,1,0,0:0:0:0:
48,224,154393,22,0,P|12:252|16:324,1,62.5,10|0,3:2|0:0,0:0:0:0:
88,348,154565,2,0,P|124:320|120:248,1,62.5,2|0,3:2|0:0,0:0:0:0:
229,234,154736,5,2,1:2:0:0:
197,246,154821,1,0,1:0:0:0:
163,242,154907,1,2,1:2:0:0:
136,221,154993,1,0,1:0:0:0:
122,193,155079,86,0,P|119:169|126:145,1,50,2|0,3:0|0:0,0:0:0:0:
272,44,155250,1,2,0:0:0:0:
72,55,155422,102,0,P|96:56|118:68,1,50,8|0,0:1|0:0,0:0:0:0:
248,156,155593,1,2,0:0:0:0:
184,4,155765,86,0,L|196:116,1,100,0|0,1:0|0:0,0:0:0:0:
304,232,156022,1,2,1:2:0:0:
304,232,156108,2,0,P|312:200|336:180,1,50,8|0,0:1|0:0,0:0:0:0:
126,145,156279,2,0,P|144:161|155:183,1,50,2|0,1:2|0:0,0:0:0:0:
264,60,156450,38,0,P|288:76|328:72,1,50,0|0,0:0|0:0,0:0:0:0:
468,0,156622,1,2,0:0:0:0:
424,176,156793,102,0,L|416:92,1,50,8|0,0:1|0:0,0:0:0:0:
312,0,156965,1,2,0:0:0:0:
248,152,157136,86,0,L|372:144,1,100,0|0,1:0|0:0,0:0:0:0:
512,64,157393,1,2,1:2:0:0:
512,64,157479,2,0,P|496:92|496:124,1,50,8|0,0:1|0:0,0:0:0:0:
376,264,157650,2,0,P|368:236|344:212,1,50,2|0,1:2|0:0,0:0:0:0:
392,32,157822,38,0,L|396:120,1,50,0|0,0:0|0:0,0:0:0:0:
512,212,157993,1,2,0:0:0:0:
355,220,158165,102,0,P|383:212|407:188,1,50,8|0,0:1|0:0,0:0:0:0:
512,64,158336,1,2,0:0:0:0:
509,312,158508,86,0,L|512:212,1,100,0|0,1:0|0:0,0:0:0:0:
416,124,158765,1,2,1:2:0:0:
416,124,158850,2,0,P|444:140|500:144,1,50,8|0,0:1|0:0,0:0:0:0:
344,308,159022,2,0,P|372:292|436:296,1,50,2|0,1:2|0:0,0:0:0:0:
208,196,159193,38,0,L|204:272,1,50,0|0,0:0|0:0,0:0:0:0:
328,380,159365,1,2,0:0:0:0:
328,224,159536,102,0,P|300:244|268:244,1,50,8|0,0:1|0:0,0:0:0:0:
176,372,159708,1,2,0:0:0:0:
62,205,159879,86,0,P|94:213|134:273,1,100,0|0,1:0|0:0,0:0:0:0:
176,372,160136,1,2,1:2:0:0:
176,372,160222,85,2,0:1:0:0:
178,359,160307,1,2,0:1:0:0:
183,348,160393,1,2,0:1:0:0:
189,337,160479,1,2,0:1:0:0:
197,327,160565,38,0,L|281:321,1,50,2|0,3:0|0:0,0:0:0:0:
371,359,160736,1,2,0:0:0:0:
328,202,160908,38,0,L|320:319,1,100,8|2,1:0|0:0,0:0:0:0:
483,361,161165,1,0,1:0:0:0:
483,361,161250,86,0,L|470:243,1,100,2|0,1:2|0:0,0:0:0:0:
328,202,161508,2,0,B|379:212|379:212|428:185,1,100,2|0,1:2|0:0,0:0:0:0:
512,2,161765,2,0,L|505:98,1,50,2|0,1:2|0:0,0:0:0:0:
421,188,161936,101,2,3:0:0:0:
421,188,162022,2,0,L|413:124,1,50,0|2,1:0|0:0,0:0:0:0:
241,0,162279,38,0,B|251:112,1,100,8|2,1:0|0:0,0:0:0:0:
58,194,162536,1,0,1:0:0:0:
58,194,162622,86,0,B|110:200|110:200|155:160,1,100,2|0,1:2|0:0,0:0:0:0:
273,256,162879,2,0,L|156:249,1,100,2|0,1:2|0:0,0:0:0:0:
11,117,163136,2,0,L|84:107,1,50,2|0,1:2|0:0,0:0:0:0:
303,168,163308,101,2,3:0:0:0:
303,168,163393,1,0,1:0:0:0:
303,168,163479,1,2,1:2:0:0:
139,0,163650,38,0,L|135:49,3,50,8|0|2|0,1:0|0:0|0:0|0:0,0:0:0:0:
14,198,163993,86,0,B|64:191|64:191|109:228,1,100,2|0,1:2|0:0,0:0:0:0:
303,168,164250,2,0,L|162:180,1,100,2|0,1:2|0:0,0:0:0:0:
128,365,164508,2,0,L|194:361,1,50,2|0,1:2|0:0,0:0:0:0:
443,190,164679,102,0,P|397:192|351:261,1,100,2|2,3:0|0:0,0:0:0:0:
358,303,164936,1,2,0:0:0:0:
416,356,165022,38,0,P|437:315|400:240,1,100,2|2,3:0|0:0,0:0:0:0:
358,227,165279,1,2,0:0:0:0:
284,249,165365,6,0,P|311:289|358:303,1,100,2|0,3:0|0:0,0:0:0:0:
512,291,165708,6,0,L|507:235,1,44.999998626709,0|0,0:0|0:0,0:0:0:0:
505,111,166050,86,0,P|453:170|377:160,1,125,2|2,3:0|1:0,0:0:0:0:
359,126,166308,1,2,1:0:0:0:
359,126,166393,2,0,P|336:99|339:39,1,62.5,8|0,3:1|0:0,0:0:0:0:
435,19,166565,2,0,P|423:52|369:79,1,62.5,0|0,1:0|0:0,0:0:0:0:
189,90,166736,5,2,3:2:0:0:
184,16,166822,1,2,3:2:0:0:
249,46,166908,2,0,P|262:78|257:113,1,62.5,2|0,3:2|0:0,0:0:0:0:
43,138,167079,54,0,P|103:128|171:199,1,125,8|2,3:1|1:0,0:0:0:0:
232,169,167336,1,2,1:0:0:0:
232,169,167422,38,0,P|235:244|155:310,1,125,2|2,3:0|1:0,0:0:0:0:
173,353,167679,1,2,1:0:0:0:
173,353,167765,2,0,P|128:366|92:349,1,62.5,8|0,3:1|0:0,0:0:0:0:
94,244,167936,2,0,P|127:276|131:316,1,62.5,0|0,1:0|0:0,0:0:0:0:
250,344,168108,5,2,3:2:0:0:
321,322,168193,1,2,3:2:0:0:
381,368,168279,2,0,P|391:339|417:312,1,62.5,2|0,3:2|0:0,0:0:0:0:
504,181,168450,54,0,L|417:184,1,62.5,8|0,3:1|0:0,0:0:0:0:
316,55,168622,1,2,1:0:0:0:
316,55,168708,1,2,1:0:0:0:
373,9,168793,38,0,P|389:77|328:127,1,125,2|2,3:0|1:0,0:0:0:0:
300,166,169050,1,2,1:0:0:0:
300,166,169136,2,0,P|260:154|239:119,1,62.5,8|0,3:1|0:0,0:0:0:0:
175,129,169308,2,0,P|167:110|172:64,1,62.5,0|0,1:0|0:0,0:0:0:0:
30,198,169479,5,2,3:2:0:0:
87,157,169565,1,2,3:2:0:0:
95,225,169650,2,0,L|91:302,1,62.5,2|0,3:2|0:0,0:0:0:0:
226,359,169822,54,0,L|380:344,1,125,8|2,3:1|3:1,0:0:0:0:
480,254,170079,1,2,3:1:0:0:
434,194,170165,38,0,L|366:190,1,62.5,2|0,3:0|0:0,0:0:0:0:
171,303,170336,2,0,L|167:235,1,62.5,0|0,3:0|0:0,0:0:0:0:
298,45,170508,2,0,L|302:169,1,125,8|2,3:1|3:1,0:0:0:0:
428,379,170765,1,2,3:1:0:0:
428,379,170850,70,0,L|433:316,1,62.5,2|0,3:0|0:0,0:0:0:0:
223,109,171022,2,0,L|217:171,1,62.5,0|0,3:0|0:0,0:0:0:0:
512,61,171193,1,8,3:1:0:0:
480,63,171278,1,2,0:1:0:0:
449,65,171364,1,2,3:1:0:0:
418,67,171450,1,2,0:1:0:0:
387,69,171536,38,0,B|394:118|394:118|408:144|408:144|415:205,1,125,2|2,3:0|3:1,0:0:0:0:
274,324,171793,1,2,3:1:0:0:
344,315,171879,54,0,P|313:263|253:255,1,125,14|2,3:1|3:1,0:0:0:0:
58,334,172136,1,2,3:1:0:0:
58,334,172222,69,2,3:2:0:0:
128,359,172308,1,2,3:2:0:0:
189,320,172393,2,0,L|173:233,1,62.5,2|0,3:2|0:0,0:0:0:0:
5,193,172565,54,0,P|64:199|121:105,1,125,8|2,3:1|3:1,0:0:0:0:
303,20,172822,1,2,3:1:0:0:
224,15,172908,38,0,B|233:61|233:61|261:85|261:85|273:157,1,125,2|2,3:0|3:1,0:0:0:0:
413,189,173165,1,2,3:1:0:0:
437,120,173250,54,0,P|376:123|340:170,1,125,14|2,3:1|3:1,0:0:0:0:
365,296,173508,1,2,3:1:0:0:
365,296,173593,69,2,3:2:0:0:
420,353,173679,1,2,3:2:0:0:
343,368,173765,2,0,P|312:351|300:298,1,62.5,2|0,3:2|0:0,0:0:0:0:
250,196,173936,101,14,3:1:0:0:
158,252,174022,1,10,3:1:0:0:
177,179,174108,5,14,3:1:0:0:
230,270,174194,1,10,3:1:0:0:
226,352,174279,102,0,B|179:357|179:357|153:340|153:340|89:348,1,125,2|2,3:0|3:1,0:0:0:0:
39,164,174536,1,2,3:1:0:0:
1,228,174622,54,0,P|67:234|112:164,1,125,14|2,3:1|3:1,0:0:0:0:
160,26,174879,1,2,3:1:0:0:
160,26,174965,69,2,3:2:0:0:
184,96,175050,1,2,3:2:0:0:
253,128,175136,2,0,P|291:128|316:109,1,62.5,2|0,3:2|0:0,0:0:0:0:
460,245,175308,54,0,L|308:236,1,125,8|2,3:1|3:1,0:0:0:0:
226,352,175565,1,2,3:1:0:0:
291,384,175650,38,0,L|355:378,1,62.5,2|0,3:0|0:0,0:0:0:0:
275,205,175822,2,0,L|211:199,1,62.5,0|0,3:0|0:0,0:0:0:0:
458,40,175993,2,0,B|484:75|484:75|460:162,1,125,8|2,3:1|3:1,0:0:0:0:
252,62,176250,1,2,3:1:0:0:
252,62,176336,70,0,L|242:-21,1,62.5,2|0,3:0|0:0,0:0:0:0:
384,251,176508,2,0,L|397:183,1,62.5,2|0,3:0|0:0,0:0:0:0:
226,352,176679,1,8,3:1:0:0:
195,349,176764,1,2,0:1:0:0:
164,346,176850,1,2,0:1:0:0:
133,344,176936,1,2,0:1:0:0:
102,341,177022,38,0,L|95:277,1,62.5,2|0,3:0|0:0,0:0:0:0:
175,58,177193,2,0,L|182:122,1,62.5,2|0,3:2|0:0,0:0:0:0:
301,251,177365,2,0,L|177:257,1,125,8|2,3:1|1:0,0:0:0:0:
36,63,177622,1,2,1:0:0:0:
36,63,177708,70,0,P|74:64|116:91,1,62.5,2|0,3:0|0:0,0:0:0:0:
176,257,177879,2,0,P|171:216|216:164,1,62.5,2|0,3:2|0:0,0:0:0:0:
286,74,178050,1,8,3:1:0:0:
78,152,178222,1,2,3:1:0:0:
78,152,178308,1,2,0:1:0:0:
78,152,178393,38,0,L|89:265,1,62.5,2|0,3:0|0:0,0:0:0:0:
237,374,178565,2,0,L|243:311,1,62.5,2|0,3:2|0:0,0:0:0:0:
38,355,178736,2,0,L|162:344,1,125,8|2,3:1|0:1,0:0:0:0:
357,267,178993,1,2,0:1:0:0:
357,267,179079,70,0,P|305:257|282:234,1,62.5,2|0,3:0|0:0,0:0:0:0:
187,92,179250,2,0,P|200:123|197:180,1,62.5,2|0,3:2|3:0,0:0:0:0:
386,203,179422,1,8,3:1:0:0:
400,175,179507,1,2,0:1:0:0:
425,156,179593,1,2,0:1:0:0:
454,147,179679,1,2,0:1:0:0:
485,151,179765,38,0,L|477:83,1,62.5,2|0,3:0|0:0,0:0:0:0:
259,25,179936,2,0,L|267:93,1,62.5,2|0,3:2|0:0,0:0:0:0:
511,10,180108,2,0,L|343:-4,1,125,8|2,3:1|0:1,0:0:0:0:
203,152,180365,1,2,3:1:0:0:
203,152,180450,70,0,P|236:154|270:189,1,62.5,2|0,3:0|0:0,0:0:0:0:
372,352,180622,2,0,P|364:321|368:290,1,62.5,2|0,3:2|0:0,0:0:0:0:
485,151,180793,1,8,3:1:0:0:
261,272,180965,1,2,1:0:0:0:
268,284,181050,1,2,3:1:0:0:
237,348,181136,38,0,L|131:342,1,80,2|0,3:0|0:0,0:0:0:0:
0,194,181308,2,0,L|84:186,1,80,2|0,3:2|0:0,0:0:0:0:
267,29,181479,2,0,B|231:63|231:63|271:214,1,160,8|2,3:1|3:1,0:0:0:0:
368,290,181736,1,2,3:1:0:0:
368,290,181822,70,0,B|388:255|388:255|376:176,1,80,2|0,3:0|3:0,0:0:0:0:
136,65,181993,2,0,B|131:106|131:106|167:156,1,80,2|0,3:2|3:0,0:0:0:0:
416,108,182165,1,8,3:1:0:0:
413,95,182250,1,2,0:1:0:0:
411,82,182336,1,2,3:1:0:0:
409,69,182422,1,2,0:1:0:0:
407,56,182507,37,2,3:0:0:0:
368,290,182679,1,10,3:2:0:0:
509,273,182850,54,0,P|474:232|399:229,1,125,8|2,3:1|0:1,0:0:0:0:
336,216,183108,1,2,0:1:0:0:
336,216,183193,6,0,P|306:241|297:303,1,62.5,2|0,3:0|0:0,0:0:0:0:
189,379,183365,2,0,P|189:347|159:303,1,62.5,2|0,0:0|0:0,0:0:0:0:
80,201,183536,1,8,3:1:0:0:
55,380,183708,2,0,P|94:376|132:335,1,62.5,0|0,3:0|0:0,0:0:0:0:
222,251,183879,37,2,3:0:0:0:
80,201,184050,1,10,3:2:0:0:
210,84,184222,54,0,P|175:119|175:223,1,125,8|2,3:1|0:1,0:0:0:0:
139,272,184479,1,2,0:1:0:0:
139,272,184565,6,0,P|156:306|197:324,1,62.5,2|0,3:0|0:0,0:0:0:0:
93,123,184736,2,0,P|68:105|6:106,1,62.5,2|0,3:2|3:0,0:0:0:0:
253,158,184908,1,8,3:1:0:0:
280,144,184993,1,2,0:1:0:0:
301,121,185079,1,2,0:1:0:0:
313,92,185165,1,2,0:1:0:0:
315,61,185250,37,2,3:0:0:0:
382,260,185423,1,10,3:2:0:0:
494,133,185593,54,0,P|453:93|376:97,1,125,8|2,3:1|0:1,0:0:0:0:
315,61,185850,1,2,3:1:0:0:
315,61,185936,6,0,P|282:83|268:130,1,62.5,2|0,3:0|0:0,0:0:0:0:
282,282,186108,2,0,B|294:308|294:308|305:238,1,100,2|0,0:0|0:0,0:0:0:0:
178,87,186279,1,8,3:1:0:0:
40,257,186450,1,2,1:0:0:0:
40,257,186536,1,2,3:1:0:0:
40,257,186622,38,0,P|87:255|122:299,1,75.0000028610231,2|0,3:0|0:0,0:0:0:0:
315,372,186793,2,0,P|268:374|233:330,1,75.0000028610231,10|0,3:2|0:0,0:0:0:0:
164,189,186965,54,0,L|169:244,1,37.5000014305115,14|0,3:1|0:0,0:0:0:0:
178,335,187136,2,0,L|173:280,1,37.5000014305115,14|0,3:1|0:0,0:0:0:0:
240,174,187308,5,2,3:0:0:0:
240,174,187393,1,2,0:1:0:0:
240,174,187479,1,2,0:1:0:0:
22,172,187650,1,8,3:1:0:0:
49,172,187736,1,2,0:1:0:0:
76,164,187821,1,2,0:1:0:0:
99,147,187908,1,2,0:1:0:0:
115,124,187993,102,0,L|106:29,1,75.0000028610231,2|0,3:0|0:0,0:0:0:0:
189,40,188165,2,0,P|167:15|161:-12,1,50,2|0,1:2|0:0,0:0:0:0:
26,43,188336,2,0,P|44:19|48:-15,1,50,10|0,1:0|0:0,0:0:0:0:
338,125,188508,5,2,0:0:0:0:
338,125,188593,1,2,0:1:0:0:
338,125,188679,2,0,L|326:262,1,75.0000028610231,2|0,1:0|0:0,0:0:0:0:
282,253,188850,2,0,B|324:283|324:283|383:256,1,100,2|0,3:2|0:0,0:0:0:0:
331,199,189022,1,10,1:0:0:0:
154,107,189193,101,2,0:0:0:0:
167,262,189365,2,0,L|159:177,1,75.0000028610231,2|0,3:0|0:0,0:0:0:0:
246,183,189536,2,0,P|225:165|215:142,1,50,2|0,1:2|0:0,0:0:0:0:
77,197,189708,2,0,P|89:180|98:142,1,50,10|0,1:0|0:0,0:0:0:0:
355,0,189879,5,2,3:2:0:0:
355,0,189965,1,2,0:1:0:0:
355,0,190050,2,0,L|337:137,1,75.0000028610231,2|0,1:0|0:0,0:0:0:0:
386,142,190222,2,0,B|340:163|340:163|294:130,1,100,2|0,3:2|0:0,0:0:0:0:
345,74,190393,1,10,1:0:0:0:
506,281,190736,22,0,L|406:287,1,75.0000028610231,2|0,3:0|0:0,0:0:0:0:
357,246,190908,2,0,P|382:232|407:188,1,50,2|0,1:2|0:0,0:0:0:0:
365,339,191079,2,0,P|403:354|423:381,1,50,10|0,1:0|0:0,0:0:0:0:
140,189,191250,5,2,0:0:0:0:
140,189,191336,1,2,0:1:0:0:
140,189,191422,2,0,L|234:192,1,75.0000028610231,2|0,1:0|0:0,0:0:0:0:
271,236,191593,2,0,B|299:193|299:193|271:148,1,100,2|0,3:2|0:0,0:0:0:0:
214,191,191765,1,10,1:0:0:0:
285,70,191936,101,2,0:0:0:0:
488,82,192108,2,0,L|397:74,1,75.0000028610231,2|0,3:0|0:0,0:0:0:0:
349,30,192279,2,0,P|370:19|391:-8,1,50,2|0,1:2|0:0,0:0:0:0:
346,117,192450,2,0,P|371:131|393:163,1,50,10|0,1:0|0:0,0:0:0:0:
237,315,192622,5,2,3:2:0:0:
237,315,192708,1,2,0:1:0:0:
237,315,192793,2,0,L|334:309,1,75.0000028610231,2|0,1:0|0:0,0:0:0:0:
363,260,192965,2,0,B|397:301|397:301|367:363,1,100,2|0,3:2|0:0,0:0:0:0:
310,311,193136,1,6,1:0:0:0:
458,182,193479,54,0,L|464:77,1,75.0000028610231,2|2,3:0|0:0,0:0:0:0:
512,57,193736,2,0,B|470:25|470:25|414:54,1,100,2|10,1:0|1:0,0:0:0:0:
233,114,193993,5,2,0:0:0:0:
233,114,194079,1,2,0:1:0:0:
233,114,194165,2,0,L|238:215,1,75.0000028610231,2|2,1:0|3:2,0:0:0:0:
196,251,194422,2,0,B|242:272|242:272|289:241,1,100,2|10,1:0|1:0,0:0:0:0:
72,182,194679,101,2,0:0:0:0:
72,182,194765,1,2,0:1:0:0:
72,182,194850,2,0,L|77:87,1,75.0000028610231,2|2,3:0|0:0,0:0:0:0:
124,56,195108,2,0,B|85:31|85:31|24:51,1,100,2|10,1:0|1:0,0:0:0:0:
311,0,195364,5,2,3:2:0:0:
311,0,195450,1,2,0:1:0:0:
311,0,195536,2,0,L|306:101,1,75.0000028610231,2|0,1:0|0:0,0:0:0:0:
350,137,195708,2,0,B|304:158|304:158|257:127,1,100,2|0,3:2|0:0,0:0:0:0:
307,74,195879,1,10,1:0:0:0:
495,298,196222,22,0,L|381:303,1,75.0000028610231,2|0,3:0|0:0,0:0:0:0:
407,384,196393,2,0,P|387:365|346:355,1,50,2|0,3:2|0:0,0:0:0:0:
403,223,196565,2,0,P|373:246|339:252,1,50,10|0,3:1|0:0,0:0:0:0:
34,191,196736,5,2,3:0:0:0:
34,191,196822,1,0,0:0:0:0:
34,191,196908,2,0,L|181:188,1,75.0000028610231,2|0,3:1|0:0,0:0:0:0:
160,122,197079,2,0,B|92:103|92:103|121:96,1,100,2|0,3:2|0:0,0:0:0:0:
154,257,197250,2,0,B|85:276|85:276|113:283,1,100,10|0,3:1|0:0,0:0:0:0:
201,189,197422,1,10,3:2:0:0:
431,335,197593,37,2,0:0:0:0:
431,335,197765,1,2,0:1:0:0:
356,338,197936,102,0,P|368:287|418:263,1,100,2|2,0:0|0:1,0:0:0:0:
283,310,198193,38,0,P|256:269|267:221,1,100,2|2,0:0|0:1,0:0:0:0:
266,221,198450,1,2,0:0:0:0:
228,368,198622,38,0,P|180:357|154:315,1,100,10|0,0:1|0:0,0:0:0:0:
222,139,198965,21,2,3:2:0:0:
37,230,199136,1,2,1:2:0:0:
163,86,199308,21,8,3:1:0:0:
147,159,199478,1,2,0:1:0:0:
147,159,199565,1,2,0:0:0:0:
77,143,199736,1,2,0:0:0:0:
77,143,199822,1,2,0:1:0:0:
90,70,199993,1,8,3:1:0:0:
299,23,200165,85,2,1:2:0:0:
299,23,200250,1,2,1:0:0:0:
299,23,200336,1,2,3:2:0:0:
107,0,200508,1,2,1:0:0:0:
234,66,200679,21,8,3:1:0:0:
302,103,200850,1,2,0:1:0:0:
302,103,200936,1,2,0:0:0:0:
361,61,201107,1,2,0:0:0:0:
361,61,201193,1,2,0:1:0:0:
318,201,201365,85,8,3:1:0:0:
342,198,201450,1,2,0:1:0:0:
367,196,201536,1,2,1:2:0:0:
392,194,201622,1,2,0:1:0:0:
417,192,201708,1,2,3:2:0:0:
352,384,201879,1,2,1:0:0:0:
478,243,202050,21,8,3:1:0:0:
410,274,202222,1,2,0:1:0:0:
410,274,202308,1,2,0:0:0:0:
440,345,202479,1,2,0:0:0:0:
440,345,202565,1,2,0:1:0:0:
509,314,202736,1,8,3:1:0:0:
295,259,202908,85,2,1:2:0:0:
295,259,202993,1,2,0:1:0:0:
295,259,203079,1,2,3:2:0:0:
487,169,203250,1,2,1:0:0:0:
343,319,203422,37,8,3:1:0:0:
330,172,203593,1,2,0:1:0:0:
330,172,203679,1,2,0:0:0:0:
474,245,203850,1,2,0:0:0:0:
474,245,203936,1,2,0:1:0:0:
420,66,204108,69,8,3:1:0:0:
416,90,204193,1,2,0:1:0:0:
413,115,204279,1,2,1:2:0:0:
409,140,204365,1,2,0:1:0:0:
406,165,204450,1,2,3:2:0:0:
235,56,204622,1,2,1:0:0:0:
333,170,204793,21,8,3:1:0:0:
303,107,204965,1,2,0:1:0:0:
303,107,205050,1,2,0:0:0:0:
235,136,205222,1,2,0:0:0:0:
235,136,205308,1,2,0:1:0:0:
264,204,205479,1,8,3:1:0:0:
311,31,205650,85,2,1:2:0:0:
311,31,205736,1,2,0:1:0:0:
311,31,205823,1,2,3:2:0:0:
97,41,205993,1,2,1:0:0:0:
235,56,206165,21,8,3:1:0:0:
173,13,206336,1,2,0:1:0:0:
173,13,206422,1,2,0:0:0:0:
162,86,206593,1,2,0:0:0:0:
162,86,206679,1,2,0:1:0:0:
310,150,206850,85,8,3:1:0:0:
334,148,206935,1,2,0:1:0:0:
359,146,207021,1,2,1:2:0:0:
384,144,207108,1,2,0:1:0:0:
442,103,207192,5,2,3:2:0:0:
381,219,207365,5,2,1:0:0:0:
397,217,207451,1,0,1:0:0:0:
414,216,207536,1,2,3:2:0:0:
385,296,207708,5,2,1:0:0:0:
401,294,207794,1,0,1:0:0:0:
418,293,207879,1,2,3:2:0:0:
391,375,208050,69,2,1:0:0:0:
407,373,208136,1,0,1:0:0:0:
424,372,208221,1,2,3:2:0:0:
316,263,208393,54,0,L|254:260,1,50,8|0,0:1|0:0,0:0:0:0:
209,309,208565,101,2,1:2:0:0:
210,318,208736,1,2,0:1:0:0:
101,224,208908,37,2,1:2:0:0:
152,363,209079,1,2,0:1:0:0:
212,148,209250,5,2,1:2:0:0:
56,294,209422,1,2,0:1:0:0:
276,358,209593,1,2,1:2:0:0:
288,356,209678,1,2,0:1:0:0:
300,354,209764,1,2,0:1:0:0:
313,353,209850,1,2,0:1:0:0:
325,351,209936,6,0,L|334:262,1,75.0000028610231,0|2,1:0|0:1,0:0:0:0:
436,243,210279,2,0,L|428:150,1,75.0000028610231,8|2,1:2|0:1,0:0:0:0:
473,347,210622,2,0,P|440:322|390:325,1,75.0000028610231,0|2,1:0|0:1,0:0:0:0:
263,259,210965,1,8,1:2:0:0:
362,132,211136,1,2,0:1:0:0:
362,132,211222,1,2,0:1:0:0:
362,132,211308,6,0,L|352:232,1,75.0000028610231,0|2,1:0|0:1,0:0:0:0:
263,259,211650,2,0,L|273:359,1,75.0000028610231,8|2,1:2|0:1,0:0:0:0:
211,150,211993,2,0,P|242:175|282:182,1,75.0000028610231,0|2,1:0|0:1,0:0:0:0:
466,70,212336,1,8,1:2:0:0:
449,85,212421,1,2,0:1:0:0:
438,105,212507,1,2,0:1:0:0:
435,127,212593,1,2,0:1:0:0:
438,150,212679,102,0,L|534:140,1,75.0000028610231,0|2,1:0|0:1,0:0:0:0:
320,22,213022,2,0,L|416:35,1,75.0000028610231,8|2,1:2|0:1,0:0:0:0:
275,182,213365,2,0,P|264:144|229:121,1,75.0000028610231,0|2,1:0|0:1,0:0:0:0:
69,138,213708,1,8,1:2:0:0:
178,24,213879,1,2,0:1:0:0:
178,24,213965,1,2,0:1:0:0:
178,24,214050,6,0,L|166:131,1,75.0000028610231,0|2,1:0|0:1,0:0:0:0:
69,138,214393,2,0,L|76:229,1,75.0000028610231,8|2,1:2|0:1,0:0:0:0:
222,245,214736,2,0,P|177:209|136:213,1,75.0000028610231,0|2,1:0|0:1,0:0:0:0:
58,364,215079,1,8,1:2:0:0:
76,361,215164,1,2,0:1:0:0:
95,358,215250,1,2,0:1:0:0:
113,355,215336,1,2,0:1:0:0:
132,352,215422,38,0,L|236:359,1,75.0000028610231,0|2,1:0|0:1,0:0:0:0:
296,237,215679,1,0,1:0:0:0:
296,237,215765,2,0,L|222:245,1,75.0000028610231,8|2,1:2|0:1,0:0:0:0:
355,365,216108,2,0,P|310:340|299:294,1,75.0000028610231,0|2,1:0|0:1,0:0:0:0:
365,219,216450,1,8,1:2:0:0:
470,329,216622,1,2,0:1:0:0:
470,329,216708,1,2,0:1:0:0:
470,329,216793,6,0,L|482:232,1,75.0000028610231,0|2,1:0|0:1,0:0:0:0:
349,145,217050,1,0,1:0:0:0:
349,145,217136,2,0,L|366:226,1,75.0000028610231,8|2,1:2|0:1,0:0:0:0:
491,123,217479,2,0,P|451:93|406:96,1,75.0000028610231,0|2,1:0|0:1,0:0:0:0:
269,150,217822,1,8,1:2:0:0:
241,156,217907,1,2,0:1:0:0:
213,154,217993,1,2,0:1:0:0:
188,143,218079,1,2,0:1:0:0:
156,81,218164,53,0,1:0:0:0:
169,218,218336,5,2,0:1:0:0:
135,202,218421,1,0,0:0:0:0:
117,170,218507,1,0,1:0:0:0:
244,16,218679,5,2,0:1:0:0:
247,52,218764,1,0,0:0:0:0:
228,84,218850,1,0,1:0:0:0:
28,13,219023,69,2,0:1:0:0:
93,57,219194,1,2,1:0:0:0:
29,92,219365,1,2,0:1:0:0:
29,92,219450,1,2,0:1:0:0:
29,92,219536,85,2,0:1:0:0:
40,163,219708,101,2,0:0:0:0:
102,213,219879,5,2,0:1:0:0:
113,142,220051,101,2,0:0:0:0:
172,95,220222,5,2,0:1:0:0:
183,166,220394,101,2,0:0:0:0:
253,138,220565,1,10,0:0:0:0:
272,140,220650,1,2,0:0:0:0:
291,143,220736,1,2,0:0:0:0:
309,146,220822,1,2,0:0:0:0:
