osu file format v14

[General]
AudioFilename: audio.mp3
AudioLeadIn: 0
PreviewTime: 43908
Countdown: 0
SampleSet: Soft
StackLeniency: 0.4
Mode: 0
LetterboxInBreaks: 0
WidescreenStoryboard: 1

[Editor]
Bookmarks: 60375,122090
DistanceSpacing: 1.2
BeatDivisor: 4
GridSize: 32
TimelineZoom: 1.1

[Metadata]
Title:RAT RACE
TitleUnicode:RAT RACE
Artist:TORIENA
ArtistUnicode:TORIENA
Creator:Acyl
Version:Collab Advanced
Source:
Tags:Electronic Chippunk osu!international mapping contest #3 o!imc3 len moecho necho fast kawashiro flask
BeatmapID:2232545
BeatmapSetID:1027510

[Difficulty]
HPDrainRate:4
CircleSize:3
OverallDifficulty:5
ApproachRate:6
SliderMultiplier:1.4
SliderTickRate:1

[Events]
//Background and Video events
0,0,"contest_background.jpg",0,0
//Break Periods
//Storyboard Layer 0 (Background)
//Storyboard Layer 1 (Fail)
//Storyboard Layer 2 (Pass)
//Storyboard Layer 3 (Foreground)
//Storyboard Layer 4 (Overlay)
//Storyboard Sound Samples

[TimingPoints]
108,342.857142857143,4,2,1,35,1,0
279,-100,4,2,0,50,0,0
622,-100,4,2,1,35,0,0
793,-100,4,2,0,50,0,0
1136,-100,4,2,1,35,0,0
1479,-100,4,2,1,35,0,0
1821,-100,4,2,0,50,0,0
1993,-100,4,2,1,35,0,0
2164,-100,4,2,0,50,0,0
2165,-100,4,2,0,50,0,0
2336,-100,4,2,1,35,0,0
3021,-100,4,2,0,50,0,0
3365,-100,4,2,1,35,0,0
3536,-100,4,2,0,50,0,0
3879,-100,4,2,1,35,0,0
4222,-100,4,2,1,35,0,0
4564,-100,4,2,0,50,0,0
4736,-100,4,2,1,35,0,0
4908,-100,4,2,0,50,0,0
5079,-100,4,2,1,35,0,0
5764,-100,4,2,0,50,0,0
6108,-100,4,2,1,35,0,0
6279,-100,4,2,0,50,0,0
6622,-100,4,2,1,35,0,0
6965,-100,4,2,1,35,0,0
7307,-100,4,2,0,50,0,0
7479,-100,4,2,1,35,0,0
7650,-100,4,2,0,50,0,0
7822,-100,4,2,1,35,0,0
8336,-100,4,2,1,35,0,0
8507,-100,4,2,0,50,0,0
8850,-100,4,2,1,35,0,0
9021,-100,4,2,0,50,0,0
9022,-100,4,2,0,50,0,0
9365,-100,4,2,1,35,0,0
9708,-100,4,2,0,50,0,0
9965,-100,4,2,0,50,0,0
10222,-100,4,2,1,25,0,0
10393,-100,4,2,0,50,0,0
10565,-100,4,2,1,35,0,0
10907,-100,4,2,0,50,0,0
10908,-100,4,2,0,50,0,0
11079,-100,4,2,1,60,0,0
13307,-100,4,2,1,75,0,0
13308,-100,4,2,1,75,0,0
13822,-100,4,2,1,60,0,0
16050,-100,4,2,1,75,0,0
16565,-100,4,2,1,60,0,0
18793,-100,4,2,1,75,0,0
19308,-100,4,2,1,60,0,0
20679,-100,4,2,1,65,0,0
21365,-100,4,2,1,70,0,0
21536,-100,4,2,1,50,0,0
22050,-100,4,2,1,55,0,0
22222,-100,4,2,0,55,0,0
22393,-100,4,2,1,55,0,0
22565,-100,4,2,0,55,0,0
22650,-100,4,2,1,55,0,0
23079,-100,4,2,0,55,0,0
23250,-100,4,2,1,55,0,0
23336,-100,4,2,0,55,0,0
23422,-100,4,2,1,55,0,0
23593,-100,4,2,0,55,0,0
23765,-100,4,2,1,55,0,0
23936,-100,4,2,0,55,0,0
24021,-100,4,2,1,55,0,0
24022,-100,4,2,1,55,0,0
24450,-100,4,2,0,55,0,0
24793,-100,4,2,1,55,0,0
24964,-100,4,2,0,55,0,0
24965,-100,4,2,0,55,0,0
25136,-100,4,2,1,55,0,0
25308,-100,4,2,0,55,0,0
25393,-100,4,2,1,55,0,0
25822,-100,4,2,0,55,0,0
25993,-100,4,2,1,55,0,0
26079,-100,4,2,0,55,0,0
26165,-100,4,2,1,55,0,0
26336,-100,4,2,0,55,0,0
26508,-100,4,2,1,55,0,0
26679,-100,4,2,0,55,0,0
26764,-100,4,2,1,55,0,0
26765,-100,4,2,1,55,0,0
27193,-100,4,2,0,55,0,0
27536,-100,4,2,1,55,0,0
27707,-100,4,2,0,55,0,0
27708,-100,4,2,0,55,0,0
27879,-100,4,2,1,55,0,0
28050,-100,4,2,0,55,0,0
28135,-100,4,2,1,55,0,0
28136,-100,4,2,1,55,0,0
28565,-100,4,2,0,55,0,0
28736,-100,4,2,1,55,0,0
28822,-100,4,2,0,55,0,0
28908,-100,4,2,1,55,0,0
29079,-100,4,2,0,55,0,0
29250,-100,4,2,1,55,0,0
29422,-100,4,2,0,55,0,0
29507,-100,4,2,1,55,0,0
29508,-100,4,2,1,55,0,0
29936,-100,4,2,0,55,0,0
30279,-100,4,2,1,55,0,0
30450,-100,4,2,0,55,0,0
30622,-100,4,2,1,55,0,0
30793,-100,4,2,0,55,0,0
30878,-100,4,2,1,55,0,0
30879,-100,4,2,1,55,0,0
31136,-100,4,2,0,55,0,0
31479,-100,4,2,1,55,0,0
31565,-100,4,2,0,55,0,0
31650,-100,4,2,1,50,0,0
31821,-100,4,2,0,55,0,0
31822,-100,4,2,0,55,0,0
31993,-100,4,2,1,55,0,0
32164,-100,4,2,0,55,0,0
32165,-100,4,2,0,55,0,0
32336,-100,4,2,1,55,0,0
32507,-100,4,2,0,55,0,0
32508,-100,4,2,0,55,0,0
32679,-100,4,2,1,55,0,0
33022,-100,4,2,1,60,0,0
33365,-100,4,2,0,60,0,0
33536,-100,4,2,1,60,0,0
34736,-100,4,2,0,60,0,0
34908,-100,4,2,1,60,0,0
36108,-100,4,2,0,60,0,0
36279,-100,4,2,1,60,0,0
37479,-100,4,2,0,60,0,0
37650,-100,4,2,1,60,0,0
38508,-100,4,2,1,65,0,0
38850,-100,4,2,0,65,0,0
39022,-100,4,2,1,65,0,0
40222,-100,4,2,0,65,0,0
40308,-100,4,2,1,65,0,0
40393,-100,4,2,1,65,0,0
41593,-100,4,2,0,65,0,0
41764,-100,4,2,1,65,0,0
41765,-100,4,2,1,65,0,0
42279,-100,4,2,0,65,0,0
42365,-100,4,2,1,65,0,0
43650,-100,4,2,1,50,0,0
43993,-100,4,2,1,75,0,1
54965,-100,4,2,1,70,0,0
65936,-100,4,2,1,65,0,1
68593,-100,4,2,0,65,0,1
68679,-100,4,2,1,65,0,1
71079,-100,4,2,0,65,0,0
71422,-100,4,2,1,70,0,1
74079,-100,4,2,0,70,0,1
74165,-100,4,2,1,70,0,1
75536,-100,4,2,0,50,0,0
78108,-100,4,2,0,5,0,0
78279,-100,4,2,0,35,0,0
88565,-100,4,2,1,40,0,0
88907,-100,4,2,1,45,0,0
88908,-100,4,2,1,45,0,0
89250,-100,4,2,1,50,0,0
89508,-100,4,2,0,50,0,0
89764,-100,4,2,1,50,0,0
89765,-100,4,2,1,50,0,0
89936,-100,4,2,0,50,0,0
90107,-100,4,2,1,50,0,0
90965,-100,4,2,0,50,0,0
91136,-100,4,2,1,50,0,0
91308,-100,4,2,0,50,0,0
91479,-100,4,2,1,50,0,0
92336,-100,4,2,0,50,0,0
92507,-100,4,2,1,50,0,0
92508,-100,4,2,1,50,0,0
92679,-100,4,2,0,50,0,0
92850,-100,4,2,1,50,0,0
94050,-100,4,2,0,50,0,0
94221,-100,4,2,1,50,0,0
95079,-100,4,2,0,50,0,0
95250,-100,4,2,1,50,0,0
95422,-100,4,2,0,50,0,0
95593,-100,4,2,1,50,0,0
96450,-100,4,2,0,50,0,0
96622,-100,4,2,1,50,0,0
96793,-100,4,2,0,50,0,0
96965,-100,4,2,1,50,0,0
97136,-100,4,2,1,50,0,0
97822,-100,4,2,0,50,0,0
97993,-100,4,2,1,50,0,0
98165,-100,4,2,0,50,0,0
98336,-100,4,2,1,50,0,0
99193,-100,4,2,0,50,0,0
99364,-100,4,2,1,50,0,0
99365,-100,4,2,1,50,0,0
99536,-100,4,2,0,50,0,0
99707,-100,4,2,1,50,0,0
99708,-100,4,2,1,50,0,0
100222,-100,4,2,1,60,0,1
100822,-100,4,2,1,60,0,0
100908,-100,4,2,1,60,0,1
111193,-100,4,2,1,60,0,0
111536,-100,4,2,1,60,0,1
113165,-100,4,2,0,60,0,1
113250,-100,4,2,1,60,0,1
116250,-100,4,2,0,60,0,1
116336,-100,4,2,1,60,0,1
116679,-100,4,2,1,60,0,1
117022,-100,4,2,1,60,0,1
117622,-100,4,2,0,60,0,1
117708,-100,4,2,1,60,0,1
117965,-100,4,2,0,60,0,1
118050,-100,4,2,1,60,0,1
120108,-100,4,2,1,65,0,1
120793,-100,4,2,1,60,0,0
122165,-100,4,2,1,75,0,1
122508,-100,4,2,1,75,0,1
122765,-100,4,2,1,75,0,1
122850,-100,4,2,1,75,0,1
123108,-100,4,2,1,75,0,1
123193,-100,4,2,1,75,0,1
123450,-100,4,2,1,75,0,1
123536,-100,4,2,1,75,0,1
123793,-100,4,2,1,50,0,1
123879,-100,4,2,1,75,0,1
124136,-100,4,2,1,50,0,1
124222,-100,4,2,1,75,0,1
124479,-100,4,2,1,50,0,1
124565,-100,4,2,1,75,0,1
124908,-100,4,2,1,70,0,0
127650,-100,4,2,1,75,0,1
127993,-100,4,2,1,75,0,1
128250,-100,4,2,1,75,0,1
128336,-100,4,2,1,75,0,1
128593,-100,4,2,1,75,0,1
128679,-100,4,2,1,75,0,1
128936,-100,4,2,1,75,0,1
129022,-100,4,2,1,75,0,1
129279,-100,4,2,1,50,0,1
129365,-100,4,2,1,75,0,1
129622,-100,4,2,1,50,0,1
129708,-100,4,2,1,75,0,1
129965,-100,4,2,1,50,0,1
130050,-100,4,2,1,75,0,1
130393,-100,4,2,1,70,0,0
133136,-100,4,2,1,75,0,1
143592,-100,4,2,0,50,0,1
143593,-100,4,2,0,50,0,0
143765,-100,4,2,1,75,0,0
144022,-100,4,2,1,75,0,0
144108,-100,4,2,1,50,0,0
145393,-100,4,2,0,50,0,0
145479,-100,4,2,1,50,0,0
148136,-100,4,2,0,50,0,0
148222,-100,4,2,1,50,0,0
150879,-100,4,2,0,50,0,0
150965,-100,4,2,1,50,0,0
155079,-100,4,2,1,60,0,0
155422,-100,4,2,0,60,0,0
155508,-100,4,2,1,60,0,0
156108,-100,4,2,0,60,0,0
156193,-100,4,2,1,60,0,0
156793,-100,4,2,0,60,0,0
156879,-100,4,2,1,60,0,0
157479,-100,4,2,0,60,0,0
157564,-100,4,2,1,60,0,0
158165,-100,4,2,0,60,0,0
158250,-100,4,2,1,60,0,0
158850,-100,4,2,0,60,0,0
158936,-100,4,2,1,60,0,0
159536,-100,4,2,0,60,0,0
159622,-100,4,2,1,60,0,0
160565,-100,4,2,1,65,0,0
160908,-100,4,2,0,65,0,0
161079,-100,4,2,1,65,0,0
162279,-100,4,2,0,65,0,0
162450,-100,4,2,1,65,0,0
163650,-100,4,2,0,65,0,0
163736,-100,4,2,1,65,0,0
165536,-100,4,2,0,32,0,0
165708,-100,4,2,1,50,0,0
165879,-100,4,2,0,5,0,0
166050,-100,4,2,1,75,0,1
171193,-100,4,2,1,75,0,0
171536,-100,4,2,1,75,0,1
176679,-100,4,2,1,75,0,0
177022,-100,4,2,1,75,0,1
182165,-100,4,2,1,75,0,0
182508,-100,4,2,1,75,0,1
187650,-100,4,2,1,75,0,0
187993,-100,4,2,1,70,0,1
190650,-100,4,2,0,70,0,1
190736,-100,4,2,1,70,0,1
193136,-100,4,2,0,70,0,0
193479,-100,4,2,1,70,0,1
196136,-100,4,2,0,70,0,1
196222,-100,4,2,1,70,0,1
197593,-100,4,2,1,65,0,0
198965,-100,4,2,1,60,0,0
208565,-100,4,2,1,55,0,0
209936,-100,4,2,1,50,0,0
219707,-100,4,2,1,40,0,0
219708,-100,4,2,1,40,0,0
219879,-100,4,2,1,50,0,0
220050,-100,4,2,1,40,0,0
220222,-100,4,2,1,50,0,0
220393,-100,4,2,1,40,0,0

[Colours]
Combo1 : 128,128,128
Combo2 : 134,227,165
Combo3 : 233,206,160
Combo4 : 139,226,214
Combo5 : 27,179,186
Combo6 : 255,128,64
Combo7 : 239,16,33
Combo8 : 192,192,192

[HitObjects]
30,99,108,6,0,P|73:107|134:38,1,140,2|0,0:0|0:0,0:0:0:0:
212,71,622,86,0,L|296:60,1,70,2|0,0:0|0:0,0:0:0:0:
422,153,1136,5,2,0:0:0:0:
378,315,1479,6,0,P|335:323|274:254,1,140,2|0,0:0|0:0,0:0:0:0:
196,287,1993,6,0,L|112:276,1,70,2|0,0:0|0:0,0:0:0:0:
113,361,2336,38,0,L|197:372,2,70,2|2|2,0:0|0:0|0:0,0:0:0:0:
47,308,2850,54,0,B|26:270|26:270|36:166,1,140,2|0,0:0|0:0,0:0:0:0:
79,101,3365,86,0,L|167:91,1,70,2|0,0:0|0:0,0:0:0:0:
219,245,3879,5,2,0:0:0:0:
338,126,4222,6,0,B|317:164|317:164|327:268,1,140,2|0,0:0|0:0,0:0:0:0:
370,333,4737,6,0,L|458:343,1,70,2|0,0:0|0:0,0:0:0:0:
501,284,5079,38,0,P|511:253|502:211,2,70,2|2|2,0:0|0:0|0:0,0:0:0:0:
427,242,5593,54,0,P|428:180|490:134,1,140,2|0,0:0|0:0,0:0:0:0:
492,50,6108,86,0,P|452:45|422:22,1,70,2|0,0:0|0:0,0:0:0:0:
284,116,6622,5,2,0:0:0:0:
152,11,6965,6,0,P|151:73|89:119,1,140,2|0,0:0|0:0,0:0:0:0:
87,203,7480,6,0,P|127:208|157:231,1,70,2|0,0:0|0:0,0:0:0:0:
119,301,7822,37,2,0:0:0:0:
119,301,7993,2,0,P|84:298|54:279,1,70,2|2,0:0|0:0,0:0:0:0:
27,359,8336,54,0,L|180:343,1,140,2|0,0:0|0:0,0:0:0:0:
249,334,8850,86,0,L|256:263,1,70,2|0,0:0|0:0,0:0:0:0:
260,94,9365,5,2,0:0:0:0:
416,155,9708,70,0,B|468:161|468:161|509:118,2,105,2|0|2,0:0|0:0|0:0,0:0:0:0:
354,211,10393,5,0,0:0:0:0:
407,276,10565,38,0,L|402:358,2,70,2|2|2,0:0|0:0|0:0,0:0:0:0:
354,211,11079,54,0,P|317:194|284:199,1,70,6|0,1:3|0:0,0:0:0:0:
222,249,11422,2,0,P|185:266|152:261,2,70,8|2|2,3:2|1:2|1:2,0:0:0:0:
165,90,12108,2,0,L|158:16,1,70,10|10,3:2|1:0,0:0:0:0:
241,10,12450,70,0,L|248:84,1,70,2|0,1:2|1:0,0:0:0:0:
319,124,12793,2,0,B|362:129|362:129|405:111,2,70,10|2|0,3:2|1:2|1:0,0:0:0:0:
256,181,13308,5,10,1:2:0:0:
259,264,13479,5,10,1:2:0:0:
333,302,13650,69,10,1:2:0:0:
412,274,13822,54,0,L|492:266,1,70,4|0,1:3|0:0,0:0:0:0:
490,350,14165,2,0,L|410:358,2,70,8|2|2,3:2|1:2|1:2,0:0:0:0:
471,182,14850,2,0,L|467:105,1,70,8|10,3:2|1:0,0:0:0:0:
491,31,15193,70,0,P|464:53|423:58,1,70,2|0,1:2|1:0,0:0:0:0:
347,44,15536,2,0,P|314:31|289:-1,2,70,10|2|0,3:2|1:2|1:0,0:0:0:0:
374,123,16050,5,10,1:2:0:0:
315,183,16222,5,10,1:2:0:0:
231,178,16393,69,10,1:2:0:0:
182,109,16565,54,0,P|151:83|110:77,1,70,4|0,1:3|0:0,0:0:0:0:
86,152,16908,2,0,P|117:178|158:184,2,70,8|2|2,3:2|1:2|1:2,0:0:0:0:
36,312,17593,2,0,L|117:303,1,70,8|10,3:2|1:0,0:0:0:0:
176,350,17936,70,0,B|194:317|194:317|187:267,1,70,2|2,1:2|1:2,0:0:0:0:
132,222,18279,2,0,L|143:147,2,70,8|0|0,3:2|1:0|1:0,0:0:0:0:
47,223,18793,5,10,1:2:0:0:
61,139,18965,5,10,1:2:0:0:
76,56,19136,69,10,1:2:0:0:
158,71,19308,54,0,L|240:56,1,70,4|0,1:3|0:0,0:0:0:0:
305,88,19650,2,0,L|387:73,2,70,8|2|2,3:2|1:2|1:2,0:0:0:0:
287,255,20336,2,0,L|213:240,1,70,8|8,3:2|1:0,0:0:0:0:
173,312,20679,70,0,P|138:269|158:184,1,140,6|2,1:3|3:0,0:0:0:0:
229,156,21193,2,0,L|303:171,1,70,0|6,1:0|1:3,0:0:0:0:
367,217,21536,5,2,1:2:0:0:
376,133,21708,5,2,1:2:0:0:
457,111,21879,37,2,1:2:0:0:
510,175,22050,22,0,L|501:264,1,70,6|8,3:0|0:0,0:0:0:0:
499,328,22393,2,0,P|462:364|402:366,2,105,2|2|10,1:2|1:2|3:1,0:0:0:0:
427,283,23079,1,8,1:2:0:0:
358,235,23250,1,8,1:0:0:0:
295,291,23422,6,0,L|215:275,1,70,2|8,3:0|0:0,0:0:0:0:
169,215,23765,2,0,B|141:248|141:248|148:323,2,105,2|2|10,1:2|1:2|3:1,0:0:0:0:
139,136,24450,1,8,1:2:0:0:
139,136,24622,1,8,1:2:0:0:
201,80,24793,102,0,L|284:68,1,70,2|8,3:0|0:0,0:0:0:0:
338,119,25136,2,0,P|390:132|448:101,2,105,2|2|10,1:2|1:2|3:1,0:0:0:0:
262,155,25822,1,8,1:2:0:0:
291,233,25993,1,10,1:0:0:0:
233,294,26165,6,0,P|188:302|154:289,1,70,2|8,3:0|0:0,0:0:0:0:
105,236,26508,2,0,L|118:350,2,105,2|2|10,1:2|1:2|3:1,0:0:0:0:
28,201,27193,1,8,1:2:0:0:
28,201,27365,1,8,1:2:0:0:
99,156,27536,102,0,B|109:123|109:123|102:85,1,70,2|8,3:0|0:0,0:0:0:0:
23,115,27879,2,0,L|7:2,2,105,2|2|10,1:2|1:2|3:1,0:0:0:0:
99,156,28565,2,0,L|179:147,1,70,8|10,1:2|1:0,0:0:0:0:
239,194,28908,6,0,L|319:185,1,70,2|8,3:0|0:0,0:0:0:0:
351,257,29250,2,0,P|380:227|385:163,2,105,2|2|10,1:2|1:2|3:1,0:0:0:0:
331,338,29936,1,8,1:2:0:0:
331,338,30108,1,8,1:2:0:0:
249,315,30279,102,0,L|172:305,1,70,2|8,3:0|0:0,0:0:0:0:
103,342,30622,2,0,B|67:337|67:337|41:315|41:315|0:309,2,105,2|2|12,1:2|1:2|1:0,0:0:0:0:
112,258,31308,1,8,1:0:0:0:
133,176,31479,2,0,L|140:139,2,35,8|8|14,1:0|1:2|3:0,0:0:0:0:
258,287,31993,5,14,3:0:0:0:
421,250,32336,1,0,0:0:0:0:
445,83,32679,2,0,P|405:41|320:47,1,140,8|2,1:2|3:0,0:0:0:0:
272,107,33193,101,2,1:2:0:0:
193,75,33365,2,0,L|101:63,1,70,8|2,1:0|1:2,0:0:0:0:
68,130,33708,2,0,P|39:87|49:24,2,105,0|0|0,0:0|0:0|1:0,0:0:0:0:
39,208,34393,53,2,1:2:0:0:
103,262,34565,1,2,1:2:0:0:
171,213,34736,2,0,L|253:203,1,70,8|2,1:0|1:2,0:0:0:0:
303,260,35079,2,0,B|328:231|328:231|318:138,2,105,0|0|0,0:0|0:0|1:0,0:0:0:0:
224,290,35765,53,2,1:2:0:0:
290,341,35936,1,2,1:2:0:0:
369,312,36108,2,0,L|420:258,1,70,8|2,1:0|1:2,0:0:0:0:
448,183,36450,2,0,B|490:208|490:208|503:262,2,105,0|0|2,0:0|0:0|1:2,0:0:0:0:
424,102,37136,53,2,1:2:0:0:
363,161,37308,1,2,1:2:0:0:
291,116,37479,2,0,L|201:104,1,70,8|2,1:0|1:2,0:0:0:0:
151,152,37822,2,0,P|117:119|115:53,2,105,0|0|2,0:0|0:0|1:0,0:0:0:0:
108,224,38508,53,6,3:0:0:0:
150,296,38679,1,2,1:2:0:0:
232,278,38850,2,0,L|314:273,1,70,8|2,1:0|1:2,0:0:0:0:
317,190,39193,2,0,L|197:196,2,105,2|0|2,1:2|0:0|1:0,0:0:0:0:
368,123,39879,53,2,1:2:0:0:
338,44,40050,1,2,1:2:0:0:
421,55,40222,2,0,L|508:67,1,70,8|2,1:0|1:2,0:0:0:0:
495,148,40565,2,0,B|476:170|476:170|493:266,2,105,0|0|2,0:0|0:0|1:0,0:0:0:0:
433,205,41250,53,2,1:2:0:0:
354,174,41422,1,2,1:2:0:0:
294,232,41593,2,0,L|308:315,2,70,8|2|2,1:0|1:2|1:2,0:0:0:0:
215,200,42108,69,0,3:0:0:0:
215,200,42279,1,8,1:0:0:0:
215,200,42450,1,2,1:2:0:0:
152,255,42622,101,6,3:0:0:0:
12,160,42965,1,6,3:0:0:0:
156,74,43308,1,6,3:0:0:0:
297,162,43650,21,8,1:0:0:0:
152,255,43993,70,0,L|69:248,1,70,6|2,3:0|1:0,0:0:0:0:
58,329,44336,2,0,B|132:335|132:335|158:369,2,105,10|2|2,3:2|0:0|0:0,0:0:0:0:
2,265,45022,1,8,3:1:0:0:
29,185,45193,1,2,3:2:0:0:
10,102,45365,6,0,P|-2:67|5:26,1,70,2|2,3:0|1:0,0:0:0:0:
80,5,45708,2,0,P|100:54|86:113,2,105,10|2|2,3:2|0:0|3:2,0:0:0:0:
146,55,46393,2,0,L|226:45,1,70,8|2,3:1|1:0,0:0:0:0:
293,78,46736,102,0,L|373:67,1,70,2|2,3:0|1:0,0:0:0:0:
436,108,47079,2,0,P|415:68|426:1,2,105,10|2|2,3:2|3:2|3:2,0:0:0:0:
491,171,47765,1,8,3:1:0:0:
444,240,47936,1,2,3:1:0:0:
360,233,48108,6,0,L|284:224,1,70,2|2,3:0|3:1,0:0:0:0:
248,297,48450,2,0,P|212:264|207:235,1,70,8|0,3:2|3:0,0:0:0:0:
205,202,48708,2,0,P|237:153|290:144,1,105,0|2,3:0|3:2,0:0:0:0:
363,150,49136,1,8,3:1:0:0:
363,150,49308,1,2,3:1:0:0:
425,93,49479,102,0,P|433:58|415:13,1,70,2|2,3:0|1:0,0:0:0:0:
349,65,49822,2,0,B|298:85|309:31|228:59,2,105,10|2|2,3:2|0:0|0:0,0:0:0:0:
363,150,50508,1,8,3:1:0:0:
310,215,50679,1,2,3:2:0:0:
228,194,50850,6,0,L|145:186,1,70,2|2,3:0|1:0,0:0:0:0:
100,248,51193,2,0,L|88:126,2,105,10|2|2,3:2|0:0|3:2,0:0:0:0:
63,324,51879,2,0,P|97:335|144:320,1,70,8|2,3:1|1:0,0:0:0:0:
207,361,52222,102,0,L|287:353,1,70,2|2,3:0|1:0,0:0:0:0:
337,296,52565,2,0,B|320:264|320:264|329:191,2,105,10|2|2,3:2|3:2|3:2,0:0:0:0:
400,350,53250,1,8,3:1:0:0:
475,311,53422,1,2,3:1:0:0:
460,228,53593,6,0,L|470:155,1,70,2|2,3:0|1:2,0:0:0:0:
484,75,53936,1,2,3:0:0:0:
484,75,54108,2,0,B|427:61|396:106|396:106|376:88|345:87,1,140,2|0,3:2|0:0,0:0:0:0:
341,170,54622,1,2,0:1:0:0:
341,170,54793,1,2,0:1:0:0:
261,140,54965,86,0,P|185:134|118:165,1,140,2|2,3:2|3:2,0:0:0:0:
141,241,55479,2,0,P|217:247|284:216,1,140,0|2,0:0|3:2,0:0:0:0:
341,170,55993,1,8,1:0:0:0:
499,225,56336,22,0,B|519:177|519:177|495:84,1,140,2|2,3:2|3:2,0:0:0:0:
429,41,56850,2,0,B|409:89|409:89|433:182,1,140,0|2,3:0|3:2,0:0:0:0:
415,257,57365,1,8,1:0:0:0:
294,374,57708,86,0,L|149:362,1,140,2|2,3:2|3:2,0:0:0:0:
84,316,58222,2,0,L|229:304,1,140,0|2,0:0|3:2,0:0:0:0:
275,238,58736,1,8,1:0:0:0:
173,102,59079,22,0,B|103:84|103:84|47:129,1,140,2|2,3:2|3:2,0:0:0:0:
66,209,59593,2,0,B|136:227|136:227|192:182,1,140,0|2,3:0|3:2,0:0:0:0:
253,129,60108,2,0,L|329:138,1,70,8|2,1:0|0:1,0:0:0:0:
405,148,60450,86,0,L|422:314,1,140,2|2,3:2|3:2,0:0:0:0:
346,331,60965,2,0,P|279:351|223:292,1,140,2|2,1:0|3:0,0:0:0:0:
208,228,61479,1,8,1:0:0:0:
77,333,61822,22,0,L|91:181,1,140,2|2,3:2|3:2,0:0:0:0:
126,117,62336,2,0,P|192:77|262:111,1,140,2|2,3:1|3:0,0:0:0:0:
316,142,62850,1,0,0:0:0:0:
483,153,63193,86,0,L|500:321,1,140,2|2,1:2|3:2,0:0:0:0:
436,352,63708,2,0,P|374:362|316:285,1,140,2|2,1:0|3:0,0:0:0:0:
307,229,64222,1,8,1:0:0:0:
171,329,64565,22,0,L|16:345,1,140,2|2,3:2|3:2,0:0:0:0:
35,259,65079,2,0,L|190:243,1,140,2|2,1:0|3:0,0:0:0:0:
252,275,65593,2,0,L|263:187,1,70,8|2,1:0|0:1,0:0:0:0:
243,123,65936,54,0,L|253:36,1,70,2|8,3:0|3:1,0:0:0:0:
347,191,66450,6,0,L|336:277,1,70,2|2,1:2|3:0,0:0:0:0:
332,91,66965,70,0,L|337:47,2,35,0|0|2,3:0|0:0|0:0,0:0:0:0:
248,105,67308,22,0,L|258:18,1,70,2|8,3:0|3:1,0:0:0:0:
352,173,67822,6,0,L|341:259,1,70,2|2,1:2|3:0,0:0:0:0:
176,260,68336,70,0,L|165:346,1,70,10|0,3:2|0:0,0:0:0:0:
83,332,68679,70,0,L|9:345,1,70,2|8,3:0|3:1,0:0:0:0:
80,189,69193,6,0,L|154:176,1,70,2|2,3:2|3:0,0:0:0:0:
203,336,69708,22,0,L|147:345,2,35,2|2|0,3:1|3:1|3:0,0:0:0:0:
205,252,70050,70,0,L|131:265,1,70,2|8,3:0|3:1,0:0:0:0:
202,109,70564,6,0,L|276:96,1,70,2|2,0:1|3:0,0:0:0:0:
345,137,70908,5,8,3:1:0:0:
406,79,71079,2,0,P|431:131|421:166,1,70,6|0,1:0|0:0,0:0:0:0:
470,215,71422,38,0,L|455:374,1,140,2|8,3:0|3:1,0:0:0:0:
377,324,71936,85,0,0:0:0:0:
301,287,72108,38,0,P|230:309|168:257,1,140,2|8,3:0|3:1,0:0:0:0:
142,200,72622,69,0,3:0:0:0:
58,210,72793,22,0,L|77:45,1,140,2|8,3:0|3:1,0:0:0:0:
149,33,73308,85,2,0:1:0:0:
206,93,73479,38,0,P|290:106|336:65,1,140,2|8,3:0|3:1,0:0:0:0:
496,99,74165,22,0,L|479:183,1,70,2|2,3:0|3:1,0:0:0:0:
405,132,74508,38,0,L|388:216,1,70,8|2,3:1|3:1,0:0:0:0:
313,169,74850,86,0,L|296:253,1,70,2|10,3:2|3:2,0:0:0:0:
222,202,75193,6,0,L|213:244,3,35,8|8|14|14,3:1|3:1|3:1|3:1,0:0:0:0:
256,192,75536,12,0,77936,0:0:0:0:
195,209,78279,22,0,B|257:167|329:194|329:194|414:222|477:169,3,280,2|2|2|2,0:0|0:0|0:0|0:0,0:0:0:0:
145,292,81022,102,0,L|193:-2,3,280,2|2|2|2,0:0|0:0|0:0|0:0,0:0:0:0:
469,202,83765,6,0,P|389:293|237:257,3,280,2|2|2|2,0:0|0:0|0:0|0:0,0:0:0:0:
0,35,86508,102,0,P|129:3|223:98,2,280,2|2|2,0:0|0:0|0:0,0:0:0:0:
286,211,88565,6,0,L|256:303,1,70,2|0,0:0|0:0,0:0:0:0:
330,330,88908,2,0,P|385:325|410:294,1,70
468,277,89250,22,0,L|450:131,1,140,2|2,0:0|0:0,0:0:0:0:
439,54,89765,1,2,0:1:0:0:
374,106,89936,2,0,P|327:64|229:87,1,140,2|8,0:0|0:0,0:0:0:0:
90,27,90622,70,0,L|106:186,1,140,2|2,0:0|0:0,0:0:0:0:
173,214,91136,1,2,0:1:0:0:
229,151,91308,2,0,P|257:219|213:287,1,140,2|8,0:0|0:0,0:0:0:0:
97,378,91993,38,0,L|253:357,1,140,2|2,0:0|0:0,0:0:0:0:
319,345,92508,1,2,0:1:0:0:
402,333,92679,2,0,L|381:173,1,140,2|8,0:0|0:0,0:0:0:0:
361,27,93365,70,0,L|205:48,1,140,2|0,0:0|0:0,0:0:0:0:
139,60,93880,1,2,0:1:0:0:
56,72,94051,2,0,L|77:232,1,140,2|8,0:0|0:0,0:0:0:0:
90,293,94565,1,2,0:1:0:0:
152,233,94736,38,0,P|210:197|278:208,1,140,2|2,0:0|0:0,0:0:0:0:
296,294,95250,1,2,0:1:0:0:
296,294,95422,2,0,P|237:329|169:318,1,140,2|8,0:0|0:0,0:0:0:0:
93,160,96108,70,0,P|58:102|69:34,1,140,2|2,0:0|0:0,0:0:0:0:
153,17,96622,1,2,0:1:0:0:
153,17,96794,2,0,P|188:75|177:143,1,140,2|8,0:0|0:0,0:0:0:0:
345,139,97479,38,0,L|494:118,1,140,2|2,0:0|0:0,0:0:0:0:
503,286,98165,2,0,L|364:305,1,140,2|8,0:0|0:0,0:0:0:0:
261,172,98850,70,0,P|217:129|120:136,1,140,2|2,0:0|0:0,0:0:0:0:
40,356,99708,1,2,3:1:0:0:
118,328,99878,2,0,L|124:237,1,70,8|0,0:0|0:0,0:0:0:0:
48,217,100222,54,0,L|33:67,1,140,2|0,3:2|1:0,0:0:0:0:
93,17,100736,1,2,0:0:0:0:
207,139,101079,2,0,L|307:120,1,70,2|0,1:2|3:0,0:0:0:0:
353,94,101422,2,0,B|374:136|356:170|345:164|325:196|352:250,2,140,2|0|2,0:0|1:0|0:0,0:0:0:0:
288,39,102279,1,0,0:0:0:0:
446,93,102621,1,2,1:2:0:0:
288,39,102965,6,0,L|138:54,1,140,0|2,3:0|1:0,0:0:0:0:
64,61,103479,1,2,1:0:0:0:
64,61,103650,1,2,0:0:0:0:
162,197,103993,1,2,1:2:0:0:
107,350,104336,2,0,P|95:307|119:259,1,70,0|0,0:0|1:0,0:0:0:0:
185,277,104679,2,0,P|197:320|173:368,1,70,2|0,3:2|0:0,0:0:0:0:
272,364,105022,2,0,P|354:353|443:339,1,140,2|0,0:0|3:0,0:0:0:0:
465,185,105708,102,0,P|474:95|361:49,1,210.000008010865,2|0,3:2|1:0,0:0:0:0:
313,96,106393,1,2,0:0:0:0:
157,31,106736,1,2,3:2:0:0:
49,160,107079,2,0,L|70:323,2,140,0|2|0,1:0|3:2|0:0,0:0:0:0:
208,105,108108,2,0,P|188:153|196:190,1,70,2|0,0:0|0:0,0:0:0:0:
257,220,108450,6,0,L|282:371,1,140,2|2,3:2|1:2,0:0:0:0:
442,315,109136,1,0,1:0:0:0:
369,272,109308,2,0,L|378:187,1,70,0|0,1:0|1:0,0:0:0:0:
385,119,109650,1,2,3:2:0:0:
395,35,109822,2,0,L|294:21,1,70,0|0,0:0|1:0,0:0:0:0:
263,82,110165,102,0,P|207:99|114:-6,2,210,0|0|2,3:0|3:0|3:2,0:0:0:0:
396,184,111537,1,10,1:2:0:0:
242,250,111878,1,0,0:0:0:0:
313,301,112050,6,0,L|310:395,2,70,2|8|2,0:0|3:2|1:0,0:0:0:0:
317,216,112565,1,2,1:2:0:0:
207,343,112908,2,0,B|164:358|137:327|146:320|114:292|64:304,1,140,4|2,3:1|0:0,0:0:0:0:
14,248,113422,1,8,1:2:0:0:
92,218,113593,1,0,1:0:0:0:
243,145,113936,102,0,B|266:186|266:186|375:199,1,140,2|0,3:2|1:0,0:0:0:0:
435,162,114450,2,0,B|411:120|411:120|302:107,1,140
251,60,114965,1,8,1:2:0:0:
186,215,115308,2,0,P|108:185|107:58,1,210,2|2,0:0|1:0,0:0:0:0:
169,27,115993,1,2,0:0:0:0:
305,239,116508,1,0,0:0:0:0:
369,185,116679,6,0,B|397:115|397:115|351:42,1,140,2|10,3:2|1:2,0:0:0:0:
242,179,117365,1,0,1:0:0:0:
219,259,117536,2,0,L|239:349,1,70,0|4,1:0|3:1,0:0:0:0:
76,268,118050,2,0,B|96:227|80:187|66:203|43:154|75:114,1,140,0|8,1:0|1:2,0:0:0:0:
192,25,118736,2,0,B|233:45|273:29|257:15|306:-8|346:24,1,140,2|0,0:0|0:0,0:0:0:0:
384,72,119250,1,0,1:0:0:0:
460,32,119422,6,0,B|496:88|467:166|390:185|354:172|344:166|338:161|282:135|223:173|214:237|237:280,1,420,2|8,0:1|1:2,0:0:0:0:
375,376,120793,1,0,0:0:0:0:
375,376,122165,102,0,L|385:225,1,140,2|8,3:0|1:0,0:0:0:0:
509,121,122850,2,0,P|465:145|436:142,1,70,0|2,3:0|0:1,0:0:0:0:
369,110,123193,1,8,1:0:0:0:
369,110,123365,1,2,0:1:0:0:
291,77,123536,102,0,B|254:76|227:101|227:101|200:127|162:121,1,140,0|8,3:0|1:0,0:0:0:0:
31,226,124222,2,0,P|68:264|70:298,1,70,0|2,3:0|0:1,0:0:0:0:
48,360,124565,2,0,P|32:370|11:372,2,35,8|2|2,1:0|0:1|0:1,0:0:0:0:
130,342,124908,22,0,L|285:347,1,140,0|8,3:0|0:1,0:0:0:0:
437,361,125593,2,0,P|420:325|381:305,1,70,2|0,3:2|1:0,0:0:0:0:
319,273,125936,1,8,0:1:0:0:
319,273,126108,1,2,1:2:0:0:
239,245,126279,70,0,B|234:186|234:186|249:165|249:165|244:110,1,140,0|8,3:0|0:1,0:0:0:0:
393,31,126965,2,0,L|386:118,1,70,2|0,3:2|1:0,0:0:0:0:
446,161,127308,54,0,P|468:151|492:155,2,35,8|0|2,1:0|1:0|1:2,0:0:0:0:
388,222,127650,86,0,P|350:200|248:206,1,140,2|8,3:0|1:0,0:0:0:0:
99,263,128336,2,0,P|116:304|150:323,1,70,0|2,3:0|0:1,0:0:0:0:
220,317,128679,1,8,1:0:0:0:
220,317,128850,1,2,0:1:0:0:
303,305,129022,102,0,B|340:304|367:329|367:329|394:355|431:349,1,140,0|8,3:0|1:0,0:0:0:0:
507,198,129708,2,0,P|506:161|474:122,1,70,0|2,3:0|0:1,0:0:0:0:
412,100,130050,2,0,P|421:78|419:53,2,35,8|0|0,1:0|0:0|0:0,0:0:0:0:
346,153,130393,22,0,P|281:176|213:162,1,140,0|8,3:0|0:1,0:0:0:0:
50,202,131079,2,0,P|42:266|51:291,1,70,2|0,3:2|1:0,0:0:0:0:
107,324,131422,1,8,0:1:0:0:
107,324,131593,1,2,1:2:0:0:
179,367,131765,70,0,B|238:364|238:364|257:347|257:347|312:344,1,140,2|8,3:2|0:1,0:0:0:0:
463,272,132450,2,0,L|385:267,1,70,2|0,3:2|1:0,0:0:0:0:
316,233,132793,54,0,P|323:218|320:194,2,35,8|0|0,1:0|1:0|1:0,0:0:0:0:
241,272,133136,70,0,L|163:267,1,70,2|2,3:0|1:2,0:0:0:0:
86,264,133479,1,8,3:1:0:0:
86,264,133650,2,0,P|84:288|73:302,2,35,2|2|2,1:2|1:2|3:0,0:0:0:0:
47,188,133993,1,0,3:0:0:0:
11,111,134165,2,0,L|8:34,1,70,8|2,3:1|1:2,0:0:0:0:
92,46,134508,6,0,P|104:79|94:117,1,70,2|2,3:0|1:2,0:0:0:0:
98,29,134850,2,0,P|129:46|145:82,1,70,8|2,3:1|1:2,0:0:0:0:
91,11,135193,2,0,P|126:4|161:21,1,70,2|0,3:0|3:0,0:0:0:0:
231,56,135536,22,0,P|241:39|245:15,2,35,8|2|2,3:1|0:1|0:1,0:0:0:0:
271,129,135879,54,0,L|264:214,1,70,2|2,3:0|1:2,0:0:0:0:
259,282,136222,1,8,3:1:0:0:
259,282,136393,2,0,P|239:276|220:276,2,35,2|0|2,1:2|0:0|3:0,0:0:0:0:
335,316,136736,1,0,3:0:0:0:
412,348,136908,2,0,L|501:339,1,70,8|2,3:1|1:2,0:0:0:0:
474,257,137250,38,0,P|440:244|402:254,1,70,2|2,3:0|1:2,0:0:0:0:
491,251,137593,2,0,P|473:219|437:203,1,70,8|2,3:1|1:2,0:0:0:0:
509,258,137936,2,0,P|515:222|498:187,1,70,2|0,3:0|3:0,0:0:0:0:
452,123,138279,6,0,P|459:104|459:86,2,35,12|12|12,3:1|3:1|3:1,0:0:0:0:
371,146,138622,70,0,P|343:152|294:143,1,70,2|2,3:0|1:2,0:0:0:0:
239,90,138965,1,8,3:1:0:0:
239,90,139136,2,0,P|238:74|228:55,2,35,2|2|2,1:2|1:2|3:0,0:0:0:0:
169,137,139479,1,0,3:0:0:0:
105,191,139650,2,0,L|99:268,1,70,8|8,3:1|0:1,0:0:0:0:
166,311,139993,6,0,P|175:344|202:365,1,70,2|2,3:0|1:2,0:0:0:0:
182,283,140336,2,0,P|210:302|244:301,1,70,8|2,3:1|1:2,0:0:0:0:
182,244,140679,2,0,P|216:240|241:217,1,70,2|0,3:0|3:0,0:0:0:0:
305,162,141022,22,0,L|301:119,2,35,8|0|8,3:1|0:0|3:1,0:0:0:0:
378,204,141365,54,0,P|399:239|393:287,1,70,2|2,3:0|1:2,0:0:0:0:
362,342,141708,1,8,3:1:0:0:
362,342,141879,2,0,P|379:342|393:352,2,35,2|2|2,1:2|1:2|3:0,0:0:0:0:
291,295,142222,1,0,3:0:0:0:
220,249,142393,2,0,L|130:254,1,70,8|2,3:1|3:2,0:0:0:0:
73,289,142736,38,0,P|41:302|24:332,1,70,2|2,3:0|1:2,0:0:0:0:
65,259,143079,2,0,P|32:249|0:261,1,70,8|2,3:1|1:2,0:0:0:0:
73,220,143422,2,0,P|54:191|21:179,1,70,2|10,3:0|1:0,0:0:0:0:
30,96,143765,21,8,3:1:0:0:
30,96,144108,22,0,P|73:104|134:35,1,140,2|2,3:2|0:1,0:0:0:0:
212,71,144622,86,0,L|296:60,1,70,2|0,0:0|0:0,0:0:0:0:
422,153,145136,5,2,0:0:0:0:
378,315,145479,6,0,P|335:323|274:254,1,140,2|2,3:2|0:1,0:0:0:0:
196,287,145993,6,0,L|112:276,1,70,2|0,3:2|0:0,0:0:0:0:
113,361,146336,38,0,L|197:372,2,70,2|2|2,3:2|0:0|0:0,0:0:0:0:
47,308,146850,54,0,B|26:270|26:270|36:166,1,140,2|2,3:2|0:1,0:0:0:0:
79,101,147365,86,0,L|167:91,1,70,2|0,0:0|0:0,0:0:0:0:
219,245,147879,5,2,3:2:0:0:
338,126,148222,6,0,B|317:164|317:164|327:268,1,140,2|2,3:2|0:1,0:0:0:0:
370,333,148737,6,0,L|458:343,1,70,2|0,3:2|0:0,0:0:0:0:
501,284,149079,38,0,P|511:253|502:211,2,70,2|2|2,3:2|0:0|0:0,0:0:0:0:
427,242,149593,54,0,P|428:180|490:134,1,140,2|2,3:2|0:1,0:0:0:0:
492,50,150108,86,0,P|452:45|422:22,1,70,2|0,0:0|0:0,0:0:0:0:
336,169,150622,5,2,0:0:0:0:
213,54,150965,6,0,P|254:100|240:175,1,140,2|2,3:2|0:1,0:0:0:0:
250,256,151480,6,0,P|210:251|180:228,1,70,2|0,3:2|0:0,0:0:0:0:
159,155,151822,37,2,3:2:0:0:
102,217,151993,2,0,L|98:267,2,35,2|2|2,3:2|0:1|3:2,0:0:0:0:
37,162,152336,54,0,L|24:67,1,70,2|0,3:2|0:0,0:0:0:0:
82,28,152679,1,10,0:1:0:0:
160,57,152850,86,0,P|193:68|231:59,1,70,2|0,0:0|0:0,0:0:0:0:
289,4,153193,1,0,3:0:0:0:
309,85,153365,6,0,L|299:154,1,70,10|0,3:2|0:0,0:0:0:0:
289,238,153708,69,10,3:2:0:0:
147,148,154050,1,10,3:2:0:0:
139,315,154393,1,10,3:2:0:0:
195,252,154565,5,2,3:2:0:0:
195,252,154736,2,0,P|200:232|196:204,2,35,2|0|2,1:2|1:0|1:2,0:0:0:0:
221,331,155079,85,2,3:0:0:0:
285,383,155250,1,2,0:0:0:0:
331,312,155422,2,0,P|366:313|398:327,1,70,8|2,0:1|0:0,0:0:0:0:
452,263,155765,70,0,P|481:306|471:369,2,105,0|2|2,1:0|1:2|1:2,0:0:0:0:
476,182,156450,21,0,0:0:0:0:
412,126,156622,1,2,0:0:0:0:
341,171,156793,2,0,L|259:181,1,70,8|2,0:1|0:0,0:0:0:0:
209,124,157136,86,0,B|184:153|184:153|194:246,2,105,0|2|2,1:0|1:2|1:2,0:0:0:0:
287,93,157822,37,0,0:0:0:0:
221,42,157993,1,2,0:0:0:0:
142,71,158165,2,0,L|91:125,1,70,8|2,0:1|0:0,0:0:0:0:
63,200,158507,70,0,B|21:175|21:175|8:121,2,105,0|2|2,1:0|1:2|1:2,0:0:0:0:
87,281,159193,37,0,0:0:0:0:
148,222,159365,1,2,0:0:0:0:
220,267,159536,2,0,L|310:279,1,70,8|2,0:1|0:0,0:0:0:0:
360,231,159879,70,0,P|394:264|396:330,2,105,0|2|2,1:0|1:2|0:1,0:0:0:0:
403,159,160565,5,2,3:0:0:0:
361,87,160736,1,2,0:0:0:0:
279,105,160907,2,0,L|197:110,1,70,8|2,1:0|0:0,0:0:0:0:
194,193,161250,6,0,L|314:187,2,105,2|2|2,1:2|1:2|1:2,0:0:0:0:
143,260,161936,21,2,3:0:0:0:
173,339,162107,1,2,0:0:0:0:
90,328,162279,2,0,L|3:316,1,70,8|2,1:0|0:0,0:0:0:0:
16,235,162622,86,0,B|35:213|35:213|18:117,2,105,2|2|2,1:2|1:2|1:2,0:0:0:0:
88,192,163307,101,2,3:0:0:0:
168,218,163479,1,2,0:0:0:0:
217,151,163650,2,0,L|203:68,2,70,8|2|2,1:0|0:0|1:2,0:0:0:0:
295,183,164165,38,0,L|281:266,2,70,0|0|2,0:0|0:0|1:2,0:0:0:0:
359,128,164679,5,2,3:0:0:0:
499,223,165022,1,2,3:0:0:0:
355,309,165365,1,2,3:0:0:0:
214,221,165707,5,0,0:0:0:0:
359,128,166050,86,0,P|372:106|369:55,1,70,2|2,3:0|1:0,0:0:0:0:
313,1,166393,2,0,L|425:-8,2,105,8|0|2,3:1|0:0|3:2,0:0:0:0:
238,40,167079,5,8,3:1:0:0:
238,40,167250,1,10,1:0:0:0:
176,97,167422,102,0,P|171:142|186:170,1,70,2|2,3:0|1:0,0:0:0:0:
225,234,167765,2,0,L|90:216,2,105,8|0|2,3:1|0:0|3:2,0:0:0:0:
301,199,168450,6,0,P|296:183|300:162,2,35,8|2|10,3:1|0:1|1:0,0:0:0:0:
384,212,168793,102,0,L|375:298,1,70,2|2,3:0|1:0,0:0:0:0:
455,310,169136,2,0,L|466:189,2,105,8|2|2,3:1|0:0|3:2,0:0:0:0:
391,366,169822,5,8,3:1:0:0:
309,346,169993,1,10,3:1:0:0:
226,328,170165,102,0,L|145:312,1,70,2|0,3:0|3:0,0:0:0:0:
73,302,170508,1,8,3:1:0:0:
127,238,170679,2,0,P|135:219|137:191,1,35,2|2,3:1|3:2,0:0:0:0:
69,155,170936,2,0,P|60:136|59:108,1,35,2|0,0:0|3:0,0:0:0:0:
107,53,171193,6,0,L|111:13,2,35,8|10|10,3:1|0:1|3:1,0:0:0:0:
170,108,171536,102,0,P|209:96|227:71,1,70,2|2,3:0|3:1,0:0:0:0:
306,97,171879,2,0,P|317:38|300:-10,2,105,14|2|2,3:1|3:1|3:2,0:0:0:0:
257,165,172565,53,8,3:1:0:0:
257,165,172736,1,10,3:1:0:0:
304,235,172908,70,0,P|336:219|378:222,1,70,2|2,3:0|3:1,0:0:0:0:
403,295,173250,2,0,P|359:322|306:319,2,105,14|2|2,3:1|3:1|3:2,0:0:0:0:
453,227,173936,38,0,P|469:235|486:236,2,35,14|2|10,3:1|0:1|3:1,0:0:0:0:
420,149,174279,54,0,B|407:116|407:116|411:70,1,70,2|2,3:0|3:1,0:0:0:0:
490,53,174622,2,0,B|509:101|509:101|504:156,2,105,14|2|2,3:1|3:2|3:2,0:0:0:0:
423,0,175308,53,8,3:1:0:0:
344,29,175479,1,10,0:1:0:0:
268,66,175650,70,0,L|179:60,1,70,2|0,3:0|3:0,0:0:0:0:
114,54,175993,1,8,3:1:0:0:
49,107,176165,2,0,L|52:146,1,35,2|2,3:1|3:2,0:0:0:0:
119,191,176422,2,0,L|116:230,1,35,2|2,0:0|3:0,0:0:0:0:
57,286,176679,38,0,P|37:282|23:268,2,35,8|10|10,3:1|0:1|0:1,0:0:0:0:
117,345,177022,54,0,P|152:329|186:335,1,70,2|2,3:0|3:2,0:0:0:0:
254,376,177365,2,0,L|242:256,2,105,8|0|2,3:1|0:0|3:2,0:0:0:0:
337,366,178050,5,8,3:1:0:0:
337,366,178222,1,10,3:1:0:0:
418,351,178393,54,0,P|450:335|468:306,1,70,2|2,3:0|3:2,0:0:0:0:
410,245,178736,2,0,B|424:215|424:215|417:137,2,105,8|2|2,3:1|0:1|3:2,0:0:0:0:
338,200,179422,54,0,L|334:165,2,35,8|2|10,3:1|0:1|0:1,0:0:0:0:
276,258,179765,102,0,P|249:242|202:242,1,70,2|2,3:0|3:2,0:0:0:0:
140,193,180108,2,0,P|90:222|62:291,2,105,8|2|2,3:1|3:2|3:2,0:0:0:0:
212,151,180793,5,8,3:1:0:0:
284,108,180965,1,2,1:0:0:0:
356,65,181136,54,0,P|390:66|422:86,1,70,2|2,3:0|3:2,0:0:0:0:
482,140,181479,1,8,3:1:0:0:
499,221,181650,2,0,L|494:267,1,35,2|2,3:1|3:1,0:0:0:0:
410,257,181908,2,0,L|405:303,1,35,0|2,3:0|3:2,0:0:0:0:
321,293,182165,54,0,L|316:339,2,35,8|2|10,3:1|0:1|3:1,0:0:0:0:
248,249,182508,102,0,L|169:240,1,70,2|10,3:0|3:2,0:0:0:0:
103,277,182850,2,0,B|75:247|75:247|81:162,2,105,8|0|2,3:1|0:0|1:2,0:0:0:0:
171,326,183536,53,8,3:1:0:0:
171,326,183708,1,8,3:1:0:0:
244,366,183879,6,0,L|326:360,1,70,2|10,3:0|3:2,0:0:0:0:
384,314,184222,2,0,B|409:307|435:326|435:326|458:341|483:336,2,105,8|2|2,3:1|0:1|3:2,0:0:0:0:
343,239,184908,102,0,L|344:204,2,35,8|2|10,3:1|0:1|0:1,0:0:0:0:
269,280,185250,54,0,P|261:248|237:215,1,70,2|10,3:0|3:2,0:0:0:0:
174,165,185593,2,0,B|132:176|132:176|72:158,2,105,8|2|2,3:1|3:2|0:0,0:0:0:0:
253,136,186279,53,8,3:1:0:0:
329,102,186450,1,2,1:0:0:0:
407,70,186622,6,0,P|418:58|428:-2,1,70,2|10,3:0|3:2,0:0:0:0:
346,11,186965,1,14,3:1:0:0:
262,16,187136,1,14,3:1:0:0:
177,21,187308,2,0,L|119:13,2,35,2|0|2,3:0|0:0|0:1,0:0:0:0:
153,101,187650,54,0,L|95:93,2,35,8|2|2,3:1|0:1|0:1,0:0:0:0:
203,168,187993,38,0,P|226:142|234:109,1,70,2|2,3:0|1:2,0:0:0:0:
361,220,188508,6,0,P|384:245|392:278,1,70,2|2,0:0|1:0,0:0:0:0:
420,358,188850,69,2,3:2:0:0:
420,357,189022,2,0,P|385:362|351:353,1,70,10|2,1:0|0:0,0:0:0:0:
269,336,189365,22,0,P|245:310|237:277,1,70,2|2,3:0|1:2,0:0:0:0:
160,126,189880,6,0,P|136:151|128:184,1,70,2|2,3:2|1:0,0:0:0:0:
46,202,190222,69,2,3:2:0:0:
46,202,190393,2,0,L|50:277,1,70,10|0,1:0|0:0,0:0:0:0:
26,352,190736,70,0,P|4:369|3:340,1,70,2|2,3:0|1:2,0:0:0:0:
154,266,191250,6,0,P|175:283|176:254,1,70,2|2,3:2|1:0,0:0:0:0:
127,184,191593,21,2,3:2:0:0:
127,184,191765,2,0,P|129:149|147:120,1,70,10|2,1:0|0:0,0:0:0:0:
126,38,192108,70,0,P|104:20|103:49,1,70,2|2,3:0|1:2,0:0:0:0:
241,145,192622,6,0,P|262:127|263:156,1,70,2|2,3:2|1:0,0:0:0:0:
224,230,192965,5,2,3:2:0:0:
224,230,193137,2,0,P|226:264|244:293,1,70,6|0,1:0|0:0,0:0:0:0:
327,304,193479,38,0,P|350:278|358:245,1,70,2|2,3:0|0:0,0:0:0:0:
434,94,193994,6,0,P|457:119|465:152,1,70,2|2,0:0|1:0,0:0:0:0:
382,165,194336,69,2,3:2:0:0:
382,165,194508,2,0,L|303:153,1,70,10|2,1:0|0:0,0:0:0:0:
232,131,194850,22,0,P|209:105|201:72,1,70,2|2,3:0|0:0,0:0:0:0:
118,218,195365,6,0,P|95:244|87:277,1,70,2|2,3:2|1:0,0:0:0:0:
51,354,195708,69,2,3:2:0:0:
51,354,195879,2,0,P|91:362|131:346,1,70,10|0,1:0|0:0,0:0:0:0:
199,329,196222,70,0,L|216:245,1,70,2|2,3:0|3:2,0:0:0:0:
290,296,196565,38,0,L|307:212,1,70,10|2,3:1|3:0,0:0:0:0:
382,259,196907,86,0,L|399:175,1,70,2|2,3:1|3:2,0:0:0:0:
473,226,197250,6,0,L|482:184,2,35,10|0|10,3:1|0:0|3:2,0:0:0:0:
456,308,197593,5,2,0:0:0:0:
303,227,197936,38,0,L|299:93,2,105,2|2|2,0:0|0:0|0:0,0:0:0:0:
363,285,198622,38,0,P|370:316|357:357,1,70,10|0,0:1|0:0,0:0:0:0:
279,377,198965,22,0,L|203:370,2,70,2|0|8,3:2|0:0|3:1,0:0:0:0:
125,308,199650,2,0,L|49:301,2,70,0|0|8,0:0|0:0|3:1,0:0:0:0:
273,228,200336,38,0,L|349:221,2,70,2|0|8,3:2|0:0|3:1,0:0:0:0:
427,159,201022,2,0,L|503:152,2,70,0|0|8,0:0|0:0|3:1,0:0:0:0:
279,79,201708,70,0,L|203:72,2,70,2|0|8,3:2|0:0|3:1,0:0:0:0:
125,10,202393,2,0,L|49:3,2,70,0|0|8,0:0|0:0|3:1,0:0:0:0:
39,155,203079,38,0,P|43:195|72:229,1,70,2|0,3:2|0:0,0:0:0:0:
117,279,203422,2,0,L|3:290,2,105,8|2|0,3:1|0:0|0:0,0:0:0:0:
198,301,204108,102,0,P|205:284|202:258,2,35,8|0|0,3:1|0:0|0:0,0:0:0:0:
233,377,204450,86,0,L|309:370,2,70,2|0|8,3:2|0:0|3:1,0:0:0:0:
387,308,205136,2,0,L|463:301,2,70,0|0|8,0:0|0:0|3:1,0:0:0:0:
239,228,205822,38,0,L|163:221,2,70,0|0|8,0:0|0:0|3:1,0:0:0:0:
85,159,206508,2,0,L|9:152,2,70,0|0|8,0:0|0:0|3:1,0:0:0:0:
233,79,207193,70,0,L|309:72,2,70,2|2|2,3:2|1:0|3:2,0:0:0:0:
387,10,207879,2,0,L|463:3,2,70,2|2|2,3:2|1:0|3:2,0:0:0:0:
336,171,208565,38,0,L|350:337,1,140,2|2,1:2|1:2,0:0:0:0:
185,354,209250,2,0,L|191:279,1,70,2|0,1:2|0:0,0:0:0:0:
200,200,209593,102,0,L|204:155,2,35,2|0|0,1:2|0:0|0:0,0:0:0:0:
124,236,209936,86,0,P|82:254|118:212,1,140,0|8,1:0|1:2,0:0:0:0:
284,229,210622,2,0,P|318:268|267:254,1,140,0|8,1:0|1:2,0:0:0:0:
198,95,211308,2,0,P|202:50|220:101,1,140,0|8,1:0|1:2,0:0:0:0:
186,261,211993,6,0,L|179:331,1,70,0|2,1:0|0:1,0:0:0:0:
98,305,212336,2,0,L|102:254,2,35,8|0|0,1:2|0:0|0:0,0:0:0:0:
56,378,212679,102,0,P|110:335|178:329,1,140,0|8,1:0|1:2,0:0:0:0:
171,161,213365,2,0,P|235:186|274:243,1,140,0|8,1:0|1:2,0:0:0:0:
417,151,214050,2,0,P|427:219|397:281,1,140,0|8,1:0|1:2,0:0:0:0:
319,132,214736,6,0,L|327:55,1,70,0|2,1:0|0:1,0:0:0:0:
242,72,215079,2,0,L|246:25,2,35,8|0|0,1:2|0:0|0:0,0:0:0:0:
160,92,215422,38,0,P|144:131|43:160,1,140,0|8,1:0|1:2,0:0:0:0:
197,258,216108,2,0,P|238:252|314:325,1,140,0|8,1:0|1:2,0:0:0:0:
323,143,216793,2,0,P|297:109|322:7,1,140,0|8,1:0|1:2,0:0:0:0:
462,94,217479,6,0,L|455:164,1,70,0|2,1:0|0:1,0:0:0:0:
471,246,217822,2,0,P|491:256|511:258,2,35,8|0|0,1:2|0:0|0:0,0:0:0:0:
400,291,218165,38,0,P|317:297|263:352,1,140,0|0,1:0|1:0,0:0:0:0:
143,228,218850,2,0,P|60:221|6:167,1,140,0|2,1:0|1:0,0:0:0:0:
77,126,219365,2,0,P|99:92|100:59,1,70,0|2,0:0|0:1,0:0:0:0:
44,0,219708,69,0,0:0:0:0:
211,13,220050,1,0,0:0:0:0:
378,26,220393,1,0,0:0:0:0:
308,73,220565,2,0,L|302:109,3,35,2|0|0|0,0:1|0:0|0:0|0:0,0:0:0:0:
