osu file format v14

[General]
AudioFilename: audio.mp3
AudioLeadIn: 0
PreviewTime: 64372
Countdown: 0
SampleSet: Normal
StackLeniency: 0.2
Mode: 1
LetterboxInBreaks: 0
WidescreenStoryboard: 1

[Editor]
Bookmarks: 346,23082,33188,43293,53398,64767,74872,84977,95082,105188,115293
DistanceSpacing: 1.1
BeatDivisor: 4
GridSize: 32
TimelineZoom: 2.6

[Metadata]
Title:Chewingood!!!
TitleUnicode:Chewingood!!!
Artist:TORIENA
ArtistUnicode:TORIENA
Creator:iceOC
Version:Oni
Source:beatmania IIDX 28 BISTROVER
Tags:japanese video game bemani sound voltex exceed gear 6 vi sdvx chip rave chiptune
BeatmapID:3076087
BeatmapSetID:1501192

[Difficulty]
HPDrainRate:5
CircleSize:2
OverallDifficulty:5.5
ApproachRate:10
SliderMultiplier:1.4
SliderTickRate:1

[Events]
//Background and Video events
0,0,"Chewingood!!!-bg.png",0,130
//Break Periods
//Storyboard Layer 0 (Background)
//Storyboard Layer 1 (Fail)
//Storyboard Layer 2 (Pass)
//Storyboard Layer 3 (Foreground)
//Storyboard Layer 4 (Overlay)
//Storyboard Sound Samples

[TimingPoints]
1021,315.789473684211,4,1,0,80,1,0
22455,-125,4,1,0,80,0,0
22928,-111.111111111111,4,1,0,80,0,0
23244,-99.9999999999999,4,1,0,80,0,0
23402,-83.3333333333333,4,1,0,80,0,0
23718,-100,4,1,0,80,0,0
38244,-76.9230769230769,4,1,0,80,0,0
38560,-86.9565217391304,4,1,0,80,0,0
38876,-100,4,1,0,80,0,0
43928,-100,1,1,0,80,0,0
44085,-100.8013589,1,1,0,80,0,0
44243,-101.6091395,1,1,0,80,0,0
44401,-102.4233933,1,1,0,80,0,0
44559,-103.2441723,1,1,0,80,0,0
44717,-104.0715286,1,1,0,80,0,0
44875,-104.905515,1,1,0,80,0,0
45033,-105.7461847,1,1,0,80,0,0
45191,-106.5935911,1,1,0,80,0,0
45349,-107.4477883,1,1,0,80,0,0
45506,-108.3088307,1,1,0,80,0,0
45664,-109.1767731,1,1,0,80,0,0
45822,-110.0516708,1,1,0,80,0,0
45980,-110.9335797,1,1,0,80,0,0
46138,-111.8225557,1,1,0,80,0,0
46296,-112.7186557,1,1,0,80,0,0
46454,-113.6219366,1,1,0,80,0,0
46612,-114.5324561,1,1,0,80,0,0
46770,-115.4502721,1,1,0,80,0,0
46928,-116.3754431,1,1,0,80,0,0
47085,-117.308028,1,1,0,80,0,0
47243,-118.2480863,1,1,0,80,0,0
47401,-119.1956778,1,1,0,80,0,0
47559,-120.150863,1,1,0,80,0,0
47717,-121.1137026,1,1,0,80,0,0
47875,-122.0842579,1,1,0,80,0,0
48033,-123.062591,1,1,0,80,0,0
48191,-124.048764,1,1,0,80,0,0
48349,-125.0428397,1,1,0,80,0,0
48506,-126.0448816,1,1,0,80,0,0
48664,-127.0549534,1,1,0,80,0,0
48822,-128.0731196,1,1,0,80,0,0
48980,-129.0994449,1,1,0,80,0,0
49138,-130.1339947,1,1,0,80,0,0
49296,-131.176835,1,1,0,80,0,0
49454,-132.2280322,1,1,0,80,0,0
49612,-133.2876533,1,1,0,80,0,0
49770,-134.3557657,1,1,0,80,0,0
49928,-135.4324375,1,1,0,80,0,0
50085,-136.5177374,1,1,0,80,0,0
50243,-137.6117344,1,1,0,80,0,0
50401,-138.7144982,1,1,0,80,0,0
50559,-139.8260992,1,1,0,80,0,0
50717,-140.946608,1,1,0,80,0,0
50875,-142.0760961,1,1,0,80,0,0
51033,-143.2146355,1,1,0,80,0,0
51191,-144.3622987,1,1,0,80,0,0
51349,-145.5191588,1,1,0,80,0,0
51506,-146.6852895,1,1,0,80,0,0
51664,-147.860765,1,1,0,80,0,0
51822,-149.0456604,1,1,0,80,0,0
51980,-150.240051,1,1,0,80,0,0
52138,-151.444013,1,1,0,80,0,0
52296,-152.657623,1,1,0,80,0,0
52454,-153.8809584,1,1,0,80,0,0
52612,-155.1140971,1,1,0,80,0,0
52770,-156.3571177,1,1,0,80,0,0
52928,-157.6100993,1,1,0,80,0,0
53085,-158.8731218,1,1,0,80,0,0
53243,-160.1462656,1,1,0,80,0,0
53401,-161.4296119,1,1,0,80,0,0
53559,-162.7232424,1,1,0,80,0,0
53717,-164.0272396,1,1,0,80,0,0
53875,-165.3416864,1,1,0,80,0,0
54033,-166.6666667,4,1,0,80,0,0
54111,-165.8374793,4,1,0,80,0,0
54190,-164.7446458,4,1,0,80,0,0
54269,-163.9344262,4,1,0,80,0,0
54348,-162.8664495,4,1,0,80,0,0
54427,-161.8122977,4,1,0,80,0,0
54506,-161.0305958,4,1,0,80,0,0
54585,-160,4,1,0,80,0,0
54664,-158.9825119,4,1,0,80,0,0
54743,-157.9778831,4,1,0,80,0,0
54822,-156.9858713,4,1,0,80,0,0
54901,-156.0062402,4,1,0,80,0,0
54980,-155.0387597,4,1,0,80,0,0
55059,-153.8461538,4,1,0,80,0,0
55138,-152.9051988,4,1,0,80,0,0
55217,-151.9756839,4,1,0,80,0,0
55296,-150.8295626,4,1,0,80,0,0
55375,-149.9250375,4,1,0,80,0,0
55454,-148.8095238,4,1,0,80,0,0
55533,-147.7104874,4,1,0,80,0,0
55611,-146.627566,4,1,0,80,0,0
55690,-145.7725948,4,1,0,80,0,0
55769,-144.7178003,4,1,0,80,0,0
55848,-143.6781609,4,1,0,80,0,0
55927,-142.4501425,4,1,0,80,0,0
56006,-141.4427157,4,1,0,80,0,0
56085,-140.4494382,4,1,0,80,0,0
56164,-139.275766,4,1,0,80,0,0
56243,-138.3125864,4,1,0,80,0,0
56322,-137.1742112,4,1,0,80,0,0
56401,-136.239782,4,1,0,80,0,0
56480,-135.1351351,4,1,0,80,0,0
56559,-134.0482574,4,1,0,80,0,0
56638,-132.9787234,4,1,0,80,0,0
56717,-131.9261214,4,1,0,80,0,0
56796,-130.8900524,4,1,0,80,0,0
56875,-129.7016861,4,1,0,80,0,0
56954,-128.7001287,4,1,0,80,0,0
57033,-127.5510204,4,1,0,80,0,0
57111,-126.5822785,4,1,0,80,0,0
57190,-125.4705144,4,1,0,80,0,0
57269,-124.3781095,4,1,0,80,0,0
57348,-123.3045623,4,1,0,80,0,0
57427,-122.2493888,4,1,0,80,0,0
57506,-121.2121212,4,1,0,80,0,0
57585,-120.0480192,4,1,0,80,0,0
57664,-119.047619,4,1,0,80,0,0
57743,-117.9245283,4,1,0,80,0,0
57822,-116.8224299,4,1,0,80,0,0
57901,-115.7407407,4,1,0,80,0,0
57980,-114.6788991,4,1,0,80,0,0
58059,-113.6363636,4,1,0,80,0,0
58138,-112.6126126,4,1,0,80,0,0
58217,-111.4827202,4,1,0,80,0,0
58296,-110.4972376,4,1,0,80,0,0
58375,-109.4091904,4,1,0,80,0,0
58454,-108.3423619,4,1,0,80,0,0
58533,-107.2961373,4,1,0,80,0,0
58611,-106.2699256,4,1,0,80,0,0
58690,-105.1524711,4,1,0,80,0,0
58769,-104.1666667,4,1,0,80,0,0
58848,-103.0927835,4,1,0,80,0,0
58927,-102.0408163,4,1,0,80,0,0
59006,-101.010101,4,1,0,80,0,0
59085,-100,4,1,0,80,0,0
59164,-99.00990099,4,1,0,80,0,0
59243,-97.94319295,4,1,0,80,0,0
59322,-96.89922481,4,1,0,80,0,0
59401,-95.87727709,4,1,0,80,0,0
59480,-94.87666034,4,1,0,80,0,0
59559,-93.89671362,4,1,0,80,0,0
59638,-92.85051068,4,1,0,80,0,0
59717,-91.82736455,4,1,0,80,0,0
59796,-90.82652134,4,1,0,80,0,0
59875,-89.84725966,4,1,0,80,0,0
59954,-88.88888889,4,1,0,80,0,0
60033,-87.87346221,4,1,0,80,0,0
60111,-86.88097307,4,1,0,80,0,0
60190,-85.91065292,4,1,0,80,0,0
60269,-84.9617672,4,1,0,80,0,0
60348,-83.96305626,4,1,0,80,0,0
60427,-82.98755187,4,1,0,80,0,0
60506,-82.03445447,4,1,0,80,0,0
60585,-81.10300081,4,1,0,80,0,0
60664,-80.12820513,4,1,0,80,0,0
60743,-79.23930269,4,1,0,80,0,0
60822,-78.24726135,4,1,0,80,0,0
60901,-77.33952049,4,1,0,80,0,0
60980,-76.39419404,4,1,0,80,0,0
61059,-75.47169811,4,1,0,80,0,0
61138,-74.57121551,4,1,0,80,0,0
61217,-73.69196758,4,1,0,80,0,0
61296,-72.78020378,4,1,0,80,0,0
61375,-71.8907261,4,1,0,80,0,0
61454,-70.97232079,4,1,0,80,0,0
61533,-70.07708479,4,1,0,80,0,0
61611,-69.20415225,4,1,0,80,0,0
61690,-68.35269993,4,1,0,80,0,0
61769,-67.47638327,4,1,0,80,0,0
61848,-66.62225183,4,1,0,80,0,0
61927,-65.74621959,4,1,0,80,0,0
62006,-64.89292667,4,1,0,80,0,0
62085,-64.06149904,4,1,0,80,0,0
62164,-63.21112516,4,1,0,80,0,0
62243,-62.38303182,4,1,0,80,0,0
62322,-61.57635468,4,1,0,80,0,0
62401,-60.75334143,4,1,0,80,0,0
62480,-59.95203837,4,1,0,80,0,0
62559,-59.13660556,4,1,0,80,0,0
62638,-58.34305718,4,1,0,80,0,0
62717,-57.53739931,4,1,0,80,0,0
62796,-56.75368899,4,1,0,80,0,0
62875,-55.99104143,4,1,0,80,0,0
62954,-55.21811154,4,1,0,80,0,0
63033,-54.43658138,4,1,0,80,0,0
63111,-53.67686527,4,1,0,80,0,0
63190,-52.93806247,4,1,0,80,0,0
63269,-52.19206681,4,1,0,80,0,0
63348,-51.46680391,4,1,0,80,0,0
63427,-50.73566717,4,1,0,80,0,0
63506,-50,4,1,0,80,0,0
64139,-100,4,1,0,80,0,0
65086,-50,4,1,0,80,0,0
65402,-100,4,1,0,80,0,0
65442,-100,4,1,0,80,0,1
74876,-71.4285714285714,4,1,0,80,0,1
75192,-83.3333333333333,4,1,0,80,0,1
75507,-100,4,1,0,80,0,1
84981,-62.5,4,1,0,80,0,1
85297,-71.4285714285714,4,1,0,80,0,1
85613,-83.3333333333333,4,1,0,80,0,1
90192,-50,4,1,0,80,0,1
90665,-83.3333333333333,4,1,0,80,0,1
95402,-92.5925925925926,4,1,0,80,0,1
95757,-100,4,1,0,80,0,0
100139,-71.4285714285714,4,1,0,80,0,0
100455,-83.3333333333333,4,1,0,80,0,0
100771,-100,4,1,0,80,0,0
105823,-100,4,1,0,80,0,0
105901,-100.250626566416,4,1,0,80,0,0
105980,-100.502512562814,4,1,0,80,0,0
106059,-100.755667506297,4,1,0,80,0,0
106138,-101.010101010101,4,1,0,80,0,0
106217,-101.26582278481,4,1,0,80,0,0
106296,-101.522842639594,4,1,0,80,0,0
106375,-101.781170483461,4,1,0,80,0,0
106454,-102.040816326531,4,1,0,80,0,0
106533,-102.30179028133,4,1,0,80,0,0
106612,-102.564102564103,4,1,0,80,0,0
106691,-102.827763496144,4,1,0,80,0,0
106770,-103.092783505155,4,1,0,80,0,0
106849,-103.359173126615,4,1,0,80,0,0
106928,-103.626943005181,4,1,0,80,0,0
107007,-103.896103896104,4,1,0,80,0,0
107086,-104.166666666667,4,1,0,80,0,0
107165,-104.43864229765,4,1,0,80,0,0
107244,-104.712041884817,4,1,0,80,0,0
107323,-104.98687664042,4,1,0,80,0,0
107401,-105.263157894737,4,1,0,80,0,0
107480,-105.540897097625,4,1,0,80,0,0
107559,-105.820105820106,4,1,0,80,0,0
107638,-106.100795755968,4,1,0,80,0,0
107717,-106.382978723404,4,1,0,80,0,0
107796,-106.666666666667,4,1,0,80,0,0
107875,-106.951871657754,4,1,0,80,0,0
107954,-107.238605898123,4,1,0,80,0,0
108033,-107.52688172043,4,1,0,80,0,0
108112,-107.816711590296,4,1,0,80,0,0
108191,-108.108108108108,4,1,0,80,0,0
108270,-108.40108401084,4,1,0,80,0,0
108349,-108.695652173913,4,1,0,80,0,0
108428,-108.991825613079,4,1,0,80,0,0
108507,-109.289617486339,4,1,0,80,0,0
108586,-109.58904109589,4,1,0,80,0,0
108665,-109.89010989011,4,1,0,80,0,0
108744,-110.192837465564,4,1,0,80,0,0
108823,-110.497237569061,4,1,0,80,0,0
108901,-110.803324099723,4,1,0,80,0,0
108980,-111.111111111111,4,1,0,80,0,0
109059,-111.42061281337,4,1,0,80,0,0
109138,-111.731843575419,4,1,0,80,0,0
109217,-112.044817927171,4,1,0,80,0,0
109296,-112.359550561797,4,1,0,80,0,0
109375,-112.676056338028,4,1,0,80,0,0
109454,-112.994350282486,4,1,0,80,0,0
109533,-113.314447592068,4,1,0,80,0,0
109612,-113.636363636363,4,1,0,80,0,0
109691,-113.960113960114,4,1,0,80,0,0
109770,-114.285714285714,4,1,0,80,0,0
109849,-114.613180515759,4,1,0,80,0,0
109928,-114.942528735632,4,1,0,80,0,0
110007,-115.273775216138,4,1,0,80,0,0
110086,-115.606936416185,4,1,0,80,0,0
110165,-115.942028985507,4,1,0,80,0,0
110244,-116.279069767441,4,1,0,80,0,0
110323,-116.618075801749,4,1,0,80,0,0
110401,-116.959064327485,4,1,0,80,0,0
110480,-117.302052785923,4,1,0,80,0,0
110559,-117.647058823529,4,1,0,80,0,0
110638,-117.994100294985,4,1,0,80,0,0
110717,-118.343195266272,4,1,0,80,0,0
110796,-118.694362017804,4,1,0,80,0,0
110875,-119.047619047619,4,1,0,80,0,0
110954,-119.402985074626,4,1,0,80,0,0
111033,-119.760479041916,4,1,0,80,0,0
111112,-120.12012012012,4,1,0,80,0,0
111191,-120.481927710843,4,1,0,80,0,0
111270,-120.845921450151,4,1,0,80,0,0
111349,-121.212121212121,4,1,0,80,0,0
111428,-121.580547112461,4,1,0,80,0,0
111507,-121.951219512195,4,1,0,80,0,0
111586,-122.324159021406,4,1,0,80,0,0
111665,-122.699386503067,4,1,0,80,0,0
111744,-123.076923076922,4,1,0,80,0,0
111823,-123.456790123456,4,1,0,80,0,0
111901,-123.839009287925,4,1,0,80,0,0
111980,-124.223602484471,4,1,0,80,0,0
112059,-124.610591900311,4,1,0,80,0,0
112138,-124.999999999999,4,1,0,80,0,0
112217,-125.39184952978,4,1,0,80,0,0
112296,-125.786163522012,4,1,0,80,0,0
112375,-126.182965299684,4,1,0,80,0,0
112454,-126.582278481012,4,1,0,80,0,0
112533,-126.984126984126,4,1,0,80,0,0
112612,-127.388535031846,4,1,0,80,0,0
112691,-127.795527156549,4,1,0,80,0,0
112770,-128.205128205127,4,1,0,80,0,0
112849,-128.617363344051,4,1,0,80,0,0
112928,-129.032258064515,4,1,0,80,0,0
113007,-129.449838187701,4,1,0,80,0,0
113086,-129.870129870129,4,1,0,80,0,0
113165,-130.29315960912,4,1,0,80,0,0
113244,-130.718954248365,4,1,0,80,0,0
113323,-131.147540983606,4,1,0,80,0,0
113401,-131.57894736842,4,1,0,80,0,0
113480,-132.013201320131,4,1,0,80,0,0
113559,-132.450331125827,4,1,0,80,0,0
113638,-132.890365448504,4,1,0,80,0,0
113717,-133.333333333332,4,1,0,80,0,0
113796,-133.779264214046,4,1,0,80,0,0
113875,-134.228187919462,4,1,0,80,0,0
113954,-134.680134680134,4,1,0,80,0,0
114033,-135.135135135134,4,1,0,80,0,0
114112,-135.593220338982,4,1,0,80,0,0
114191,-136.054421768706,4,1,0,80,0,0
114270,-136.518771331057,4,1,0,80,0,0
114349,-136.986301369862,4,1,0,80,0,0
114428,-137.457044673538,4,1,0,80,0,0
114507,-137.931034482757,4,1,0,80,0,0
114586,-138.408304498269,4,1,0,80,0,0
114665,-138.888888888888,4,1,0,80,0,0
114744,-139.37282229965,4,1,0,80,0,0
114823,-139.860139860139,4,1,0,80,0,0
114901,-140.350877192981,4,1,0,80,0,0
114980,-140.845070422534,4,1,0,80,0,0
115059,-141.342756183744,4,1,0,80,0,0
115138,-141.843971631204,4,1,0,80,0,0
115217,-142.348754448397,4,1,0,80,0,0
115296,-55.5555555555556,4,1,0,80,0,0
115375,-71.4285714285714,4,1,0,80,0,0

[HitObjects]
256,192,1021,5,0,0:0:0:0:
256,192,1336,1,8,0:0:0:0:
256,192,1652,1,0,0:0:0:0:
256,192,1968,1,0,0:0:0:0:
256,192,2126,1,8,0:0:0:0:
256,192,2284,1,0,0:0:0:0:
256,192,2599,1,8,0:0:0:0:
256,192,2915,1,0,0:0:0:0:
256,192,3231,1,8,0:0:0:0:
256,192,3389,1,8,0:0:0:0:
256,192,3547,1,0,0:0:0:0:
256,192,3863,1,8,0:0:0:0:
256,192,4178,1,0,0:0:0:0:
256,192,4495,1,0,0:0:0:0:
256,192,4652,1,8,0:0:0:0:
256,192,4810,1,0,0:0:0:0:
256,192,5126,1,8,0:0:0:0:
256,192,5442,1,0,0:0:0:0:
256,192,5600,1,0,0:0:0:0:
256,192,5757,1,8,0:0:0:0:
256,192,5915,1,8,0:0:0:0:
256,192,6073,1,0,0:0:0:0:
256,192,6389,1,8,0:0:0:0:
256,192,6705,1,0,0:0:0:0:
256,192,7021,1,0,0:0:0:0:
256,192,7179,1,8,0:0:0:0:
256,192,7337,1,0,0:0:0:0:
256,192,7652,1,8,0:0:0:0:
256,192,7968,1,0,0:0:0:0:
256,192,8284,1,8,0:0:0:0:
256,192,8442,1,8,0:0:0:0:
256,192,8600,1,0,0:0:0:0:
256,192,8916,1,8,0:0:0:0:
256,192,9231,1,0,0:0:0:0:
256,192,9547,1,0,0:0:0:0:
256,192,9705,1,8,0:0:0:0:
256,192,9863,1,0,0:0:0:0:
256,192,10178,1,0,0:0:0:0:
256,192,10494,1,8,0:0:0:0:
256,192,10652,1,0,0:0:0:0:
256,192,10810,1,8,0:0:0:0:
256,192,10968,1,8,0:0:0:0:
256,192,11126,1,0,0:0:0:0:
256,192,11757,1,0,0:0:0:0:
256,192,12389,1,0,0:0:0:0:
256,192,13021,1,0,0:0:0:0:
256,192,13652,1,0,0:0:0:0:
256,192,14284,1,0,0:0:0:0:
256,192,14915,1,0,0:0:0:0:
256,192,15547,1,0,0:0:0:0:
256,192,16178,1,0,0:0:0:0:
256,192,16494,1,0,0:0:0:0:
256,192,16810,1,0,0:0:0:0:
256,192,17126,1,0,0:0:0:0:
256,192,17442,1,0,0:0:0:0:
256,192,17757,1,0,0:0:0:0:
256,192,18073,1,0,0:0:0:0:
256,192,18389,1,0,0:0:0:0:
256,192,18705,1,0,0:0:0:0:
256,192,18863,1,0,0:0:0:0:
256,192,19021,1,0,0:0:0:0:
256,192,19178,1,0,0:0:0:0:
256,192,19336,1,0,0:0:0:0:
256,192,19494,1,0,0:0:0:0:
256,192,19652,1,0,0:0:0:0:
256,192,19810,1,0,0:0:0:0:
256,192,19968,1,0,0:0:0:0:
256,192,20047,1,0,0:0:0:0:
256,192,20126,1,0,0:0:0:0:
256,192,20205,1,0,0:0:0:0:
256,192,20284,1,0,0:0:0:0:
256,192,20363,1,0,0:0:0:0:
256,192,20442,1,0,0:0:0:0:
256,192,20599,2,0,L|320:192,8,35
256,192,22494,1,0,0:0:0:0:
256,192,22968,1,0,0:0:0:0:
256,192,23284,1,0,0:0:0:0:
256,192,23442,1,12,0:0:0:0:
256,192,23757,1,0,0:0:0:0:
256,192,24073,1,0,0:0:0:0:
256,192,24389,1,0,0:0:0:0:
256,192,24705,1,0,0:0:0:0:
256,192,24863,1,8,0:0:0:0:
256,192,25021,1,0,0:0:0:0:
256,192,25336,1,0,0:0:0:0:
256,192,25652,1,0,0:0:0:0:
256,192,25968,1,0,0:0:0:0:
256,192,26126,1,8,0:0:0:0:
256,192,26284,1,0,0:0:0:0:
256,192,26442,1,8,0:0:0:0:
256,192,26521,1,8,0:0:0:0:
256,192,26599,1,0,0:0:0:0:
256,192,26757,1,8,0:0:0:0:
256,192,26915,1,0,0:0:0:0:
256,192,27073,1,8,0:0:0:0:
256,192,27152,1,8,0:0:0:0:
256,192,27231,1,0,0:0:0:0:
256,192,27389,1,8,0:0:0:0:
256,192,27547,1,0,0:0:0:0:
256,192,27705,1,8,0:0:0:0:
256,192,27784,1,8,0:0:0:0:
256,192,27863,1,8,0:0:0:0:
256,192,28021,1,8,0:0:0:0:
256,192,28178,1,0,0:0:0:0:
256,192,28336,1,0,0:0:0:0:
256,192,28494,1,8,0:0:0:0:
256,192,28810,1,0,0:0:0:0:
256,192,29126,1,0,0:0:0:0:
256,192,29442,1,0,0:0:0:0:
256,192,29599,1,8,0:0:0:0:
256,192,29757,1,0,0:0:0:0:
256,192,29915,1,8,0:0:0:0:
256,192,30073,1,0,0:0:0:0:
256,192,30389,1,0,0:0:0:0:
256,192,30705,1,0,0:0:0:0:
256,192,30863,1,8,0:0:0:0:
256,192,31021,1,0,0:0:0:0:
256,192,31178,1,8,0:0:0:0:
256,192,31336,1,0,0:0:0:0:
256,192,31494,1,8,0:0:0:0:
256,192,31573,1,8,0:0:0:0:
256,192,31652,1,0,0:0:0:0:
256,192,31810,1,8,0:0:0:0:
256,192,31889,1,8,0:0:0:0:
256,192,31968,1,0,0:0:0:0:
256,192,32126,1,8,0:0:0:0:
256,192,32205,1,8,0:0:0:0:
256,192,32284,1,0,0:0:0:0:
256,192,32442,1,8,0:0:0:0:
256,192,32599,1,0,0:0:0:0:
256,192,32757,1,0,0:0:0:0:
256,192,32915,1,8,0:0:0:0:
256,192,33073,1,8,0:0:0:0:
256,192,33231,1,0,0:0:0:0:
256,192,33310,1,0,0:0:0:0:
256,192,33389,1,0,0:0:0:0:
256,192,33547,1,8,0:0:0:0:
256,192,33863,1,4,0:0:0:0:
256,192,34178,1,8,0:0:0:0:
256,192,34494,1,0,0:0:0:0:
256,192,34810,1,0,0:0:0:0:
256,192,34968,1,8,0:0:0:0:
256,192,35126,1,0,0:0:0:0:
256,192,35442,1,8,0:0:0:0:
256,192,35757,1,0,0:0:0:0:
256,192,36073,1,0,0:0:0:0:
256,192,36231,1,8,0:0:0:0:
256,192,36389,1,0,0:0:0:0:
256,192,36547,1,8,0:0:0:0:
256,192,36626,1,8,0:0:0:0:
256,192,36705,1,0,0:0:0:0:
256,192,36863,1,8,0:0:0:0:
256,192,37021,1,0,0:0:0:0:
256,192,37178,1,8,0:0:0:0:
256,192,37257,1,8,0:0:0:0:
256,192,37336,1,0,0:0:0:0:
256,192,37494,1,8,0:0:0:0:
256,192,37652,1,0,0:0:0:0:
256,192,37810,1,0,0:0:0:0:
256,192,37889,1,0,0:0:0:0:
256,192,37968,1,8,0:0:0:0:
256,192,38126,1,0,0:0:0:0:
256,192,38284,1,12,0:0:0:0:
256,192,38599,1,4,0:0:0:0:
256,192,38915,1,8,0:0:0:0:
256,192,39152,1,0,0:0:0:0:
256,192,39231,1,0,0:0:0:0:
256,192,39389,1,8,0:0:0:0:
256,192,39626,1,0,0:0:0:0:
256,192,39705,1,0,0:0:0:0:
256,192,39863,1,8,0:0:0:0:
256,192,40021,1,0,0:0:0:0:
256,192,40099,1,0,0:0:0:0:
256,192,40178,1,8,0:0:0:0:
256,192,40336,1,0,0:0:0:0:
256,192,40494,1,8,0:0:0:0:
256,192,40573,1,8,0:0:0:0:
256,192,40652,1,8,0:0:0:0:
256,192,40810,1,0,0:0:0:0:
256,192,41126,1,0,0:0:0:0:
256,192,41284,1,8,0:0:0:0:
256,192,41442,1,0,0:0:0:0:
256,192,41599,1,8,0:0:0:0:
256,192,41678,1,8,0:0:0:0:
256,192,41757,1,0,0:0:0:0:
256,192,41915,1,8,0:0:0:0:
256,192,41994,1,8,0:0:0:0:
256,192,42073,1,0,0:0:0:0:
256,192,42231,1,8,0:0:0:0:
256,192,42310,1,8,0:0:0:0:
256,192,42389,1,0,0:0:0:0:
256,192,42547,1,8,0:0:0:0:
256,192,42705,1,0,0:0:0:0:
256,192,42863,1,8,0:0:0:0:
256,192,42942,1,8,0:0:0:0:
256,192,43021,1,8,0:0:0:0:
256,192,43178,1,8,0:0:0:0:
256,192,43336,1,0,0:0:0:0:
256,192,43494,1,0,0:0:0:0:
256,192,43573,1,0,0:0:0:0:
256,192,43652,1,0,0:0:0:0:
256,192,43810,1,8,0:0:0:0:
256,192,43968,1,0,0:0:0:0:
256,192,44284,1,0,0:0:0:0:
256,192,44599,1,0,0:0:0:0:
256,192,44915,1,0,0:0:0:0:
256,192,45231,1,0,0:0:0:0:
256,192,45547,1,0,0:0:0:0:
256,192,45863,1,0,0:0:0:0:
256,192,46178,1,0,0:0:0:0:
256,192,46336,1,0,0:0:0:0:
256,192,46494,1,0,0:0:0:0:
256,192,46810,1,0,0:0:0:0:
256,192,47126,1,0,0:0:0:0:
256,192,47442,1,0,0:0:0:0:
256,192,47757,1,0,0:0:0:0:
256,192,48073,1,0,0:0:0:0:
256,192,48389,1,0,0:0:0:0:
256,192,48547,1,0,0:0:0:0:
256,192,48705,1,0,0:0:0:0:
256,192,48863,1,0,0:0:0:0:
256,192,49021,1,0,0:0:0:0:
256,192,49336,1,0,0:0:0:0:
256,192,49652,1,0,0:0:0:0:
256,192,49968,1,0,0:0:0:0:
256,192,50284,1,0,0:0:0:0:
256,192,50599,1,0,0:0:0:0:
256,192,50915,1,0,0:0:0:0:
256,192,51231,1,0,0:0:0:0:
256,192,51389,1,0,0:0:0:0:
256,192,51547,1,0,0:0:0:0:
256,192,51863,1,0,0:0:0:0:
256,192,52178,1,0,0:0:0:0:
256,192,52494,1,0,0:0:0:0:
256,192,52810,1,0,0:0:0:0:
256,192,53126,1,0,0:0:0:0:
256,192,53442,1,0,0:0:0:0:
256,192,53757,1,8,0:0:0:0:
256,192,54073,1,4,0:0:0:0:
256,192,54389,1,8,0:0:0:0:
256,192,54705,1,4,0:0:0:0:
256,192,55021,1,8,0:0:0:0:
256,192,55337,1,4,0:0:0:0:
256,192,55653,1,8,0:0:0:0:
256,192,55969,1,4,0:0:0:0:
256,192,56284,1,0,0:0:0:0:
256,192,56442,1,8,0:0:0:0:
256,192,56600,1,4,0:0:0:0:
256,192,56916,1,8,0:0:0:0:
256,192,57232,1,4,0:0:0:0:
256,192,57547,1,8,0:0:0:0:
256,192,57863,1,4,0:0:0:0:
256,192,58179,1,8,0:0:0:0:
256,192,58495,1,4,0:0:0:0:
256,192,58810,1,0,0:0:0:0:
256,192,58968,1,8,0:0:0:0:
256,192,59126,1,4,0:0:0:0:
256,192,59442,1,4,0:0:0:0:
256,192,59758,1,4,0:0:0:0:
256,192,60073,1,4,0:0:0:0:
256,192,60389,1,4,0:0:0:0:
256,192,60705,1,4,0:0:0:0:
256,192,61021,1,4,0:0:0:0:
256,192,61336,1,4,0:0:0:0:
256,192,61652,1,0,0:0:0:0:
256,192,61810,1,0,0:0:0:0:
256,192,61968,1,0,0:0:0:0:
256,192,62126,1,0,0:0:0:0:
256,192,62284,1,0,0:0:0:0:
256,192,62442,1,0,0:0:0:0:
256,192,62599,1,0,0:0:0:0:
256,192,62757,1,0,0:0:0:0:
256,192,62915,1,0,0:0:0:0:
256,192,62994,1,0,0:0:0:0:
256,192,63073,1,0,0:0:0:0:
256,192,63152,1,0,0:0:0:0:
256,192,63231,1,0,0:0:0:0:
256,192,63310,1,0,0:0:0:0:
256,192,63389,1,0,0:0:0:0:
256,192,63468,1,0,0:0:0:0:
256,192,63547,12,8,64099,0:0:0:0:
256,192,64178,5,0,0:0:0:0:
256,192,65126,5,12,0:0:0:0:
256,192,65442,1,0,0:0:0:0:
256,192,65599,1,8,0:0:0:0:
256,192,65678,1,8,0:0:0:0:
256,192,65757,1,0,0:0:0:0:
256,192,65915,1,8,0:0:0:0:
256,192,66073,1,0,0:0:0:0:
256,192,66231,1,8,0:0:0:0:
256,192,66310,1,8,0:0:0:0:
256,192,66389,1,0,0:0:0:0:
256,192,66547,1,8,0:0:0:0:
256,192,66705,1,0,0:0:0:0:
256,192,66863,1,8,0:0:0:0:
256,192,66942,1,8,0:0:0:0:
256,192,67021,1,0,0:0:0:0:
256,192,67178,1,8,0:0:0:0:
256,192,67257,1,8,0:0:0:0:
256,192,67336,1,0,0:0:0:0:
256,192,67494,1,0,0:0:0:0:
256,192,67652,1,8,0:0:0:0:
256,192,67968,1,0,0:0:0:0:
256,192,68126,1,8,0:0:0:0:
256,192,68205,1,8,0:0:0:0:
256,192,68284,1,0,0:0:0:0:
256,192,68442,1,8,0:0:0:0:
256,192,68599,1,0,0:0:0:0:
256,192,68678,1,0,0:0:0:0:
256,192,68757,1,8,0:0:0:0:
256,192,68915,1,0,0:0:0:0:
256,192,69073,1,8,0:0:0:0:
256,192,69152,1,8,0:0:0:0:
256,192,69231,1,0,0:0:0:0:
256,192,69389,1,8,0:0:0:0:
256,192,69468,1,8,0:0:0:0:
256,192,69547,1,0,0:0:0:0:
256,192,69705,1,8,0:0:0:0:
256,192,69862,1,0,0:0:0:0:
256,192,69942,1,0,0:0:0:0:
256,192,70021,1,0,0:0:0:0:
256,192,70178,1,8,0:0:0:0:
256,192,70494,1,0,0:0:0:0:
256,192,70652,1,8,0:0:0:0:
256,192,70731,1,8,0:0:0:0:
256,192,70810,1,0,0:0:0:0:
256,192,70968,1,8,0:0:0:0:
256,192,71126,1,0,0:0:0:0:
256,192,71284,1,8,0:0:0:0:
256,192,71363,1,8,0:0:0:0:
256,192,71442,1,0,0:0:0:0:
256,192,71600,1,8,0:0:0:0:
256,192,71758,1,0,0:0:0:0:
256,192,71915,1,8,0:0:0:0:
256,192,71994,1,8,0:0:0:0:
256,192,72073,1,0,0:0:0:0:
256,192,72231,1,8,0:0:0:0:
256,192,72310,1,8,0:0:0:0:
256,192,72389,1,0,0:0:0:0:
256,192,72547,1,0,0:0:0:0:
256,192,72705,1,8,0:0:0:0:
256,192,73021,1,0,0:0:0:0:
256,192,73179,1,8,0:0:0:0:
256,192,73257,1,8,0:0:0:0:
256,192,73337,1,0,0:0:0:0:
256,192,73495,1,8,0:0:0:0:
256,192,73652,1,0,0:0:0:0:
256,192,73731,1,0,0:0:0:0:
256,192,73810,1,8,0:0:0:0:
256,192,73968,1,0,0:0:0:0:
256,192,74126,1,8,0:0:0:0:
256,192,74205,1,8,0:0:0:0:
256,192,74284,1,0,0:0:0:0:
256,192,74442,1,8,0:0:0:0:
256,192,74521,1,8,0:0:0:0:
256,192,74599,1,0,0:0:0:0:
256,192,74757,1,0,0:0:0:0:
256,192,74915,1,12,0:0:0:0:
256,192,75231,1,4,0:0:0:0:
256,192,75547,1,0,0:0:0:0:
256,192,75704,1,8,0:0:0:0:
256,192,75783,1,8,0:0:0:0:
256,192,75862,1,0,0:0:0:0:
256,192,76020,1,8,0:0:0:0:
256,192,76178,1,0,0:0:0:0:
256,192,76336,1,8,0:0:0:0:
256,192,76415,1,8,0:0:0:0:
256,192,76494,1,0,0:0:0:0:
256,192,76652,1,8,0:0:0:0:
256,192,76810,1,0,0:0:0:0:
256,192,76889,1,0,0:0:0:0:
256,192,76968,1,8,0:0:0:0:
256,192,77126,1,0,0:0:0:0:
256,192,77205,1,0,0:0:0:0:
256,192,77284,1,8,0:0:0:0:
256,192,77442,1,0,0:0:0:0:
256,192,77599,1,0,0:0:0:0:
256,192,77678,1,0,0:0:0:0:
256,192,77757,1,8,0:0:0:0:
256,192,78073,1,0,0:0:0:0:
256,192,78231,1,8,0:0:0:0:
256,192,78310,1,8,0:0:0:0:
256,192,78389,1,0,0:0:0:0:
256,192,78547,1,8,0:0:0:0:
256,192,78704,1,0,0:0:0:0:
256,192,78784,1,0,0:0:0:0:
256,192,78862,1,8,0:0:0:0:
256,192,79020,1,0,0:0:0:0:
256,192,79178,1,8,0:0:0:0:
256,192,79257,1,8,0:0:0:0:
256,192,79336,1,0,0:0:0:0:
256,192,79494,1,8,0:0:0:0:
256,192,79573,1,8,0:0:0:0:
256,192,79652,1,0,0:0:0:0:
256,192,79810,1,8,0:0:0:0:
256,192,79889,1,8,0:0:0:0:
256,192,79967,1,0,0:0:0:0:
256,192,80125,1,0,0:0:0:0:
256,192,80283,1,8,0:0:0:0:
256,192,80599,1,0,0:0:0:0:
256,192,80757,1,8,0:0:0:0:
256,192,80836,1,8,0:0:0:0:
256,192,80915,1,0,0:0:0:0:
256,192,81073,1,8,0:0:0:0:
256,192,81231,1,0,0:0:0:0:
256,192,81389,1,8,0:0:0:0:
256,192,81468,1,8,0:0:0:0:
256,192,81547,1,0,0:0:0:0:
256,192,81705,1,8,0:0:0:0:
256,192,81863,1,0,0:0:0:0:
256,192,81942,1,0,0:0:0:0:
256,192,82021,1,8,0:0:0:0:
256,192,82178,1,0,0:0:0:0:
256,192,82257,1,0,0:0:0:0:
256,192,82336,1,8,0:0:0:0:
256,192,82494,1,0,0:0:0:0:
256,192,82652,1,0,0:0:0:0:
256,192,82731,1,0,0:0:0:0:
256,192,82810,1,8,0:0:0:0:
256,192,83126,1,0,0:0:0:0:
256,192,83284,1,8,0:0:0:0:
256,192,83363,1,8,0:0:0:0:
256,192,83442,1,0,0:0:0:0:
256,192,83600,1,8,0:0:0:0:
256,192,83757,1,0,0:0:0:0:
256,192,83836,1,0,0:0:0:0:
256,192,83915,1,8,0:0:0:0:
256,192,84073,1,0,0:0:0:0:
256,192,84231,1,8,0:0:0:0:
256,192,84310,1,8,0:0:0:0:
256,192,84389,1,0,0:0:0:0:
256,192,84547,1,8,0:0:0:0:
256,192,84626,1,8,0:0:0:0:
256,192,84705,1,0,0:0:0:0:
256,192,84862,1,0,0:0:0:0:
256,192,85020,1,12,0:0:0:0:
256,192,85336,1,4,0:0:0:0:
256,192,85652,1,0,0:0:0:0:
256,192,85810,1,0,0:0:0:0:
256,192,85968,1,8,0:0:0:0:
256,192,86126,1,8,0:0:0:0:
256,192,86284,1,0,0:0:0:0:
256,192,86363,1,0,0:0:0:0:
256,192,86442,1,0,0:0:0:0:
256,192,86599,1,8,0:0:0:0:
256,192,86757,1,8,0:0:0:0:
256,192,86915,1,0,0:0:0:0:
256,192,87073,1,0,0:0:0:0:
256,192,87231,1,8,0:0:0:0:
256,192,87389,1,8,0:0:0:0:
256,192,87547,1,0,0:0:0:0:
256,192,87626,1,0,0:0:0:0:
256,192,87705,1,0,0:0:0:0:
256,192,87863,1,8,0:0:0:0:
256,192,88021,1,8,0:0:0:0:
256,192,88178,1,0,0:0:0:0:
256,192,88336,1,8,0:0:0:0:
256,192,88415,1,8,0:0:0:0:
256,192,88494,1,8,0:0:0:0:
256,192,88652,1,0,0:0:0:0:
256,192,88810,1,8,0:0:0:0:
256,192,88968,1,0,0:0:0:0:
256,192,89047,1,0,0:0:0:0:
256,192,89126,1,8,0:0:0:0:
256,192,89284,1,0,0:0:0:0:
256,192,89363,1,0,0:0:0:0:
256,192,89442,1,8,0:0:0:0:
256,192,89599,1,8,0:0:0:0:
256,192,89757,1,0,0:0:0:0:
256,192,89836,1,0,0:0:0:0:
256,192,89915,1,8,0:0:0:0:
256,192,89994,1,8,0:0:0:0:
256,192,90073,1,0,0:0:0:0:
256,192,90231,1,12,0:0:0:0:
256,192,90389,1,12,0:0:0:0:
256,192,90705,1,8,0:0:0:0:
256,192,90863,1,8,0:0:0:0:
256,192,91021,1,0,0:0:0:0:
256,192,91179,1,0,0:0:0:0:
256,192,91337,1,8,0:0:0:0:
256,192,91416,1,8,0:0:0:0:
256,192,91495,1,8,0:0:0:0:
256,192,91652,1,0,0:0:0:0:
256,192,91810,1,0,0:0:0:0:
256,192,91968,1,8,0:0:0:0:
256,192,92126,1,8,0:0:0:0:
256,192,92284,1,0,0:0:0:0:
256,192,92363,1,0,0:0:0:0:
256,192,92442,1,8,0:0:0:0:
256,192,92599,1,8,0:0:0:0:
256,192,92757,1,0,0:0:0:0:
256,192,92915,1,8,0:0:0:0:
256,192,92994,1,8,0:0:0:0:
256,192,93073,1,0,0:0:0:0:
256,192,93231,1,8,0:0:0:0:
256,192,93310,1,8,0:0:0:0:
256,192,93389,1,0,0:0:0:0:
256,192,93547,1,8,0:0:0:0:
256,192,93705,1,0,0:0:0:0:
256,192,93784,1,0,0:0:0:0:
256,192,93863,1,8,0:0:0:0:
256,192,94021,1,0,0:0:0:0:
256,192,94099,1,0,0:0:0:0:
256,192,94178,1,8,0:0:0:0:
256,192,94257,1,8,0:0:0:0:
256,192,94336,1,0,0:0:0:0:
256,192,94494,1,8,0:0:0:0:
256,192,94652,1,0,0:0:0:0:
256,192,94731,1,8,0:0:0:0:
256,192,94810,1,0,0:0:0:0:
256,192,94968,1,8,0:0:0:0:
256,192,95126,1,4,0:0:0:0:
256,192,95442,1,8,0:0:0:0:
256,192,95757,1,0,0:0:0:0:
256,192,96073,1,0,0:0:0:0:
256,192,96389,1,0,0:0:0:0:
256,192,96705,1,0,0:0:0:0:
256,192,97021,1,0,0:0:0:0:
256,192,97336,1,0,0:0:0:0:
256,192,97652,1,0,0:0:0:0:
256,192,97968,1,0,0:0:0:0:
256,192,98126,1,0,0:0:0:0:
256,192,98284,1,0,0:0:0:0:
256,192,98599,1,0,0:0:0:0:
256,192,98757,1,8,0:0:0:0:
256,192,98915,1,0,0:0:0:0:
256,192,99231,1,0,0:0:0:0:
256,192,99389,1,8,0:0:0:0:
256,192,99547,1,0,0:0:0:0:
256,192,99705,1,0,0:0:0:0:
256,192,99863,1,8,0:0:0:0:
256,192,100021,1,0,0:0:0:0:
256,192,100178,1,12,0:0:0:0:
256,192,100494,1,4,0:0:0:0:
256,192,100810,1,8,0:0:0:0:
256,192,101126,1,0,0:0:0:0:
256,192,101284,1,8,0:0:0:0:
256,192,101599,1,0,0:0:0:0:
256,192,101757,1,8,0:0:0:0:
256,192,102073,1,0,0:0:0:0:
256,192,102231,1,0,0:0:0:0:
256,192,102389,1,8,0:0:0:0:
256,192,102705,1,0,0:0:0:0:
256,192,103178,1,0,0:0:0:0:
256,192,103336,1,0,0:0:0:0:
256,192,103494,1,0,0:0:0:0:
256,192,103652,1,8,0:0:0:0:
256,192,103968,1,0,0:0:0:0:
256,192,104284,1,8,0:0:0:0:
256,192,104442,1,8,0:0:0:0:
256,192,104599,1,0,0:0:0:0:
256,192,104757,1,0,0:0:0:0:
256,192,104915,1,8,0:0:0:0:
256,192,105231,1,0,0:0:0:0:
256,192,105863,1,0,0:0:0:0:
256,192,106494,1,0,0:0:0:0:
256,192,107126,1,0,0:0:0:0:
256,192,107757,1,0,0:0:0:0:
256,192,108389,1,0,0:0:0:0:
256,192,109021,1,0,0:0:0:0:
256,192,109652,1,0,0:0:0:0:
256,192,110284,1,0,0:0:0:0:
256,192,110915,1,0,0:0:0:0:
256,192,111231,1,0,0:0:0:0:
256,192,111547,1,0,0:0:0:0:
256,192,111863,1,0,0:0:0:0:
256,192,112178,1,0,0:0:0:0:
256,192,112494,1,0,0:0:0:0:
256,192,112810,1,0,0:0:0:0:
256,192,113126,1,0,0:0:0:0:
256,192,113442,1,0,0:0:0:0:
256,192,113599,1,0,0:0:0:0:
256,192,113757,1,0,0:0:0:0:
256,192,113915,1,0,0:0:0:0:
256,192,114073,1,0,0:0:0:0:
256,192,114231,1,0,0:0:0:0:
256,192,114389,1,0,0:0:0:0:
256,192,114547,1,0,0:0:0:0:
256,192,114705,1,0,0:0:0:0:
256,192,114784,1,0,0:0:0:0:
256,192,114863,1,0,0:0:0:0:
256,192,114942,1,0,0:0:0:0:
256,192,115021,1,0,0:0:0:0:
256,192,115099,1,0,0:0:0:0:
256,192,115178,1,0,0:0:0:0:
256,192,115336,1,12,0:0:0:0:
256,192,115652,1,4,0:0:0:0:
