osu file format v14

[General]
AudioFilename: audio.mp3
AudioLeadIn: 0
PreviewTime: 64372
Countdown: 0
SampleSet: Normal
StackLeniency: 0.2
Mode: 1
LetterboxInBreaks: 0
WidescreenStoryboard: 1

[Editor]
Bookmarks: 346,23082,33188,43293,53398,64767,74872,84977,95082,105188,115293
DistanceSpacing: 1.4
BeatDivisor: 4
GridSize: 32
TimelineZoom: 2.2

[Metadata]
Title:Chewingood!!!
TitleUnicode:Chewingood!!!
Artist:TORIENA
ArtistUnicode:TORIENA
Creator:iceOC
Version:Kantan
Source:beatmania IIDX 28 BISTROVER
Tags:japanese video game bemani sound voltex exceed gear 6 vi sdvx chip rave chiptune
BeatmapID:3076085
BeatmapSetID:1501192

[Difficulty]
HPDrainRate:8
CircleSize:2
OverallDifficulty:3
ApproachRate:10
SliderMultiplier:1.2
SliderTickRate:1

[Events]
//Background and Video events
0,0,"Chewingood!!!-bg.png",0,130
//Break Periods
//Storyboard Layer 0 (Background)
//Storyboard Layer 1 (Fail)
//Storyboard Layer 2 (Pass)
//Storyboard Layer 3 (Foreground)
//Storyboard Layer 4 (Overlay)
//Storyboard Sound Samples

[TimingPoints]
1021,315.789473684211,4,1,0,80,1,0
22455,-105.263157894737,4,1,0,80,0,0
22928,-100,4,1,0,80,0,0
23402,-95.2380952380952,4,1,0,80,0,0
23718,-100,4,1,0,80,0,0
38244,-94.3396226415094,4,1,0,80,0,0
38560,-97.0873786407767,4,1,0,80,0,0
38876,-100,4,1,0,80,0,0
43928,-100,4,1,0,80,0,0
44085,-100.200400801603,4,1,0,80,0,0
44243,-100.401606425703,4,1,0,80,0,0
44401,-100.603621730382,4,1,0,80,0,0
44559,-100.806451612903,4,1,0,80,0,0
44717,-101.010101010101,4,1,0,80,0,0
44875,-101.214574898785,4,1,0,80,0,0
45033,-101.419878296146,4,1,0,80,0,0
45191,-101.626016260163,4,1,0,80,0,0
45349,-101.83299389002,4,1,0,80,0,0
45506,-102.040816326531,4,1,0,80,0,0
45664,-102.249488752556,4,1,0,80,0,0
45822,-102.459016393443,4,1,0,80,0,0
45980,-102.669404517454,4,1,0,80,0,0
46138,-102.880658436214,4,1,0,80,0,0
46296,-103.092783505155,4,1,0,80,0,0
46454,-103.305785123967,4,1,0,80,0,0
46612,-103.51966873706,4,1,0,80,0,0
46770,-103.734439834025,4,1,0,80,0,0
46928,-103.950103950104,4,1,0,80,0,0
47085,-104.166666666667,4,1,0,80,0,0
47243,-104.384133611691,4,1,0,80,0,0
47401,-104.602510460251,4,1,0,80,0,0
47559,-104.82180293501,4,1,0,80,0,0
47717,-105.042016806723,4,1,0,80,0,0
47875,-105.263157894737,4,1,0,80,0,0
48033,-105.485232067511,4,1,0,80,0,0
48191,-105.708245243129,4,1,0,80,0,0
48349,-105.932203389831,4,1,0,80,0,0
48506,-106.157112526539,4,1,0,80,0,0
48664,-106.382978723404,4,1,0,80,0,0
48822,-106.609808102345,4,1,0,80,0,0
48980,-106.837606837607,4,1,0,80,0,0
49138,-107.066381156317,4,1,0,80,0,0
49296,-107.296137339056,4,1,0,80,0,0
49454,-107.52688172043,4,1,0,80,0,0
49612,-107.758620689655,4,1,0,80,0,0
49770,-107.991360691145,4,1,0,80,0,0
49928,-108.225108225108,4,1,0,80,0,0
50085,-108.459869848156,4,1,0,80,0,0
50243,-108.695652173913,4,1,0,80,0,0
50401,-108.932461873638,4,1,0,80,0,0
50559,-109.170305676856,4,1,0,80,0,0
50717,-109.409190371991,4,1,0,80,0,0
50875,-109.649122807018,4,1,0,80,0,0
51033,-109.89010989011,4,1,0,80,0,0
51191,-110.132158590308,4,1,0,80,0,0
51349,-110.37527593819,4,1,0,80,0,0
51506,-110.619469026549,4,1,0,80,0,0
51664,-110.864745011086,4,1,0,80,0,0
51822,-111.111111111111,4,1,0,80,0,0
51980,-111.358574610245,4,1,0,80,0,0
52138,-111.607142857143,4,1,0,80,0,0
52296,-111.856823266219,4,1,0,80,0,0
52454,-112.107623318386,4,1,0,80,0,0
52612,-112.359550561798,4,1,0,80,0,0
52770,-112.612612612613,4,1,0,80,0,0
52928,-112.866817155756,4,1,0,80,0,0
53085,-113.122171945701,4,1,0,80,0,0
53243,-113.378684807256,4,1,0,80,0,0
53401,-113.636363636364,4,1,0,80,0,0
53559,-113.895216400911,4,1,0,80,0,0
53717,-114.155251141553,4,1,0,80,0,0
53875,-114.41647597254,4,1,0,80,0,0
54033,-113.6363636,4,1,0,80,0,0
54111,-113.5603518,4,1,0,80,0,0
54190,-113.4836353,4,1,0,80,0,0
54269,-113.4062155,4,1,0,80,0,0
54348,-113.328094,4,1,0,80,0,0
54427,-113.2492723,4,1,0,80,0,0
54506,-113.1697519,4,1,0,80,0,0
54585,-113.0895345,4,1,0,80,0,0
54664,-113.0086214,4,1,0,80,0,0
54743,-112.9270144,4,1,0,80,0,0
54822,-112.844715,4,1,0,80,0,0
54901,-112.7617248,4,1,0,80,0,0
54980,-112.6780454,4,1,0,80,0,0
55059,-112.5936785,4,1,0,80,0,0
55138,-112.5086256,4,1,0,80,0,0
55217,-112.4228886,4,1,0,80,0,0
55296,-112.3364688,4,1,0,80,0,0
55375,-112.2493682,4,1,0,80,0,0
55454,-112.1615884,4,1,0,80,0,0
55533,-112.0731309,4,1,0,80,0,0
55611,-111.9839978,4,1,0,80,0,0
55690,-111.8941904,4,1,0,80,0,0
55769,-111.8037106,4,1,0,80,0,0
55848,-111.7125604,4,1,0,80,0,0
55927,-111.6207412,4,1,0,80,0,0
56006,-111.5282549,4,1,0,80,0,0
56085,-111.4351033,4,1,0,80,0,0
56164,-111.3412882,4,1,0,80,0,0
56243,-111.2468115,4,1,0,80,0,0
56322,-111.1516748,4,1,0,80,0,0
56401,-111.0558801,4,1,0,80,0,0
56480,-110.9594291,4,1,0,80,0,0
56559,-110.8623239,4,1,0,80,0,0
56638,-110.7645661,4,1,0,80,0,0
56717,-110.6661577,4,1,0,80,0,0
56796,-110.5671006,4,1,0,80,0,0
56875,-110.4673966,4,1,0,80,0,0
56954,-110.3670477,4,1,0,80,0,0
57033,-110.2660558,4,1,0,80,0,0
57111,-110.1644229,4,1,0,80,0,0
57190,-110.0621509,4,1,0,80,0,0
57269,-109.9592417,4,1,0,80,0,0
57348,-109.8556973,4,1,0,80,0,0
57427,-109.7515197,4,1,0,80,0,0
57506,-109.6467108,4,1,0,80,0,0
57585,-109.5412727,4,1,0,80,0,0
57664,-109.4352073,4,1,0,80,0,0
57743,-109.3285168,4,1,0,80,0,0
57822,-109.2212031,4,1,0,80,0,0
57901,-109.1132683,4,1,0,80,0,0
57980,-109.0047143,4,1,0,80,0,0
58059,-108.8955433,4,1,0,80,0,0
58138,-108.7857574,4,1,0,80,0,0
58217,-108.6753586,4,1,0,80,0,0
58296,-108.5643489,4,1,0,80,0,0
58375,-108.4527307,4,1,0,80,0,0
58454,-108.3405058,4,1,0,80,0,0
58533,-108.2276764,4,1,0,80,0,0
58611,-108.1142448,4,1,0,80,0,0
58690,-108.000213,4,1,0,80,0,0
58769,-107.8855832,4,1,0,80,0,0
58848,-107.7703574,4,1,0,80,0,0
58927,-107.654538,4,1,0,80,0,0
59006,-107.5381271,4,1,0,80,0,0
59085,-107.4211268,4,1,0,80,0,0
59164,-107.3035393,4,1,0,80,0,0
59243,-107.185367,4,1,0,80,0,0
59322,-107.066612,4,1,0,80,0,0
59401,-106.9472765,4,1,0,80,0,0
59480,-106.8273627,4,1,0,80,0,0
59559,-106.7068729,4,1,0,80,0,0
59638,-106.5858094,4,1,0,80,0,0
59717,-106.4641744,4,1,0,80,0,0
59796,-106.3419702,4,1,0,80,0,0
59875,-106.219199,4,1,0,80,0,0
59954,-106.0958632,4,1,0,80,0,0
60033,-105.971965,4,1,0,80,0,0
60111,-105.8475068,4,1,0,80,0,0
60190,-105.7224908,4,1,0,80,0,0
60269,-105.5969195,4,1,0,80,0,0
60348,-105.470795,4,1,0,80,0,0
60427,-105.3441198,4,1,0,80,0,0
60506,-105.2168964,4,1,0,80,0,0
60585,-105.0891268,4,1,0,80,0,0
60664,-104.9608134,4,1,0,80,0,0
60743,-104.8319589,4,1,0,80,0,0
60822,-104.7025654,4,1,0,80,0,0
60901,-104.5726353,4,1,0,80,0,0
60980,-104.4421712,4,1,0,80,0,0
61059,-104.3111752,4,1,0,80,0,0
61138,-104.1796499,4,1,0,80,0,0
61217,-104.0475978,4,1,0,80,0,0
61296,-103.9150212,4,1,0,80,0,0
61375,-103.7819224,4,1,0,80,0,0
61454,-103.6483042,4,1,0,80,0,0
61533,-103.5141687,4,1,0,80,0,0
61611,-103.3795185,4,1,0,80,0,0
61690,-103.2443561,4,1,0,80,0,0
61769,-103.1086838,4,1,0,80,0,0
61848,-102.9725043,4,1,0,80,0,0
61927,-102.83582,4,1,0,80,0,0
62006,-102.6986332,4,1,0,80,0,0
62085,-102.5609467,4,1,0,80,0,0
62164,-102.4227629,4,1,0,80,0,0
62243,-102.2840842,4,1,0,80,0,0
62322,-102.1449132,4,1,0,80,0,0
62401,-102.0052524,4,1,0,80,0,0
62480,-101.8651043,4,1,0,80,0,0
62559,-101.7244716,4,1,0,80,0,0
62638,-101.5833566,4,1,0,80,0,0
62717,-101.4417619,4,1,0,80,0,0
62796,-101.2996902,4,1,0,80,0,0
62875,-101.1571441,4,1,0,80,0,0
62954,-101.0141259,4,1,0,80,0,0
63033,-100.8706382,4,1,0,80,0,0
63111,-100.7266838,4,1,0,80,0,0
63190,-100.5822651,4,1,0,80,0,0
63269,-100.4373848,4,1,0,80,0,0
63348,-100.2920454,4,1,0,80,0,0
63427,-100.1462497,4,1,0,80,0,0
63506,-100,4,1,0,80,0,0
64139,-100,4,1,0,80,0,0
65086,-95.2380952380952,4,1,0,80,0,0
65402,-100,4,1,0,80,0,0
65442,-100,4,1,0,80,0,1
74876,-90.9090909090909,4,1,0,80,0,1
75192,-95.2380952380952,4,1,0,80,0,1
75507,-100,4,1,0,80,0,1
84981,-90.9090909090909,4,1,0,80,0,1
85297,-95.2380952380952,4,1,0,80,0,1
85613,-100,4,1,0,80,0,1
90665,-100,4,1,0,80,0,1
95757,-100,4,1,0,80,0,0
100139,-94.3396226415094,4,1,0,80,0,0
100455,-97.0873786407767,4,1,0,80,0,0
100771,-100,4,1,0,80,0,0
105823,-100,4,1,0,80,0,0
105901,-100.250626566416,4,1,0,80,0,0
105980,-100.502512562814,4,1,0,80,0,0
106059,-100.755667506297,4,1,0,80,0,0
106138,-101.010101010101,4,1,0,80,0,0
106217,-101.26582278481,4,1,0,80,0,0
106296,-101.522842639594,4,1,0,80,0,0
106375,-101.781170483461,4,1,0,80,0,0
106454,-102.040816326531,4,1,0,80,0,0
106533,-102.30179028133,4,1,0,80,0,0
106612,-102.564102564103,4,1,0,80,0,0
106691,-102.827763496144,4,1,0,80,0,0
106770,-103.092783505155,4,1,0,80,0,0
106849,-103.359173126615,4,1,0,80,0,0
106928,-103.626943005181,4,1,0,80,0,0
107007,-103.896103896104,4,1,0,80,0,0
107086,-104.166666666667,4,1,0,80,0,0
107165,-104.43864229765,4,1,0,80,0,0
107244,-104.712041884817,4,1,0,80,0,0
107323,-104.98687664042,4,1,0,80,0,0
107401,-105.263157894737,4,1,0,80,0,0
107480,-105.540897097625,4,1,0,80,0,0
107559,-105.820105820106,4,1,0,80,0,0
107638,-106.100795755968,4,1,0,80,0,0
107717,-106.382978723404,4,1,0,80,0,0
107796,-106.666666666667,4,1,0,80,0,0
107875,-106.951871657754,4,1,0,80,0,0
107954,-107.238605898123,4,1,0,80,0,0
108033,-107.52688172043,4,1,0,80,0,0
108112,-107.816711590296,4,1,0,80,0,0
108191,-108.108108108108,4,1,0,80,0,0
108270,-108.40108401084,4,1,0,80,0,0
108349,-108.695652173913,4,1,0,80,0,0
108428,-108.991825613079,4,1,0,80,0,0
108507,-109.289617486339,4,1,0,80,0,0
108586,-109.58904109589,4,1,0,80,0,0
108665,-109.89010989011,4,1,0,80,0,0
108744,-110.192837465564,4,1,0,80,0,0
108823,-110.497237569061,4,1,0,80,0,0
108901,-110.803324099723,4,1,0,80,0,0
108980,-111.111111111111,4,1,0,80,0,0
109059,-111.42061281337,4,1,0,80,0,0
109138,-111.731843575419,4,1,0,80,0,0
109217,-112.044817927171,4,1,0,80,0,0
109296,-112.359550561797,4,1,0,80,0,0
109375,-112.676056338028,4,1,0,80,0,0
109454,-112.994350282486,4,1,0,80,0,0
109533,-113.314447592068,4,1,0,80,0,0
109612,-113.636363636363,4,1,0,80,0,0
109691,-113.960113960114,4,1,0,80,0,0
109770,-114.285714285714,4,1,0,80,0,0
109849,-114.613180515759,4,1,0,80,0,0
109928,-114.942528735632,4,1,0,80,0,0
110007,-115.273775216138,4,1,0,80,0,0
110086,-115.606936416185,4,1,0,80,0,0
110165,-115.942028985507,4,1,0,80,0,0
110244,-116.279069767441,4,1,0,80,0,0
110323,-116.618075801749,4,1,0,80,0,0
110401,-116.959064327485,4,1,0,80,0,0
110480,-117.302052785923,4,1,0,80,0,0
110559,-117.647058823529,4,1,0,80,0,0
110638,-117.994100294985,4,1,0,80,0,0
110717,-118.343195266272,4,1,0,80,0,0
110796,-118.694362017804,4,1,0,80,0,0
110875,-119.047619047619,4,1,0,80,0,0
110954,-119.402985074626,4,1,0,80,0,0
111033,-119.760479041916,4,1,0,80,0,0
111112,-120.12012012012,4,1,0,80,0,0
111191,-120.481927710843,4,1,0,80,0,0
111270,-120.845921450151,4,1,0,80,0,0
111349,-121.212121212121,4,1,0,80,0,0
111428,-121.580547112461,4,1,0,80,0,0
111507,-121.951219512195,4,1,0,80,0,0
111586,-122.324159021406,4,1,0,80,0,0
111665,-122.699386503067,4,1,0,80,0,0
111744,-123.076923076922,4,1,0,80,0,0
111823,-123.456790123456,4,1,0,80,0,0
111901,-123.839009287925,4,1,0,80,0,0
111980,-124.223602484471,4,1,0,80,0,0
112059,-124.610591900311,4,1,0,80,0,0
112138,-124.999999999999,4,1,0,80,0,0
112217,-125.39184952978,4,1,0,80,0,0
112296,-125.786163522012,4,1,0,80,0,0
112375,-126.182965299684,4,1,0,80,0,0
112454,-126.582278481012,4,1,0,80,0,0
112533,-126.984126984126,4,1,0,80,0,0
112612,-127.388535031846,4,1,0,80,0,0
112691,-127.795527156549,4,1,0,80,0,0
112770,-128.205128205127,4,1,0,80,0,0
112849,-128.617363344051,4,1,0,80,0,0
112928,-129.032258064515,4,1,0,80,0,0
113007,-129.449838187701,4,1,0,80,0,0
113086,-129.870129870129,4,1,0,80,0,0
113165,-130.29315960912,4,1,0,80,0,0
113244,-130.718954248365,4,1,0,80,0,0
113323,-131.147540983606,4,1,0,80,0,0
113401,-131.57894736842,4,1,0,80,0,0
113480,-132.013201320131,4,1,0,80,0,0
113559,-132.450331125827,4,1,0,80,0,0
113638,-132.890365448504,4,1,0,80,0,0
113717,-133.333333333332,4,1,0,80,0,0
113796,-133.779264214046,4,1,0,80,0,0
113875,-134.228187919462,4,1,0,80,0,0
113954,-134.680134680134,4,1,0,80,0,0
114033,-135.135135135134,4,1,0,80,0,0
114112,-135.593220338982,4,1,0,80,0,0
114191,-136.054421768706,4,1,0,80,0,0
114270,-136.518771331057,4,1,0,80,0,0
114349,-136.986301369862,4,1,0,80,0,0
114428,-137.457044673538,4,1,0,80,0,0
114507,-137.931034482757,4,1,0,80,0,0
114586,-138.408304498269,4,1,0,80,0,0
114665,-138.888888888888,4,1,0,80,0,0
114744,-139.37282229965,4,1,0,80,0,0
114823,-139.860139860139,4,1,0,80,0,0
114901,-140.350877192981,4,1,0,80,0,0
114980,-140.845070422534,4,1,0,80,0,0
115059,-141.342756183744,4,1,0,80,0,0
115138,-141.843971631204,4,1,0,80,0,0
115217,-142.348754448397,4,1,0,80,0,0
115296,-95.2380952380952,4,1,0,80,0,0
115375,-100,4,1,0,80,0,0

[HitObjects]
256,192,1021,5,0,0:0:0:0:
256,192,1652,1,0,0:0:0:0:
256,192,2284,1,0,0:0:0:0:
256,192,2915,1,8,0:0:0:0:
256,192,3231,1,8,0:0:0:0:
256,192,3547,1,0,0:0:0:0:
256,192,4178,1,0,0:0:0:0:
256,192,4810,1,0,0:0:0:0:
256,192,5442,1,8,0:0:0:0:
256,192,5757,1,8,0:0:0:0:
256,192,6073,1,0,0:0:0:0:
256,192,6705,1,0,0:0:0:0:
256,192,7337,1,0,0:0:0:0:
256,192,7968,1,8,0:0:0:0:
256,192,8284,1,8,0:0:0:0:
256,192,8600,1,0,0:0:0:0:
256,192,9231,1,0,0:0:0:0:
256,192,9863,1,0,0:0:0:0:
256,192,11126,1,0,0:0:0:0:
256,192,11757,1,0,0:0:0:0:
256,192,12389,1,0,0:0:0:0:
256,192,13021,1,0,0:0:0:0:
256,192,13652,1,0,0:0:0:0:
256,192,14284,1,0,0:0:0:0:
256,192,14915,1,0,0:0:0:0:
256,192,15547,1,0,0:0:0:0:
256,192,16178,1,0,0:0:0:0:
256,192,16494,1,0,0:0:0:0:
256,192,16810,1,0,0:0:0:0:
256,192,17442,1,0,0:0:0:0:
256,192,17757,1,0,0:0:0:0:
256,192,18073,1,0,0:0:0:0:
256,192,18705,1,0,0:0:0:0:
256,192,19021,1,0,0:0:0:0:
256,192,19336,1,0,0:0:0:0:
256,192,19652,1,0,0:0:0:0:
256,192,19968,2,0,L|442:285,1,180
256,192,20599,12,0,21231,0:0:0:0:
256,192,22494,5,0,0:0:0:0:
256,192,22968,1,0,0:0:0:0:
256,192,23442,1,12,0:0:0:0:
256,192,23757,1,0,0:0:0:0:
256,192,24389,1,8,0:0:0:0:
256,192,25021,1,0,0:0:0:0:
256,192,25336,1,0,0:0:0:0:
256,192,25652,1,8,0:0:0:0:
256,192,26284,1,0,0:0:0:0:
256,192,26915,1,8,0:0:0:0:
256,192,27547,1,0,0:0:0:0:
256,192,27863,1,8,0:0:0:0:
256,192,28178,1,0,0:0:0:0:
256,192,28810,1,8,0:0:0:0:
256,192,29442,1,0,0:0:0:0:
256,192,30073,1,8,0:0:0:0:
256,192,30389,1,8,0:0:0:0:
256,192,30705,1,0,0:0:0:0:
256,192,31336,1,8,0:0:0:0:
256,192,31968,1,0,0:0:0:0:
256,192,32599,1,8,0:0:0:0:
256,192,32915,1,0,0:0:0:0:
256,192,33231,1,8,0:0:0:0:
256,192,33863,1,4,0:0:0:0:
256,192,35126,1,0,0:0:0:0:
256,192,35757,1,8,0:0:0:0:
256,192,36389,1,0,0:0:0:0:
256,192,36705,1,8,0:0:0:0:
256,192,37021,1,0,0:0:0:0:
256,192,37652,1,0,0:0:0:0:
256,192,38284,1,12,0:0:0:0:
256,192,38599,1,4,0:0:0:0:
256,192,38915,1,8,0:0:0:0:
256,192,39547,1,0,0:0:0:0:
256,192,40178,1,8,0:0:0:0:
256,192,40494,1,8,0:0:0:0:
256,192,40810,1,0,0:0:0:0:
256,192,41442,1,0,0:0:0:0:
256,192,42073,1,8,0:0:0:0:
256,192,42705,1,0,0:0:0:0:
256,192,43021,1,8,0:0:0:0:
256,192,43336,1,0,0:0:0:0:
256,192,43968,1,0,0:0:0:0:
256,192,45231,1,0,0:0:0:0:
256,192,46494,1,0,0:0:0:0:
256,192,47757,1,0,0:0:0:0:
256,192,49021,1,0,0:0:0:0:
256,192,49652,1,8,0:0:0:0:
256,192,50284,1,0,0:0:0:0:
256,192,51547,1,0,0:0:0:0:
256,192,52178,1,8,0:0:0:0:
256,192,52810,1,0,0:0:0:0:
256,192,54073,1,0,0:0:0:0:
256,192,54705,1,0,0:0:0:0:
256,192,55337,1,0,0:0:0:0:
256,192,55969,1,0,0:0:0:0:
256,192,56600,1,0,0:0:0:0:
256,192,57232,1,0,0:0:0:0:
256,192,57863,1,0,0:0:0:0:
256,192,58495,1,0,0:0:0:0:
256,192,59126,1,0,0:0:0:0:
256,192,59442,1,0,0:0:0:0:
256,192,59758,1,0,0:0:0:0:
256,192,60389,1,0,0:0:0:0:
256,192,60705,1,0,0:0:0:0:
256,192,61021,1,0,0:0:0:0:
256,192,61652,1,0,0:0:0:0:
256,192,61968,1,0,0:0:0:0:
256,192,62284,1,0,0:0:0:0:
256,192,62599,1,0,0:0:0:0:
32,64,62915,2,0,B|160:64,1,118.627312782108
256,192,63547,12,8,64178,0:0:0:0:
256,192,65126,5,12,0:0:0:0:
256,192,65442,1,0,0:0:0:0:
256,192,66073,1,8,0:0:0:0:
256,192,66705,1,0,0:0:0:0:
256,192,67021,1,8,0:0:0:0:
256,192,67336,1,0,0:0:0:0:
256,192,67968,1,8,0:0:0:0:
256,192,68599,1,0,0:0:0:0:
256,192,69231,1,8,0:0:0:0:
256,192,69547,1,8,0:0:0:0:
256,192,69863,1,0,0:0:0:0:
256,192,70494,1,0,0:0:0:0:
256,192,71126,1,8,0:0:0:0:
256,192,71758,1,0,0:0:0:0:
256,192,72073,1,8,0:0:0:0:
256,192,72389,1,0,0:0:0:0:
256,192,73021,1,8,0:0:0:0:
256,192,73652,1,0,0:0:0:0:
256,192,74284,1,8,0:0:0:0:
256,192,74915,1,12,0:0:0:0:
256,192,75231,1,4,0:0:0:0:
256,192,75547,1,8,0:0:0:0:
256,192,76178,1,0,0:0:0:0:
256,192,76810,1,8,0:0:0:0:
256,192,77126,1,0,0:0:0:0:
256,192,77442,1,8,0:0:0:0:
256,192,78073,1,0,0:0:0:0:
256,192,78704,1,8,0:0:0:0:
256,192,79336,1,0,0:0:0:0:
256,192,79652,1,0,0:0:0:0:
256,192,79968,1,8,0:0:0:0:
256,192,80599,1,8,0:0:0:0:
256,192,81231,1,0,0:0:0:0:
256,192,81863,1,8,0:0:0:0:
256,192,82178,1,0,0:0:0:0:
256,192,82494,1,8,0:0:0:0:
256,192,83126,1,0,0:0:0:0:
256,192,83757,1,8,0:0:0:0:
256,192,84389,1,0,0:0:0:0:
256,192,85020,1,12,0:0:0:0:
256,192,85336,1,4,0:0:0:0:
256,192,85652,1,0,0:0:0:0:
256,192,86915,1,0,0:0:0:0:
256,192,87231,1,8,0:0:0:0:
256,192,87547,1,0,0:0:0:0:
256,192,88178,1,0,0:0:0:0:
256,192,88810,1,8,0:0:0:0:
256,192,89442,1,0,0:0:0:0:
256,192,90073,1,8,0:0:0:0:
256,192,90389,1,8,0:0:0:0:
256,192,90705,1,0,0:0:0:0:
256,192,91336,1,8,0:0:0:0:
256,192,91968,1,0,0:0:0:0:
256,192,92284,1,8,0:0:0:0:
256,192,92599,1,0,0:0:0:0:
256,192,93231,1,8,0:0:0:0:
256,192,93863,1,0,0:0:0:0:
256,192,94494,1,8,0:0:0:0:
256,192,94810,1,8,0:0:0:0:
256,192,95126,1,4,0:0:0:0:
256,192,95757,1,0,0:0:0:0:
256,192,97021,1,0,0:0:0:0:
256,192,98284,1,0,0:0:0:0:
256,192,99547,1,0,0:0:0:0:
256,192,100178,1,12,0:0:0:0:
256,192,100494,1,4,0:0:0:0:
256,192,100810,1,8,0:0:0:0:
256,192,101442,1,8,0:0:0:0:
256,192,102073,1,0,0:0:0:0:
256,192,102389,1,0,0:0:0:0:
256,192,102705,1,8,0:0:0:0:
256,192,103336,1,0,0:0:0:0:
256,192,103968,1,8,0:0:0:0:
256,192,104599,1,0,0:0:0:0:
256,192,104915,1,8,0:0:0:0:
256,192,105231,1,0,0:0:0:0:
256,192,105863,1,0,0:0:0:0:
256,192,106494,1,0,0:0:0:0:
256,192,107126,1,0,0:0:0:0:
256,192,107757,1,0,0:0:0:0:
256,192,108389,1,0,0:0:0:0:
256,192,109021,1,0,0:0:0:0:
256,192,109652,1,0,0:0:0:0:
256,192,110284,1,0,0:0:0:0:
256,192,110915,1,0,0:0:0:0:
256,192,111231,1,0,0:0:0:0:
256,192,111547,1,0,0:0:0:0:
256,192,112178,1,0,0:0:0:0:
256,192,112494,1,0,0:0:0:0:
256,192,112810,1,0,0:0:0:0:
256,192,113442,1,0,0:0:0:0:
256,192,113757,1,0,0:0:0:0:
256,192,114073,1,0,0:0:0:0:
256,192,114389,1,0,0:0:0:0:
32,64,114705,2,0,B|128:64,1,86.4000021093751
256,192,115336,1,12,0:0:0:0:
256,192,115652,1,4,0:0:0:0:
