osu file format v14

[General]
AudioFilename: audio.mp3
AudioLeadIn: 0
PreviewTime: 64372
Countdown: 0
SampleSet: Normal
StackLeniency: 0.2
Mode: 1
LetterboxInBreaks: 0
WidescreenStoryboard: 0

[Editor]
Bookmarks: 346,23082,33188,43293,53398,64767,74872,84977,95082,105188,115293
DistanceSpacing: 1.4
BeatDivisor: 4
GridSize: 32
TimelineZoom: 1.1

[Metadata]
Title:Chewingood!!!
TitleUnicode:Chewingood!!!
Artist:TORIENA
ArtistUnicode:TORIENA
Creator:iceOC
Version:Inner Oni
Source:beatmania IIDX 28 BISTROVER
Tags:japanese video game bemani sound voltex exceed gear 6 vi sdvx chip rave chiptune
BeatmapID:3076084
BeatmapSetID:1501192

[Difficulty]
HPDrainRate:6
CircleSize:2
OverallDifficulty:6
ApproachRate:10
SliderMultiplier:1.4
SliderTickRate:1

[Events]
//Background and Video events
0,0,"Chewingood!!!-bg.png",0,130
//Break Periods
//Storyboard Layer 0 (Background)
//Storyboard Layer 1 (Fail)
//Storyboard Layer 2 (Pass)
//Storyboard Layer 3 (Foreground)
//Storyboard Layer 4 (Overlay)
//Storyboard Sound Samples

[TimingPoints]
1021,315.789473684211,4,1,0,80,1,0
22455,-142.857142857143,4,1,0,80,0,0
22928,-125,4,1,0,80,0,0
23244,-111.111111111111,4,1,0,80,0,0
23402,-83.3333333333333,4,1,0,80,0,0
23718,-100,4,1,0,80,0,0
38244,-71.4285714285714,4,1,0,80,0,0
38560,-83.3333333333333,4,1,0,80,0,0
38876,-100,4,1,0,80,0,0
43928,-100,1,1,0,80,0,0
44085,-100.8013589,1,1,0,80,0,0
44243,-101.6091395,1,1,0,80,0,0
44401,-102.4233933,1,1,0,80,0,0
44559,-103.2441723,1,1,0,80,0,0
44717,-104.0715286,1,1,0,80,0,0
44875,-104.905515,1,1,0,80,0,0
45033,-105.7461847,1,1,0,80,0,0
45191,-106.5935911,1,1,0,80,0,0
45349,-107.4477883,1,1,0,80,0,0
45506,-108.3088307,1,1,0,80,0,0
45664,-109.1767731,1,1,0,80,0,0
45822,-110.0516708,1,1,0,80,0,0
45980,-110.9335797,1,1,0,80,0,0
46138,-111.8225557,1,1,0,80,0,0
46296,-112.7186557,1,1,0,80,0,0
46454,-113.6219366,1,1,0,80,0,0
46612,-114.5324561,1,1,0,80,0,0
46770,-115.4502721,1,1,0,80,0,0
46928,-116.3754431,1,1,0,80,0,0
47085,-117.308028,1,1,0,80,0,0
47243,-118.2480863,1,1,0,80,0,0
47401,-119.1956778,1,1,0,80,0,0
47559,-120.150863,1,1,0,80,0,0
47717,-121.1137026,1,1,0,80,0,0
47875,-122.0842579,1,1,0,80,0,0
48033,-123.062591,1,1,0,80,0,0
48191,-124.048764,1,1,0,80,0,0
48349,-125.0428397,1,1,0,80,0,0
48506,-126.0448816,1,1,0,80,0,0
48664,-127.0549534,1,1,0,80,0,0
48822,-128.0731196,1,1,0,80,0,0
48980,-129.0994449,1,1,0,80,0,0
49138,-130.1339947,1,1,0,80,0,0
49296,-131.176835,1,1,0,80,0,0
49454,-132.2280322,1,1,0,80,0,0
49612,-133.2876533,1,1,0,80,0,0
49770,-134.3557657,1,1,0,80,0,0
49928,-135.4324375,1,1,0,80,0,0
50085,-136.5177374,1,1,0,80,0,0
50243,-137.6117344,1,1,0,80,0,0
50401,-138.7144982,1,1,0,80,0,0
50559,-139.8260992,1,1,0,80,0,0
50717,-140.946608,1,1,0,80,0,0
50875,-142.0760961,1,1,0,80,0,0
51033,-143.2146355,1,1,0,80,0,0
51191,-144.3622987,1,1,0,80,0,0
51349,-145.5191588,1,1,0,80,0,0
51506,-146.6852895,1,1,0,80,0,0
51664,-147.860765,1,1,0,80,0,0
51822,-149.0456604,1,1,0,80,0,0
51980,-150.240051,1,1,0,80,0,0
52138,-151.444013,1,1,0,80,0,0
52296,-152.657623,1,1,0,80,0,0
52454,-153.8809584,1,1,0,80,0,0
52612,-155.1140971,1,1,0,80,0,0
52770,-156.3571177,1,1,0,80,0,0
52928,-157.6100993,1,1,0,80,0,0
53085,-158.8731218,1,1,0,80,0,0
53243,-160.1462656,1,1,0,80,0,0
53401,-161.4296119,1,1,0,80,0,0
53559,-162.7232424,1,1,0,80,0,0
53717,-164.0272396,1,1,0,80,0,0
53875,-165.3416864,1,1,0,80,0,0
54033,-166.6666667,4,1,0,80,0,0
54111,-166.3564601,4,1,0,80,0,0
54190,-166.0145805,4,1,0,80,0,0
54269,-165.6412255,4,1,0,80,0,0
54348,-165.236611,4,1,0,80,0,0
54427,-164.8009703,4,1,0,80,0,0
54506,-164.3345537,4,1,0,80,0,0
54585,-163.8376299,4,1,0,80,0,0
54664,-163.3104835,4,1,0,80,0,0
54743,-162.7534165,4,1,0,80,0,0
54822,-162.1667467,4,1,0,80,0,0
54901,-161.5508081,4,1,0,80,0,0
54980,-160.9059512,4,1,0,80,0,0
55059,-160.2325413,4,1,0,80,0,0
55138,-159.5309586,4,1,0,80,0,0
55217,-158.8015985,4,1,0,80,0,0
55296,-158.0448709,4,1,0,80,0,0
55375,-157.2611993,4,1,0,80,0,0
55454,-156.451021,4,1,0,80,0,0
55533,-155.6147865,4,1,0,80,0,0
55611,-154.7529588,4,1,0,80,0,0
55690,-153.8660139,4,1,0,80,0,0
55769,-152.9544391,4,1,0,80,0,0
55848,-152.0187331,4,1,0,80,0,0
55927,-151.0594062,4,1,0,80,0,0
56006,-150.0769791,4,1,0,80,0,0
56085,-149.0719819,4,1,0,80,0,0
56164,-148.0449553,4,1,0,80,0,0
56243,-146.9964484,4,1,0,80,0,0
56322,-145.9270194,4,1,0,80,0,0
56401,-144.837234,4,1,0,80,0,0
56480,-143.7276662,4,1,0,80,0,0
56559,-142.5988971,4,1,0,80,0,0
56638,-141.4515141,4,1,0,80,0,0
56717,-140.2861109,4,1,0,80,0,0
56796,-139.1032867,4,1,0,80,0,0
56875,-137.9036459,4,1,0,80,0,0
56954,-136.6877977,4,1,0,80,0,0
57033,-135.4563551,4,1,0,80,0,0
57111,-134.2099346,4,1,0,80,0,0
57190,-132.9491564,4,1,0,80,0,0
57269,-131.6746426,4,1,0,80,0,0
57348,-130.3870175,4,1,0,80,0,0
57427,-129.0869071,4,1,0,80,0,0
57506,-127.7749385,4,1,0,80,0,0
57585,-126.4517391,4,1,0,80,0,0
57664,-125.1179366,4,1,0,80,0,0
57743,-123.7741584,4,1,0,80,0,0
57822,-122.4210307,4,1,0,80,0,0
57901,-121.0591783,4,1,0,80,0,0
57980,-119.6892245,4,1,0,80,0,0
58059,-118.3117901,4,1,0,80,0,0
58138,-116.9274931,4,1,0,80,0,0
58217,-115.5369485,4,1,0,80,0,0
58296,-114.1407675,4,1,0,80,0,0
58375,-112.7395574,4,1,0,80,0,0
58454,-111.3339206,4,1,0,80,0,0
58533,-109.924455,4,1,0,80,0,0
58611,-108.5117533,4,1,0,80,0,0
58690,-107.0964022,4,1,0,80,0,0
58769,-105.6789824,4,1,0,80,0,0
58848,-104.2600685,4,1,0,80,0,0
58927,-102.8402277,4,1,0,80,0,0
59006,-101.4200206,4,1,0,80,0,0
59085,-100,4,1,0,80,0,0
59164,-98.58071112,4,1,0,80,0,0
59243,-97.16269105,4,1,0,80,0,0
59322,-95.74646832,4,1,0,80,0,0
59401,-94.33256283,4,1,0,80,0,0
59480,-92.92148552,4,1,0,80,0,0
59559,-91.51373823,4,1,0,80,0,0
59638,-90.10981318,4,1,0,80,0,0
59717,-88.71019281,4,1,0,80,0,0
59796,-87.31534986,4,1,0,80,0,0
59875,-85.92574662,4,1,0,80,0,0
59954,-84.54183527,4,1,0,80,0,0
60033,-83.16405747,4,1,0,80,0,0
60111,-81.79284398,4,1,0,80,0,0
60190,-80.42861483,4,1,0,80,0,0
60269,-79.07177911,4,1,0,80,0,0
60348,-77.72273463,4,1,0,80,0,0
60427,-76.38186814,4,1,0,80,0,0
60506,-75.04955479,4,1,0,80,0,0
60585,-73.72615853,4,1,0,80,0,0
60664,-72.41203156,4,1,0,80,0,0
60743,-71.10751465,4,1,0,80,0,0
60822,-69.81293686,4,1,0,80,0,0
60901,-68.52861546,4,1,0,80,0,0
60980,-67.25485612,4,1,0,80,0,0
61059,-65.99195276,4,1,0,80,0,0
61138,-64.74018739,4,1,0,80,0,0
61217,-63.49983047,4,1,0,80,0,0
61296,-62.27114056,4,1,0,80,0,0
61375,-61.05436464,4,1,0,80,0,0
61454,-59.84973791,4,1,0,80,0,0
61533,-58.65748398,4,1,0,80,0,0
61611,-57.47781489,4,1,0,80,0,0
61690,-56.31093119,4,1,0,80,0,0
61769,-55.15702199,4,1,0,80,0,0
61848,-54.01626509,4,1,0,80,0,0
61927,-52.88882697,4,1,0,80,0,0
62006,-51.77486304,4,1,0,80,0,0
62085,-50.67451766,4,1,0,80,0,0
62164,-49.58792432,4,1,0,80,0,0
62243,-48.51520567,4,1,0,80,0,0
62322,-47.45647374,4,1,0,80,0,0
62401,-46.4118301,4,1,0,80,0,0
62480,-45.38136598,4,1,0,80,0,0
62559,-44.36516234,4,1,0,80,0,0
62638,-43.36329023,4,1,0,80,0,0
62717,-42.37581076,4,1,0,80,0,0
62796,-41.40277542,4,1,0,80,0,0
62875,-40.44422615,4,1,0,80,0,0
62954,-39.50019562,4,1,0,80,0,0
63033,-38.57070737,4,1,0,80,0,0
63111,-37.65577602,4,1,0,80,0,0
63190,-36.75540745,4,1,0,80,0,0
63269,-35.86959903,4,1,0,80,0,0
63348,-34.9983398,4,1,0,80,0,0
63427,-34.14161069,4,1,0,80,0,0
63506,-33.29938475,4,1,0,80,0,0
64139,-100,4,1,0,80,0,0
65086,-33.3333333333333,4,1,0,80,0,0
65402,-100,4,1,0,80,0,0
65442,-100,4,1,0,80,0,1
74876,-62.5,4,1,0,80,0,1
75192,-71.4285714285714,4,1,0,80,0,1
75507,-86.9565217391304,4,1,0,80,0,1
84981,-50,4,1,0,80,0,1
85297,-58.8235294117647,4,1,0,80,0,1
85613,-76.9230769230769,4,1,0,80,0,1
90192,-40,4,1,0,80,0,1
90665,-76.9230769230769,4,1,0,80,0,1
95757,-100,4,1,0,80,0,0
100139,-71.4285714285714,4,1,0,80,0,0
100455,-83.3333333333333,4,1,0,80,0,0
100771,-100,4,1,0,80,0,0
105823,-100,4,1,0,80,0,0
105901,-100.502512562814,4,1,0,80,0,0
105980,-101.010101010101,4,1,0,80,0,0
106059,-101.522842639594,4,1,0,80,0,0
106138,-102.040816326531,4,1,0,80,0,0
106217,-102.564102564103,4,1,0,80,0,0
106296,-103.092783505155,4,1,0,80,0,0
106375,-103.626943005181,4,1,0,80,0,0
106454,-104.166666666667,4,1,0,80,0,0
106533,-104.712041884817,4,1,0,80,0,0
106612,-105.263157894737,4,1,0,80,0,0
106691,-105.820105820106,4,1,0,80,0,0
106770,-106.382978723404,4,1,0,80,0,0
106849,-106.951871657754,4,1,0,80,0,0
106928,-107.52688172043,4,1,0,80,0,0
107007,-108.108108108108,4,1,0,80,0,0
107086,-108.695652173913,4,1,0,80,0,0
107165,-109.289617486339,4,1,0,80,0,0
107244,-109.89010989011,4,1,0,80,0,0
107323,-110.497237569061,4,1,0,80,0,0
107401,-111.111111111111,4,1,0,80,0,0
107480,-111.731843575419,4,1,0,80,0,0
107559,-112.359550561798,4,1,0,80,0,0
107638,-112.994350282486,4,1,0,80,0,0
107717,-113.636363636364,4,1,0,80,0,0
107796,-114.285714285714,4,1,0,80,0,0
107875,-114.942528735632,4,1,0,80,0,0
107954,-115.606936416185,4,1,0,80,0,0
108033,-116.279069767442,4,1,0,80,0,0
108112,-116.959064327485,4,1,0,80,0,0
108191,-117.647058823529,4,1,0,80,0,0
108270,-118.343195266272,4,1,0,80,0,0
108349,-119.047619047619,4,1,0,80,0,0
108428,-119.760479041916,4,1,0,80,0,0
108507,-120.481927710843,4,1,0,80,0,0
108586,-121.212121212121,4,1,0,80,0,0
108665,-121.951219512195,4,1,0,80,0,0
108744,-122.699386503068,4,1,0,80,0,0
108823,-123.456790123457,4,1,0,80,0,0
108901,-124.223602484472,4,1,0,80,0,0
108980,-125,4,1,0,80,0,0
109059,-125.786163522013,4,1,0,80,0,0
109138,-126.582278481013,4,1,0,80,0,0
109217,-127.388535031847,4,1,0,80,0,0
109296,-128.205128205128,4,1,0,80,0,0
109375,-129.032258064516,4,1,0,80,0,0
109454,-129.87012987013,4,1,0,80,0,0
109533,-130.718954248366,4,1,0,80,0,0
109612,-131.578947368421,4,1,0,80,0,0
109691,-132.450331125828,4,1,0,80,0,0
109770,-133.333333333333,4,1,0,80,0,0
109849,-134.228187919463,4,1,0,80,0,0
109928,-135.135135135135,4,1,0,80,0,0
110007,-136.054421768708,4,1,0,80,0,0
110086,-136.986301369863,4,1,0,80,0,0
110165,-137.931034482759,4,1,0,80,0,0
110244,-138.888888888889,4,1,0,80,0,0
110323,-139.86013986014,4,1,0,80,0,0
110401,-140.845070422535,4,1,0,80,0,0
110480,-141.843971631206,4,1,0,80,0,0
110559,-142.857142857143,4,1,0,80,0,0
110638,-143.884892086331,4,1,0,80,0,0
110717,-144.927536231884,4,1,0,80,0,0
110796,-145.985401459854,4,1,0,80,0,0
110875,-147.058823529412,4,1,0,80,0,0
110954,-148.148148148148,4,1,0,80,0,0
111033,-149.253731343284,4,1,0,80,0,0
111112,-150.375939849624,4,1,0,80,0,0
111191,-151.515151515152,4,1,0,80,0,0
111270,-152.671755725191,4,1,0,80,0,0
111349,-153.846153846154,4,1,0,80,0,0
111428,-155.038759689923,4,1,0,80,0,0
111507,-156.25,4,1,0,80,0,0
111586,-157.48031496063,4,1,0,80,0,0
111665,-158.730158730159,4,1,0,80,0,0
111744,-160,4,1,0,80,0,0
111823,-161.290322580645,4,1,0,80,0,0
111901,-162.60162601626,4,1,0,80,0,0
111980,-163.934426229508,4,1,0,80,0,0
112059,-165.289256198347,4,1,0,80,0,0
112138,-166.666666666667,4,1,0,80,0,0
112217,-168.067226890756,4,1,0,80,0,0
112296,-169.491525423729,4,1,0,80,0,0
112375,-170.940170940171,4,1,0,80,0,0
112454,-172.413793103448,4,1,0,80,0,0
112533,-173.913043478261,4,1,0,80,0,0
112612,-175.438596491228,4,1,0,80,0,0
112691,-176.991150442478,4,1,0,80,0,0
112770,-178.571428571429,4,1,0,80,0,0
112849,-180.18018018018,4,1,0,80,0,0
112928,-181.818181818182,4,1,0,80,0,0
113007,-183.48623853211,4,1,0,80,0,0
113086,-185.185185185185,4,1,0,80,0,0
113165,-186.915887850467,4,1,0,80,0,0
113244,-188.679245283019,4,1,0,80,0,0
113323,-190.476190476191,4,1,0,80,0,0
113401,-192.307692307693,4,1,0,80,0,0
113480,-194.174757281554,4,1,0,80,0,0
113559,-196.078431372549,4,1,0,80,0,0
113638,-198.019801980198,4,1,0,80,0,0
113717,-200,4,1,0,80,0,0
113796,-202.020202020202,4,1,0,80,0,0
113875,-204.081632653061,4,1,0,80,0,0
113954,-206.18556701031,4,1,0,80,0,0
114033,-208.333333333334,4,1,0,80,0,0
114112,-210.526315789474,4,1,0,80,0,0
114191,-212.765957446809,4,1,0,80,0,0
114270,-215.05376344086,4,1,0,80,0,0
114349,-217.391304347826,4,1,0,80,0,0
114428,-219.78021978022,4,1,0,80,0,0
114507,-222.222222222223,4,1,0,80,0,0
114586,-224.719101123596,4,1,0,80,0,0
114665,-227.272727272728,4,1,0,80,0,0
114744,-229.885057471265,4,1,0,80,0,0
114823,-232.558139534884,4,1,0,80,0,0
114901,-235.294117647059,4,1,0,80,0,0
114980,-238.095238095238,4,1,0,80,0,0
115059,-240.963855421687,4,1,0,80,0,0
115138,-243.902439024391,4,1,0,80,0,0
115217,-246.913580246914,4,1,0,80,0,0
115296,-33.3333333333333,4,1,0,80,0,0
115375,-40,4,1,0,80,0,0

[HitObjects]
256,192,1021,5,0,0:0:0:0:
256,192,1336,1,8,0:0:0:0:
256,192,1652,1,0,0:0:0:0:
256,192,1968,1,0,0:0:0:0:
256,192,2126,1,8,0:0:0:0:
256,192,2284,1,0,0:0:0:0:
256,192,2599,1,8,0:0:0:0:
256,192,2915,1,0,0:0:0:0:
256,192,3073,1,0,0:0:0:0:
256,192,3231,1,8,0:0:0:0:
256,192,3389,1,8,0:0:0:0:
256,192,3547,1,0,0:0:0:0:
256,192,3863,1,8,0:0:0:0:
256,192,4178,1,0,0:0:0:0:
256,192,4495,1,0,0:0:0:0:
256,192,4652,1,8,0:0:0:0:
256,192,4810,1,0,0:0:0:0:
256,192,5126,1,8,0:0:0:0:
256,192,5284,1,0,0:0:0:0:
256,192,5442,1,8,0:0:0:0:
256,192,5600,1,8,0:0:0:0:
256,192,5757,1,0,0:0:0:0:
256,192,5915,1,8,0:0:0:0:
256,192,6073,1,0,0:0:0:0:
256,192,6389,1,8,0:0:0:0:
256,192,6705,1,0,0:0:0:0:
256,192,7021,1,0,0:0:0:0:
256,192,7179,1,8,0:0:0:0:
256,192,7337,1,0,0:0:0:0:
256,192,7652,1,8,0:0:0:0:
256,192,7968,1,0,0:0:0:0:
256,192,8126,1,0,0:0:0:0:
256,192,8284,1,8,0:0:0:0:
256,192,8442,1,8,0:0:0:0:
256,192,8600,1,0,0:0:0:0:
256,192,8916,1,8,0:0:0:0:
256,192,9231,1,0,0:0:0:0:
256,192,9547,1,0,0:0:0:0:
256,192,9705,1,8,0:0:0:0:
256,192,9863,1,0,0:0:0:0:
256,192,10178,1,0,0:0:0:0:
256,192,10336,1,0,0:0:0:0:
256,192,10494,1,8,0:0:0:0:
256,192,10652,1,0,0:0:0:0:
256,192,10810,1,8,0:0:0:0:
256,192,10968,1,8,0:0:0:0:
256,192,11126,1,0,0:0:0:0:
256,192,11757,1,0,0:0:0:0:
256,192,12389,1,0,0:0:0:0:
256,192,13021,1,0,0:0:0:0:
256,192,13336,1,8,0:0:0:0:
256,192,13494,1,8,0:0:0:0:
256,192,13652,1,0,0:0:0:0:
256,192,14284,1,0,0:0:0:0:
256,192,14915,1,0,0:0:0:0:
256,192,15547,1,0,0:0:0:0:
256,192,15863,1,8,0:0:0:0:
256,192,16021,1,8,0:0:0:0:
256,192,16178,1,0,0:0:0:0:
256,192,16494,1,0,0:0:0:0:
256,192,16810,1,0,0:0:0:0:
256,192,17126,1,0,0:0:0:0:
256,192,17284,1,8,0:0:0:0:
256,192,17442,1,0,0:0:0:0:
256,192,17757,1,0,0:0:0:0:
256,192,18073,1,0,0:0:0:0:
256,192,18231,1,8,0:0:0:0:
256,192,18389,1,0,0:0:0:0:
256,192,18547,1,8,0:0:0:0:
256,192,18705,1,0,0:0:0:0:
256,192,18863,1,0,0:0:0:0:
256,192,19021,1,0,0:0:0:0:
256,192,19178,1,0,0:0:0:0:
256,192,19336,1,0,0:0:0:0:
256,192,19494,1,0,0:0:0:0:
256,192,19652,1,0,0:0:0:0:
256,192,19810,1,0,0:0:0:0:
256,192,19968,1,8,0:0:0:0:
256,192,20047,1,8,0:0:0:0:
256,192,20126,1,0,0:0:0:0:
256,192,20205,1,0,0:0:0:0:
256,192,20284,1,8,0:0:0:0:
256,192,20363,1,8,0:0:0:0:
256,192,20442,1,0,0:0:0:0:
256,192,20521,1,0,0:0:0:0:
256,192,20599,2,0,L|320:192,8,35
256,192,22494,1,0,0:0:0:0:
256,192,22968,1,0,0:0:0:0:
256,192,23284,1,0,0:0:0:0:
256,192,23442,1,12,0:0:0:0:
256,192,23757,1,0,0:0:0:0:
256,192,24073,1,0,0:0:0:0:
256,192,24389,1,0,0:0:0:0:
256,192,24547,1,8,0:0:0:0:
256,192,24705,1,0,0:0:0:0:
256,192,24863,1,8,0:0:0:0:
256,192,25021,1,0,0:0:0:0:
256,192,25336,1,0,0:0:0:0:
256,192,25652,1,0,0:0:0:0:
256,192,25810,1,8,0:0:0:0:
256,192,25968,1,0,0:0:0:0:
256,192,26126,1,8,0:0:0:0:
256,192,26284,1,0,0:0:0:0:
256,192,26442,1,8,0:0:0:0:
256,192,26521,1,8,0:0:0:0:
256,192,26599,1,0,0:0:0:0:
256,192,26757,1,0,0:0:0:0:
256,192,26836,1,8,0:0:0:0:
256,192,26915,1,0,0:0:0:0:
256,192,27073,1,8,0:0:0:0:
256,192,27152,1,8,0:0:0:0:
256,192,27231,1,0,0:0:0:0:
256,192,27389,1,8,0:0:0:0:
256,192,27547,1,0,0:0:0:0:
256,192,27626,1,0,0:0:0:0:
256,192,27705,1,8,0:0:0:0:
256,192,27784,1,8,0:0:0:0:
256,192,27863,1,0,0:0:0:0:
256,192,28021,1,8,0:0:0:0:
256,192,28178,1,0,0:0:0:0:
256,192,28257,1,0,0:0:0:0:
256,192,28336,1,0,0:0:0:0:
256,192,28494,1,8,0:0:0:0:
256,192,28810,1,0,0:0:0:0:
256,192,29126,1,0,0:0:0:0:
256,192,29442,1,0,0:0:0:0:
256,192,29599,1,8,0:0:0:0:
256,192,29757,1,0,0:0:0:0:
256,192,29915,1,8,0:0:0:0:
256,192,30073,1,0,0:0:0:0:
256,192,30231,1,8,0:0:0:0:
256,192,30310,1,8,0:0:0:0:
256,192,30389,1,0,0:0:0:0:
256,192,30547,1,8,0:0:0:0:
256,192,30705,1,0,0:0:0:0:
256,192,30863,1,8,0:0:0:0:
256,192,30942,1,8,0:0:0:0:
256,192,31021,1,0,0:0:0:0:
256,192,31178,1,8,0:0:0:0:
256,192,31336,1,0,0:0:0:0:
256,192,31494,1,0,0:0:0:0:
256,192,31573,1,8,0:0:0:0:
256,192,31652,1,0,0:0:0:0:
256,192,31810,1,8,0:0:0:0:
256,192,31889,1,8,0:0:0:0:
256,192,31968,1,0,0:0:0:0:
256,192,32126,1,0,0:0:0:0:
256,192,32205,1,8,0:0:0:0:
256,192,32284,1,0,0:0:0:0:
256,192,32363,1,0,0:0:0:0:
256,192,32442,1,8,0:0:0:0:
256,192,32521,1,8,0:0:0:0:
256,192,32599,1,0,0:0:0:0:
256,192,32757,1,8,0:0:0:0:
256,192,32836,1,0,0:0:0:0:
256,192,32915,1,8,0:0:0:0:
256,192,33073,1,8,0:0:0:0:
256,192,33231,1,0,0:0:0:0:
256,192,33310,1,0,0:0:0:0:
256,192,33389,1,0,0:0:0:0:
256,192,33468,1,0,0:0:0:0:
256,192,33547,1,8,0:0:0:0:
256,192,33863,1,4,0:0:0:0:
256,192,34178,1,0,0:0:0:0:
256,192,34494,1,0,0:0:0:0:
256,192,34652,1,8,0:0:0:0:
256,192,34810,1,0,0:0:0:0:
256,192,34968,1,8,0:0:0:0:
256,192,35126,1,0,0:0:0:0:
256,192,35442,1,0,0:0:0:0:
256,192,35757,1,0,0:0:0:0:
256,192,35915,1,8,0:0:0:0:
256,192,36073,1,0,0:0:0:0:
256,192,36231,1,8,0:0:0:0:
256,192,36389,1,0,0:0:0:0:
256,192,36547,1,8,0:0:0:0:
256,192,36626,1,8,0:0:0:0:
256,192,36705,1,0,0:0:0:0:
256,192,36863,1,0,0:0:0:0:
256,192,36942,1,8,0:0:0:0:
256,192,37021,1,0,0:0:0:0:
256,192,37178,1,8,0:0:0:0:
256,192,37257,1,8,0:0:0:0:
256,192,37336,1,0,0:0:0:0:
256,192,37494,1,8,0:0:0:0:
256,192,37652,1,0,0:0:0:0:
256,192,37731,1,0,0:0:0:0:
256,192,37810,1,8,0:0:0:0:
256,192,37889,1,0,0:0:0:0:
256,192,37968,1,8,0:0:0:0:
256,192,38126,1,0,0:0:0:0:
256,192,38284,1,12,0:0:0:0:
256,192,38599,1,4,0:0:0:0:
256,192,38915,1,8,0:0:0:0:
256,192,38994,1,8,0:0:0:0:
256,192,39073,1,8,0:0:0:0:
256,192,39231,1,0,0:0:0:0:
256,192,39389,1,8,0:0:0:0:
256,192,39468,1,8,0:0:0:0:
256,192,39547,1,8,0:0:0:0:
256,192,39705,1,0,0:0:0:0:
256,192,39784,1,8,0:0:0:0:
256,192,39863,1,0,0:0:0:0:
256,192,40021,1,0,0:0:0:0:
256,192,40178,1,8,0:0:0:0:
256,192,40257,1,8,0:0:0:0:
256,192,40336,1,0,0:0:0:0:
256,192,40494,1,8,0:0:0:0:
256,192,40652,1,0,0:0:0:0:
256,192,40731,1,0,0:0:0:0:
256,192,40810,1,8,0:0:0:0:
256,192,40968,1,0,0:0:0:0:
256,192,41126,1,8,0:0:0:0:
256,192,41284,1,0,0:0:0:0:
256,192,41363,1,0,0:0:0:0:
256,192,41442,1,0,0:0:0:0:
256,192,41599,1,8,0:0:0:0:
256,192,41678,1,8,0:0:0:0:
256,192,41757,1,0,0:0:0:0:
256,192,41915,1,0,0:0:0:0:
256,192,41994,1,8,0:0:0:0:
256,192,42073,1,0,0:0:0:0:
256,192,42231,1,8,0:0:0:0:
256,192,42310,1,8,0:0:0:0:
256,192,42389,1,0,0:0:0:0:
256,192,42547,1,8,0:0:0:0:
256,192,42705,1,0,0:0:0:0:
256,192,42863,1,8,0:0:0:0:
256,192,42942,1,0,0:0:0:0:
256,192,43021,1,8,0:0:0:0:
256,192,43178,1,8,0:0:0:0:
256,192,43336,1,0,0:0:0:0:
256,192,43415,1,0,0:0:0:0:
256,192,43494,1,0,0:0:0:0:
256,192,43573,1,0,0:0:0:0:
256,192,43652,1,0,0:0:0:0:
256,192,43810,1,8,0:0:0:0:
256,192,43889,1,8,0:0:0:0:
256,192,43968,1,0,0:0:0:0:
256,192,44284,1,0,0:0:0:0:
256,192,44599,1,0,0:0:0:0:
256,192,44915,1,0,0:0:0:0:
256,192,45073,1,0,0:0:0:0:
256,192,45231,1,0,0:0:0:0:
256,192,45547,1,0,0:0:0:0:
256,192,45863,1,0,0:0:0:0:
256,192,46021,1,0,0:0:0:0:
256,192,46178,1,0,0:0:0:0:
256,192,46336,1,0,0:0:0:0:
256,192,46494,1,0,0:0:0:0:
256,192,46810,1,0,0:0:0:0:
256,192,47126,1,0,0:0:0:0:
256,192,47442,1,0,0:0:0:0:
256,192,47599,1,0,0:0:0:0:
256,192,47757,1,0,0:0:0:0:
256,192,48073,1,0,0:0:0:0:
256,192,48389,1,0,0:0:0:0:
256,192,48547,1,0,0:0:0:0:
256,192,48705,1,0,0:0:0:0:
256,192,48863,1,0,0:0:0:0:
256,192,49021,1,0,0:0:0:0:
256,192,49336,1,0,0:0:0:0:
256,192,49652,1,0,0:0:0:0:
256,192,49968,1,0,0:0:0:0:
256,192,50126,1,0,0:0:0:0:
256,192,50284,1,0,0:0:0:0:
256,192,50599,1,0,0:0:0:0:
256,192,50915,1,0,0:0:0:0:
256,192,51073,1,0,0:0:0:0:
256,192,51231,1,0,0:0:0:0:
256,192,51389,1,0,0:0:0:0:
256,192,51547,1,0,0:0:0:0:
256,192,51863,1,0,0:0:0:0:
256,192,52178,1,0,0:0:0:0:
256,192,52494,1,0,0:0:0:0:
256,192,52652,1,0,0:0:0:0:
256,192,52810,1,0,0:0:0:0:
256,192,53126,1,0,0:0:0:0:
256,192,53442,1,0,0:0:0:0:
256,192,53757,1,8,0:0:0:0:
256,192,54073,1,4,0:0:0:0:
256,192,54389,1,8,0:0:0:0:
256,192,54705,1,4,0:0:0:0:
256,192,55021,1,8,0:0:0:0:
256,192,55337,1,4,0:0:0:0:
256,192,55653,1,8,0:0:0:0:
256,192,55969,1,4,0:0:0:0:
256,192,56284,1,0,0:0:0:0:
256,192,56442,1,8,0:0:0:0:
256,192,56600,1,4,0:0:0:0:
256,192,56916,1,8,0:0:0:0:
256,192,57232,1,4,0:0:0:0:
256,192,57547,1,8,0:0:0:0:
256,192,57863,1,4,0:0:0:0:
256,192,58179,1,8,0:0:0:0:
256,192,58495,1,4,0:0:0:0:
256,192,58652,1,8,0:0:0:0:
256,192,58810,1,0,0:0:0:0:
256,192,58968,1,8,0:0:0:0:
256,192,59126,1,4,0:0:0:0:
256,192,59442,1,4,0:0:0:0:
256,192,59758,1,4,0:0:0:0:
256,192,60073,1,4,0:0:0:0:
256,192,60389,1,4,0:0:0:0:
256,192,60705,1,4,0:0:0:0:
256,192,61021,1,4,0:0:0:0:
256,192,61336,1,4,0:0:0:0:
256,192,61652,1,4,0:0:0:0:
256,192,61810,1,4,0:0:0:0:
256,192,61968,1,4,0:0:0:0:
256,192,62126,1,4,0:0:0:0:
256,192,62284,1,4,0:0:0:0:
256,192,62442,1,4,0:0:0:0:
256,192,62599,1,4,0:0:0:0:
256,192,62757,1,4,0:0:0:0:
256,192,62915,1,0,0:0:0:0:
256,192,62994,1,0,0:0:0:0:
256,192,63073,1,0,0:0:0:0:
256,192,63152,1,0,0:0:0:0:
256,192,63231,1,0,0:0:0:0:
256,192,63310,1,0,0:0:0:0:
256,192,63389,1,0,0:0:0:0:
256,192,63468,1,0,0:0:0:0:
256,192,63547,12,8,64099,0:0:0:0:
256,192,64178,5,0,0:0:0:0:
256,192,65126,5,12,0:0:0:0:
256,192,65442,1,0,0:0:0:0:
256,192,65599,1,8,0:0:0:0:
256,192,65678,1,8,0:0:0:0:
256,192,65757,1,0,0:0:0:0:
256,192,65915,1,8,0:0:0:0:
256,192,66073,1,0,0:0:0:0:
256,192,66152,1,0,0:0:0:0:
256,192,66231,1,8,0:0:0:0:
256,192,66389,1,0,0:0:0:0:
256,192,66547,1,8,0:0:0:0:
256,192,66626,1,8,0:0:0:0:
256,192,66705,1,0,0:0:0:0:
256,192,66863,1,0,0:0:0:0:
256,192,66942,1,8,0:0:0:0:
256,192,67021,1,0,0:0:0:0:
256,192,67178,1,8,0:0:0:0:
256,192,67257,1,8,0:0:0:0:
256,192,67336,1,0,0:0:0:0:
256,192,67494,1,0,0:0:0:0:
256,192,67652,1,0,0:0:0:0:
256,192,67731,1,0,0:0:0:0:
256,192,67810,1,8,0:0:0:0:
256,192,67889,1,8,0:0:0:0:
256,192,67968,1,0,0:0:0:0:
256,192,68126,1,8,0:0:0:0:
256,192,68205,1,8,0:0:0:0:
256,192,68284,1,0,0:0:0:0:
256,192,68442,1,8,0:0:0:0:
256,192,68599,1,0,0:0:0:0:
256,192,68678,1,0,0:0:0:0:
256,192,68757,1,8,0:0:0:0:
256,192,68915,1,0,0:0:0:0:
256,192,69073,1,0,0:0:0:0:
256,192,69152,1,8,0:0:0:0:
256,192,69231,1,0,0:0:0:0:
256,192,69389,1,8,0:0:0:0:
256,192,69468,1,8,0:0:0:0:
256,192,69547,1,0,0:0:0:0:
256,192,69705,1,0,0:0:0:0:
256,192,69784,1,8,0:0:0:0:
256,192,69862,1,0,0:0:0:0:
256,192,70021,1,0,0:0:0:0:
256,192,70099,1,0,0:0:0:0:
256,192,70178,1,8,0:0:0:0:
256,192,70257,1,8,0:0:0:0:
256,192,70336,1,0,0:0:0:0:
256,192,70494,1,0,0:0:0:0:
256,192,70652,1,8,0:0:0:0:
256,192,70731,1,8,0:0:0:0:
256,192,70810,1,0,0:0:0:0:
256,192,70968,1,8,0:0:0:0:
256,192,71126,1,0,0:0:0:0:
256,192,71205,1,0,0:0:0:0:
256,192,71284,1,8,0:0:0:0:
256,192,71442,1,0,0:0:0:0:
256,192,71600,1,8,0:0:0:0:
256,192,71678,1,8,0:0:0:0:
256,192,71758,1,0,0:0:0:0:
256,192,71915,1,0,0:0:0:0:
256,192,71994,1,8,0:0:0:0:
256,192,72073,1,0,0:0:0:0:
256,192,72231,1,8,0:0:0:0:
256,192,72310,1,8,0:0:0:0:
256,192,72389,1,0,0:0:0:0:
256,192,72547,1,0,0:0:0:0:
256,192,72705,1,0,0:0:0:0:
256,192,72784,1,0,0:0:0:0:
256,192,72863,1,8,0:0:0:0:
256,192,72942,1,8,0:0:0:0:
256,192,73021,1,0,0:0:0:0:
256,192,73179,1,8,0:0:0:0:
256,192,73257,1,8,0:0:0:0:
256,192,73337,1,0,0:0:0:0:
256,192,73495,1,8,0:0:0:0:
256,192,73652,1,0,0:0:0:0:
256,192,73731,1,0,0:0:0:0:
256,192,73810,1,8,0:0:0:0:
256,192,73968,1,0,0:0:0:0:
256,192,74126,1,8,0:0:0:0:
256,192,74205,1,8,0:0:0:0:
256,192,74284,1,0,0:0:0:0:
256,192,74442,1,0,0:0:0:0:
256,192,74521,1,0,0:0:0:0:
256,192,74599,1,8,0:0:0:0:
256,192,74678,1,8,0:0:0:0:
256,192,74757,1,0,0:0:0:0:
256,192,74915,1,12,0:0:0:0:
256,192,75231,1,4,0:0:0:0:
256,192,75547,1,0,0:0:0:0:
256,192,75704,1,8,0:0:0:0:
256,192,75783,1,8,0:0:0:0:
256,192,75862,1,0,0:0:0:0:
256,192,76020,1,8,0:0:0:0:
256,192,76178,1,0,0:0:0:0:
256,192,76257,1,8,0:0:0:0:
256,192,76336,1,8,0:0:0:0:
256,192,76494,1,0,0:0:0:0:
256,192,76652,1,8,0:0:0:0:
256,192,76731,1,8,0:0:0:0:
256,192,76810,1,0,0:0:0:0:
256,192,76968,1,0,0:0:0:0:
256,192,77047,1,8,0:0:0:0:
256,192,77126,1,0,0:0:0:0:
256,192,77283,1,8,0:0:0:0:
256,192,77362,1,8,0:0:0:0:
256,192,77441,1,0,0:0:0:0:
256,192,77599,1,0,0:0:0:0:
256,192,77678,1,8,0:0:0:0:
256,192,77757,1,0,0:0:0:0:
256,192,77836,1,0,0:0:0:0:
256,192,77915,1,8,0:0:0:0:
256,192,77994,1,8,0:0:0:0:
256,192,78073,1,0,0:0:0:0:
256,192,78231,1,8,0:0:0:0:
256,192,78310,1,8,0:0:0:0:
256,192,78389,1,0,0:0:0:0:
256,192,78547,1,8,0:0:0:0:
256,192,78704,1,0,0:0:0:0:
256,192,78783,1,8,0:0:0:0:
256,192,78862,1,8,0:0:0:0:
256,192,79020,1,0,0:0:0:0:
256,192,79178,1,8,0:0:0:0:
256,192,79257,1,8,0:0:0:0:
256,192,79336,1,0,0:0:0:0:
256,192,79494,1,0,0:0:0:0:
256,192,79573,1,8,0:0:0:0:
256,192,79652,1,0,0:0:0:0:
256,192,79810,1,8,0:0:0:0:
256,192,79889,1,8,0:0:0:0:
256,192,79967,1,0,0:0:0:0:
256,192,80046,1,0,0:0:0:0:
256,192,80125,1,0,0:0:0:0:
256,192,80204,1,0,0:0:0:0:
256,192,80283,1,8,0:0:0:0:
256,192,80363,1,0,0:0:0:0:
256,192,80442,1,8,0:0:0:0:
256,192,80521,1,8,0:0:0:0:
256,192,80599,1,0,0:0:0:0:
256,192,80757,1,8,0:0:0:0:
256,192,80836,1,8,0:0:0:0:
256,192,80915,1,0,0:0:0:0:
256,192,81073,1,8,0:0:0:0:
256,192,81231,1,0,0:0:0:0:
256,192,81310,1,8,0:0:0:0:
256,192,81389,1,8,0:0:0:0:
256,192,81547,1,0,0:0:0:0:
256,192,81705,1,8,0:0:0:0:
256,192,81783,1,8,0:0:0:0:
256,192,81863,1,0,0:0:0:0:
256,192,82020,1,0,0:0:0:0:
256,192,82099,1,8,0:0:0:0:
256,192,82178,1,0,0:0:0:0:
256,192,82336,1,8,0:0:0:0:
256,192,82415,1,8,0:0:0:0:
256,192,82494,1,0,0:0:0:0:
256,192,82652,1,0,0:0:0:0:
256,192,82731,1,8,0:0:0:0:
256,192,82810,1,0,0:0:0:0:
256,192,82889,1,0,0:0:0:0:
256,192,82968,1,8,0:0:0:0:
256,192,83047,1,8,0:0:0:0:
256,192,83126,1,0,0:0:0:0:
256,192,83284,1,8,0:0:0:0:
256,192,83363,1,8,0:0:0:0:
256,192,83442,1,0,0:0:0:0:
256,192,83600,1,8,0:0:0:0:
256,192,83757,1,0,0:0:0:0:
256,192,83836,1,8,0:0:0:0:
256,192,83915,1,8,0:0:0:0:
256,192,84073,1,0,0:0:0:0:
256,192,84231,1,8,0:0:0:0:
256,192,84310,1,8,0:0:0:0:
256,192,84389,1,0,0:0:0:0:
256,192,84547,1,0,0:0:0:0:
256,192,84626,1,0,0:0:0:0:
256,192,84705,1,8,0:0:0:0:
256,192,84784,1,8,0:0:0:0:
256,192,84862,1,0,0:0:0:0:
256,192,85020,1,12,0:0:0:0:
256,192,85336,1,4,0:0:0:0:
256,192,85652,1,0,0:0:0:0:
256,192,85810,1,8,0:0:0:0:
256,192,85889,1,8,0:0:0:0:
256,192,85968,1,0,0:0:0:0:
256,192,86126,1,8,0:0:0:0:
256,192,86284,1,0,0:0:0:0:
256,192,86363,1,0,0:0:0:0:
256,192,86442,1,0,0:0:0:0:
256,192,86521,1,0,0:0:0:0:
256,192,86599,1,8,0:0:0:0:
256,192,86757,1,8,0:0:0:0:
256,192,86836,1,0,0:0:0:0:
256,192,86915,1,8,0:0:0:0:
256,192,87073,1,8,0:0:0:0:
256,192,87152,1,8,0:0:0:0:
256,192,87231,1,0,0:0:0:0:
256,192,87389,1,8,0:0:0:0:
256,192,87547,1,0,0:0:0:0:
256,192,87626,1,0,0:0:0:0:
256,192,87705,1,0,0:0:0:0:
256,192,87784,1,0,0:0:0:0:
256,192,87863,1,8,0:0:0:0:
256,192,88021,1,8,0:0:0:0:
256,192,88099,1,0,0:0:0:0:
256,192,88178,1,8,0:0:0:0:
256,192,88336,1,8,0:0:0:0:
256,192,88415,1,0,0:0:0:0:
256,192,88494,1,0,0:0:0:0:
256,192,88652,1,8,0:0:0:0:
256,192,88731,1,8,0:0:0:0:
256,192,88810,1,0,0:0:0:0:
256,192,88968,1,0,0:0:0:0:
256,192,89047,1,0,0:0:0:0:
256,192,89126,1,8,0:0:0:0:
256,192,89284,1,8,0:0:0:0:
256,192,89363,1,0,0:0:0:0:
256,192,89442,1,8,0:0:0:0:
256,192,89599,1,0,0:0:0:0:
256,192,89678,1,0,0:0:0:0:
256,192,89757,1,8,0:0:0:0:
256,192,89836,1,0,0:0:0:0:
256,192,89915,1,8,0:0:0:0:
256,192,89994,1,8,0:0:0:0:
256,192,90073,1,0,0:0:0:0:
256,192,90231,1,12,0:0:0:0:
256,192,90389,1,12,0:0:0:0:
256,192,90705,1,8,0:0:0:0:
256,192,90863,1,0,0:0:0:0:
256,192,90942,1,0,0:0:0:0:
256,192,91021,1,8,0:0:0:0:
256,192,91179,1,0,0:0:0:0:
256,192,91337,1,8,0:0:0:0:
256,192,91416,1,8,0:0:0:0:
256,192,91495,1,8,0:0:0:0:
256,192,91574,1,8,0:0:0:0:
256,192,91652,1,0,0:0:0:0:
256,192,91810,1,0,0:0:0:0:
256,192,91889,1,8,0:0:0:0:
256,192,91968,1,0,0:0:0:0:
256,192,92126,1,0,0:0:0:0:
256,192,92284,1,8,0:0:0:0:
256,192,92363,1,8,0:0:0:0:
256,192,92442,1,0,0:0:0:0:
256,192,92521,1,0,0:0:0:0:
256,192,92599,1,8,0:0:0:0:
256,192,92757,1,0,0:0:0:0:
256,192,92836,1,8,0:0:0:0:
256,192,92915,1,8,0:0:0:0:
256,192,93073,1,0,0:0:0:0:
256,192,93152,1,0,0:0:0:0:
256,192,93231,1,8,0:0:0:0:
256,192,93389,1,8,0:0:0:0:
256,192,93468,1,8,0:0:0:0:
256,192,93547,1,0,0:0:0:0:
256,192,93705,1,0,0:0:0:0:
256,192,93784,1,8,0:0:0:0:
256,192,93863,1,0,0:0:0:0:
256,192,94021,1,0,0:0:0:0:
256,192,94099,1,0,0:0:0:0:
256,192,94178,1,8,0:0:0:0:
256,192,94336,1,8,0:0:0:0:
256,192,94494,1,0,0:0:0:0:
256,192,94573,1,0,0:0:0:0:
256,192,94652,1,8,0:0:0:0:
256,192,94731,1,8,0:0:0:0:
256,192,94810,1,0,0:0:0:0:
256,192,94968,1,8,0:0:0:0:
256,192,95126,1,0,0:0:0:0:
256,192,95205,1,0,0:0:0:0:
256,192,95284,1,0,0:0:0:0:
256,192,95442,1,8,0:0:0:0:
256,192,95757,1,0,0:0:0:0:
256,192,96073,1,0,0:0:0:0:
256,192,96389,1,0,0:0:0:0:
256,192,96705,1,0,0:0:0:0:
256,192,96863,1,0,0:0:0:0:
256,192,97021,1,0,0:0:0:0:
256,192,97336,1,0,0:0:0:0:
256,192,97652,1,0,0:0:0:0:
256,192,97810,1,0,0:0:0:0:
256,192,97968,1,0,0:0:0:0:
256,192,98126,1,0,0:0:0:0:
256,192,98284,1,0,0:0:0:0:
256,192,98599,1,0,0:0:0:0:
256,192,98757,1,8,0:0:0:0:
256,192,98915,1,0,0:0:0:0:
256,192,99231,1,0,0:0:0:0:
256,192,99389,1,8,0:0:0:0:
256,192,99547,1,0,0:0:0:0:
256,192,99705,1,0,0:0:0:0:
256,192,99863,1,8,0:0:0:0:
256,192,100021,1,0,0:0:0:0:
256,192,100178,1,12,0:0:0:0:
256,192,100494,1,4,0:0:0:0:
256,192,100810,1,8,0:0:0:0:
256,192,101126,1,0,0:0:0:0:
256,192,101284,1,8,0:0:0:0:
256,192,101599,1,0,0:0:0:0:
256,192,101757,1,8,0:0:0:0:
256,192,101915,1,0,0:0:0:0:
256,192,102073,1,8,0:0:0:0:
256,192,102231,1,8,0:0:0:0:
256,192,102389,1,0,0:0:0:0:
256,192,102705,1,8,0:0:0:0:
256,192,103178,1,0,0:0:0:0:
256,192,103336,1,0,0:0:0:0:
256,192,103494,1,0,0:0:0:0:
256,192,103652,1,8,0:0:0:0:
256,192,103968,1,0,0:0:0:0:
256,192,104126,1,0,0:0:0:0:
256,192,104284,1,8,0:0:0:0:
256,192,104442,1,0,0:0:0:0:
256,192,104599,1,8,0:0:0:0:
256,192,104757,1,8,0:0:0:0:
256,192,104915,1,0,0:0:0:0:
256,192,105231,1,8,0:0:0:0:
256,192,105863,1,0,0:0:0:0:
256,192,106494,1,0,0:0:0:0:
256,192,107126,1,0,0:0:0:0:
256,192,107757,1,0,0:0:0:0:
256,192,108389,1,0,0:0:0:0:
256,192,109021,1,0,0:0:0:0:
256,192,109652,1,0,0:0:0:0:
256,192,110284,1,0,0:0:0:0:
256,192,110915,1,0,0:0:0:0:
256,192,111231,1,0,0:0:0:0:
256,192,111547,1,0,0:0:0:0:
256,192,111863,1,0,0:0:0:0:
256,192,112178,1,0,0:0:0:0:
256,192,112494,1,0,0:0:0:0:
256,192,112810,1,0,0:0:0:0:
256,192,113126,1,0,0:0:0:0:
256,192,113442,1,0,0:0:0:0:
256,192,113599,1,0,0:0:0:0:
256,192,113757,1,0,0:0:0:0:
256,192,113915,1,0,0:0:0:0:
256,192,114073,1,0,0:0:0:0:
256,192,114231,1,0,0:0:0:0:
256,192,114389,1,0,0:0:0:0:
256,192,114547,1,0,0:0:0:0:
256,192,114705,1,0,0:0:0:0:
256,192,114784,1,0,0:0:0:0:
256,192,114863,1,0,0:0:0:0:
256,192,114942,1,0,0:0:0:0:
256,192,115021,1,0,0:0:0:0:
256,192,115099,1,0,0:0:0:0:
256,192,115178,1,0,0:0:0:0:
256,192,115257,1,0,0:0:0:0:
256,192,115336,1,12,0:0:0:0:
256,192,115652,1,4,0:0:0:0:
