osu file format v14

[General]
AudioFilename: audio.mp3
AudioLeadIn: 0
PreviewTime: 64372
Countdown: 0
SampleSet: Normal
StackLeniency: 0.2
Mode: 1
LetterboxInBreaks: 0
WidescreenStoryboard: 1

[Editor]
Bookmarks: 346,23082,33188,43293,53398,64767,74872,84977,95082,105188,115293
DistanceSpacing: 1.1
BeatDivisor: 4
GridSize: 32
TimelineZoom: 1.8

[Metadata]
Title:Chewingood!!!
TitleUnicode:Chewingood!!!
Artist:TORIENA
ArtistUnicode:TORIENA
Creator:iceOC
Version:Futsuu
Source:beatmania IIDX 28 BISTROVER
Tags:japanese video game bemani sound voltex exceed gear 6 vi sdvx chip rave chiptune
BeatmapID:3076083
BeatmapSetID:1501192

[Difficulty]
HPDrainRate:7
CircleSize:2
OverallDifficulty:4
ApproachRate:10
SliderMultiplier:1.2
SliderTickRate:1

[Events]
//Background and Video events
0,0,"Chewingood!!!-bg.png",0,130
//Break Periods
//Storyboard Layer 0 (Background)
//Storyboard Layer 1 (Fail)
//Storyboard Layer 2 (Pass)
//Storyboard Layer 3 (Foreground)
//Storyboard Layer 4 (Overlay)
//Storyboard Sound Samples

[TimingPoints]
1021,315.789473684211,4,1,0,80,1,0
22455,-111.111111111111,4,1,0,80,0,0
22928,-105.263157894737,4,1,0,80,0,0
23244,-99.9999999999999,4,1,0,80,0,0
23402,-90.9090909090909,4,1,0,80,0,0
23718,-100,4,1,0,80,0,0
38244,-90.9090909090909,4,1,0,80,0,0
38560,-95.2380952380952,4,1,0,80,0,0
38876,-100,4,1,0,80,0,0
43928,-100,4,1,0,80,0,0
44085,-100.502512562814,4,1,0,80,0,0
44243,-101.010101010101,4,1,0,80,0,0
44401,-101.522842639594,4,1,0,80,0,0
44559,-102.040816326531,4,1,0,80,0,0
44717,-102.564102564103,4,1,0,80,0,0
44875,-103.092783505155,4,1,0,80,0,0
45033,-103.626943005181,4,1,0,80,0,0
45191,-104.166666666667,4,1,0,80,0,0
45349,-104.712041884817,4,1,0,80,0,0
45506,-105.263157894737,4,1,0,80,0,0
45664,-105.820105820106,4,1,0,80,0,0
45822,-106.382978723404,4,1,0,80,0,0
45980,-106.951871657754,4,1,0,80,0,0
46138,-107.52688172043,4,1,0,80,0,0
46296,-108.108108108108,4,1,0,80,0,0
46454,-108.695652173913,4,1,0,80,0,0
46612,-109.289617486339,4,1,0,80,0,0
46770,-109.89010989011,4,1,0,80,0,0
46928,-110.497237569061,4,1,0,80,0,0
47085,-111.111111111111,4,1,0,80,0,0
47243,-111.731843575419,4,1,0,80,0,0
47401,-112.359550561798,4,1,0,80,0,0
47559,-112.994350282486,4,1,0,80,0,0
47717,-113.636363636364,4,1,0,80,0,0
47875,-114.285714285714,4,1,0,80,0,0
48033,-114.942528735632,4,1,0,80,0,0
48191,-115.606936416185,4,1,0,80,0,0
48349,-116.279069767442,4,1,0,80,0,0
48506,-116.959064327485,4,1,0,80,0,0
48664,-117.647058823529,4,1,0,80,0,0
48822,-118.343195266272,4,1,0,80,0,0
48980,-119.047619047619,4,1,0,80,0,0
49138,-119.760479041916,4,1,0,80,0,0
49296,-120.481927710843,4,1,0,80,0,0
49454,-121.212121212121,4,1,0,80,0,0
49612,-121.951219512195,4,1,0,80,0,0
49770,-122.699386503068,4,1,0,80,0,0
49928,-123.456790123457,4,1,0,80,0,0
50085,-124.223602484472,4,1,0,80,0,0
50243,-125,4,1,0,80,0,0
50401,-125.786163522013,4,1,0,80,0,0
50559,-126.582278481013,4,1,0,80,0,0
50717,-127.388535031847,4,1,0,80,0,0
50875,-128.205128205128,4,1,0,80,0,0
51033,-129.032258064516,4,1,0,80,0,0
51191,-129.87012987013,4,1,0,80,0,0
51349,-130.718954248366,4,1,0,80,0,0
51506,-131.578947368421,4,1,0,80,0,0
51664,-132.450331125828,4,1,0,80,0,0
51822,-133.333333333333,4,1,0,80,0,0
51980,-134.228187919463,4,1,0,80,0,0
52138,-135.135135135135,4,1,0,80,0,0
52296,-136.054421768708,4,1,0,80,0,0
52454,-136.986301369863,4,1,0,80,0,0
52612,-137.931034482759,4,1,0,80,0,0
52770,-138.888888888889,4,1,0,80,0,0
52928,-139.86013986014,4,1,0,80,0,0
53085,-140.845070422535,4,1,0,80,0,0
53243,-141.843971631206,4,1,0,80,0,0
53401,-142.857142857143,4,1,0,80,0,0
53559,-143.884892086331,4,1,0,80,0,0
53717,-144.927536231884,4,1,0,80,0,0
53875,-145.985401459854,4,1,0,80,0,0
54033,-142.8571429,4,1,0,80,0,0
54111,-142.4864052,4,1,0,80,0,0
54190,-142.1129552,4,1,0,80,0,0
54269,-141.736819,4,1,0,80,0,0
54348,-141.3580234,4,1,0,80,0,0
54427,-140.9765952,4,1,0,80,0,0
54506,-140.5925608,4,1,0,80,0,0
54585,-140.2059473,4,1,0,80,0,0
54664,-139.816782,4,1,0,80,0,0
54743,-139.4250916,4,1,0,80,0,0
54822,-139.0309037,4,1,0,80,0,0
54901,-138.6342459,4,1,0,80,0,0
54980,-138.2351453,4,1,0,80,0,0
55059,-137.8336298,4,1,0,80,0,0
55138,-137.429727,4,1,0,80,0,0
55217,-137.0234649,4,1,0,80,0,0
55296,-136.6148715,4,1,0,80,0,0
55375,-136.2039747,4,1,0,80,0,0
55454,-135.7908027,4,1,0,80,0,0
55533,-135.3753836,4,1,0,80,0,0
55611,-134.9577459,4,1,0,80,0,0
55690,-134.537918,4,1,0,80,0,0
55769,-134.1159284,4,1,0,80,0,0
55848,-133.6918056,4,1,0,80,0,0
55927,-133.2655783,4,1,0,80,0,0
56006,-132.837275,4,1,0,80,0,0
56085,-132.4069248,4,1,0,80,0,0
56164,-131.9745564,4,1,0,80,0,0
56243,-131.5401986,4,1,0,80,0,0
56322,-131.1038806,4,1,0,80,0,0
56401,-130.6656312,4,1,0,80,0,0
56480,-130.2254797,4,1,0,80,0,0
56559,-129.7834551,4,1,0,80,0,0
56638,-129.3395866,4,1,0,80,0,0
56717,-128.8939035,4,1,0,80,0,0
56796,-128.4464349,4,1,0,80,0,0
56875,-127.9972102,4,1,0,80,0,0
56954,-127.5462587,4,1,0,80,0,0
57033,-127.0936099,4,1,0,80,0,0
57111,-126.6392929,4,1,0,80,0,0
57190,-126.1833374,4,1,0,80,0,0
57269,-125.7257728,4,1,0,80,0,0
57348,-125.2666283,4,1,0,80,0,0
57427,-124.8059335,4,1,0,80,0,0
57506,-124.3437181,4,1,0,80,0,0
57585,-123.8800112,4,1,0,80,0,0
57664,-123.4148426,4,1,0,80,0,0
57743,-122.9482417,4,1,0,80,0,0
57822,-122.4802381,4,1,0,80,0,0
57901,-122.0108611,4,1,0,80,0,0
57980,-121.5401404,4,1,0,80,0,0
58059,-121.0681052,4,1,0,80,0,0
58138,-120.5947851,4,1,0,80,0,0
58217,-120.1202097,4,1,0,80,0,0
58296,-119.6444083,4,1,0,80,0,0
58375,-119.1674104,4,1,0,80,0,0
58454,-118.6892452,4,1,0,80,0,0
58533,-118.2099422,4,1,0,80,0,0
58611,-117.7295307,4,1,0,80,0,0
58690,-117.24804,4,1,0,80,0,0
58769,-116.7654994,4,1,0,80,0,0
58848,-116.2819381,4,1,0,80,0,0
58927,-115.7973852,4,1,0,80,0,0
59006,-115.31187,4,1,0,80,0,0
59085,-114.8254215,4,1,0,80,0,0
59164,-114.3380686,4,1,0,80,0,0
59243,-113.8498405,4,1,0,80,0,0
59322,-113.360766,4,1,0,80,0,0
59401,-112.870874,4,1,0,80,0,0
59480,-112.3801934,4,1,0,80,0,0
59559,-111.8887529,4,1,0,80,0,0
59638,-111.3965812,4,1,0,80,0,0
59717,-110.9037068,4,1,0,80,0,0
59796,-110.4101582,4,1,0,80,0,0
59875,-109.9159642,4,1,0,80,0,0
59954,-109.4211528,4,1,0,80,0,0
60033,-108.9257526,4,1,0,80,0,0
60111,-108.4297916,4,1,0,80,0,0
60190,-107.9332981,4,1,0,80,0,0
60269,-107.4363001,4,1,0,80,0,0
60348,-106.9388255,4,1,0,80,0,0
60427,-106.4409023,4,1,0,80,0,0
60506,-105.9425582,4,1,0,80,0,0
60585,-105.4438208,4,1,0,80,0,0
60664,-104.9447178,4,1,0,80,0,0
60743,-104.4452767,4,1,0,80,0,0
60822,-103.9455248,4,1,0,80,0,0
60901,-103.4454894,4,1,0,80,0,0
60980,-102.9451977,4,1,0,80,0,0
61059,-102.4446767,4,1,0,80,0,0
61138,-101.9439532,4,1,0,80,0,0
61217,-101.4430542,4,1,0,80,0,0
61296,-100.9420065,4,1,0,80,0,0
61375,-100.4408364,4,1,0,80,0,0
61454,-99.93957054,4,1,0,80,0,0
61533,-99.43823522,4,1,0,80,0,0
61611,-98.93685659,4,1,0,80,0,0
61690,-98.43546078,4,1,0,80,0,0
61769,-97.93407376,4,1,0,80,0,0
61848,-97.43272135,4,1,0,80,0,0
61927,-96.93142915,4,1,0,80,0,0
62006,-96.43022278,4,1,0,80,0,0
62085,-95.92912765,4,1,0,80,0,0
62164,-95.42816907,4,1,0,80,0,0
62243,-94.927372,4,1,0,80,0,0
62322,-94.42676153,4,1,0,80,0,0
62401,-93.92636251,4,1,0,80,0,0
62480,-93.42619962,4,1,0,80,0,0
62559,-92.92629738,4,1,0,80,0,0
62638,-92.42668011,4,1,0,80,0,0
62717,-91.92737225,4,1,0,80,0,0
62796,-91.42839764,4,1,0,80,0,0
62875,-90.92978033,4,1,0,80,0,0
62954,-90.43154404,4,1,0,80,0,0
63033,-89.93371246,4,1,0,80,0,0
63111,-89.4363089,4,1,0,80,0,0
63190,-88.93935672,4,1,0,80,0,0
63269,-88.44287908,4,1,0,80,0,0
63348,-87.94689888,4,1,0,80,0,0
63427,-87.45143886,4,1,0,80,0,0
63506,-86.95652174,4,1,0,80,0,0
64139,-100,4,1,0,80,0,0
65086,-83.3333333333333,4,1,0,80,0,0
65402,-100,4,1,0,80,0,0
65442,-100,4,1,0,80,0,1
74876,-83.3333333333333,4,1,0,80,0,1
75192,-90.9090909090909,4,1,0,80,0,1
75507,-100,4,1,0,80,0,1
84981,-83.3333333333333,4,1,0,80,0,1
85297,-90.9090909090909,4,1,0,80,0,1
85613,-100,4,1,0,80,0,1
90192,-90.9090909090909,4,1,0,80,0,1
90665,-100,4,1,0,80,0,1
95757,-100,4,1,0,80,0,0
100139,-90.9090909090909,4,1,0,80,0,0
100455,-95.2380952380952,4,1,0,80,0,0
100771,-100,4,1,0,80,0,0
105823,-100,4,1,0,80,0,0
105901,-100.250626566416,4,1,0,80,0,0
105980,-100.502512562814,4,1,0,80,0,0
106059,-100.755667506297,4,1,0,80,0,0
106138,-101.010101010101,4,1,0,80,0,0
106217,-101.26582278481,4,1,0,80,0,0
106296,-101.522842639594,4,1,0,80,0,0
106375,-101.781170483461,4,1,0,80,0,0
106454,-102.040816326531,4,1,0,80,0,0
106533,-102.30179028133,4,1,0,80,0,0
106612,-102.564102564103,4,1,0,80,0,0
106691,-102.827763496144,4,1,0,80,0,0
106770,-103.092783505155,4,1,0,80,0,0
106849,-103.359173126615,4,1,0,80,0,0
106928,-103.626943005181,4,1,0,80,0,0
107007,-103.896103896104,4,1,0,80,0,0
107086,-104.166666666667,4,1,0,80,0,0
107165,-104.43864229765,4,1,0,80,0,0
107244,-104.712041884817,4,1,0,80,0,0
107323,-104.98687664042,4,1,0,80,0,0
107401,-105.263157894737,4,1,0,80,0,0
107480,-105.540897097625,4,1,0,80,0,0
107559,-105.820105820106,4,1,0,80,0,0
107638,-106.100795755968,4,1,0,80,0,0
107717,-106.382978723404,4,1,0,80,0,0
107796,-106.666666666667,4,1,0,80,0,0
107875,-106.951871657754,4,1,0,80,0,0
107954,-107.238605898123,4,1,0,80,0,0
108033,-107.52688172043,4,1,0,80,0,0
108112,-107.816711590296,4,1,0,80,0,0
108191,-108.108108108108,4,1,0,80,0,0
108270,-108.40108401084,4,1,0,80,0,0
108349,-108.695652173913,4,1,0,80,0,0
108428,-108.991825613079,4,1,0,80,0,0
108507,-109.289617486339,4,1,0,80,0,0
108586,-109.58904109589,4,1,0,80,0,0
108665,-109.89010989011,4,1,0,80,0,0
108744,-110.192837465564,4,1,0,80,0,0
108823,-110.497237569061,4,1,0,80,0,0
108901,-110.803324099723,4,1,0,80,0,0
108980,-111.111111111111,4,1,0,80,0,0
109059,-111.42061281337,4,1,0,80,0,0
109138,-111.731843575419,4,1,0,80,0,0
109217,-112.044817927171,4,1,0,80,0,0
109296,-112.359550561797,4,1,0,80,0,0
109375,-112.676056338028,4,1,0,80,0,0
109454,-112.994350282486,4,1,0,80,0,0
109533,-113.314447592068,4,1,0,80,0,0
109612,-113.636363636363,4,1,0,80,0,0
109691,-113.960113960114,4,1,0,80,0,0
109770,-114.285714285714,4,1,0,80,0,0
109849,-114.613180515759,4,1,0,80,0,0
109928,-114.942528735632,4,1,0,80,0,0
110007,-115.273775216138,4,1,0,80,0,0
110086,-115.606936416185,4,1,0,80,0,0
110165,-115.942028985507,4,1,0,80,0,0
110244,-116.279069767441,4,1,0,80,0,0
110323,-116.618075801749,4,1,0,80,0,0
110401,-116.959064327485,4,1,0,80,0,0
110480,-117.302052785923,4,1,0,80,0,0
110559,-117.647058823529,4,1,0,80,0,0
110638,-117.994100294985,4,1,0,80,0,0
110717,-118.343195266272,4,1,0,80,0,0
110796,-118.694362017804,4,1,0,80,0,0
110875,-119.047619047619,4,1,0,80,0,0
110954,-119.402985074626,4,1,0,80,0,0
111033,-119.760479041916,4,1,0,80,0,0
111112,-120.12012012012,4,1,0,80,0,0
111191,-120.481927710843,4,1,0,80,0,0
111270,-120.845921450151,4,1,0,80,0,0
111349,-121.212121212121,4,1,0,80,0,0
111428,-121.580547112461,4,1,0,80,0,0
111507,-121.951219512195,4,1,0,80,0,0
111586,-122.324159021406,4,1,0,80,0,0
111665,-122.699386503067,4,1,0,80,0,0
111744,-123.076923076922,4,1,0,80,0,0
111823,-123.456790123456,4,1,0,80,0,0
111901,-123.839009287925,4,1,0,80,0,0
111980,-124.223602484471,4,1,0,80,0,0
112059,-124.610591900311,4,1,0,80,0,0
112138,-124.999999999999,4,1,0,80,0,0
112217,-125.39184952978,4,1,0,80,0,0
112296,-125.786163522012,4,1,0,80,0,0
112375,-126.182965299684,4,1,0,80,0,0
112454,-126.582278481012,4,1,0,80,0,0
112533,-126.984126984126,4,1,0,80,0,0
112612,-127.388535031846,4,1,0,80,0,0
112691,-127.795527156549,4,1,0,80,0,0
112770,-128.205128205127,4,1,0,80,0,0
112849,-128.617363344051,4,1,0,80,0,0
112928,-129.032258064515,4,1,0,80,0,0
113007,-129.449838187701,4,1,0,80,0,0
113086,-129.870129870129,4,1,0,80,0,0
113165,-130.29315960912,4,1,0,80,0,0
113244,-130.718954248365,4,1,0,80,0,0
113323,-131.147540983606,4,1,0,80,0,0
113401,-131.57894736842,4,1,0,80,0,0
113480,-132.013201320131,4,1,0,80,0,0
113559,-132.450331125827,4,1,0,80,0,0
113638,-132.890365448504,4,1,0,80,0,0
113717,-133.333333333332,4,1,0,80,0,0
113796,-133.779264214046,4,1,0,80,0,0
113875,-134.228187919462,4,1,0,80,0,0
113954,-134.680134680134,4,1,0,80,0,0
114033,-135.135135135134,4,1,0,80,0,0
114112,-135.593220338982,4,1,0,80,0,0
114191,-136.054421768706,4,1,0,80,0,0
114270,-136.518771331057,4,1,0,80,0,0
114349,-136.986301369862,4,1,0,80,0,0
114428,-137.457044673538,4,1,0,80,0,0
114507,-137.931034482757,4,1,0,80,0,0
114586,-138.408304498269,4,1,0,80,0,0
114665,-138.888888888888,4,1,0,80,0,0
114744,-139.37282229965,4,1,0,80,0,0
114823,-139.860139860139,4,1,0,80,0,0
114901,-140.350877192981,4,1,0,80,0,0
114980,-140.845070422534,4,1,0,80,0,0
115059,-141.342756183744,4,1,0,80,0,0
115138,-141.843971631204,4,1,0,80,0,0
115217,-142.348754448397,4,1,0,80,0,0
115296,-83.3333333333333,4,1,0,80,0,0
115375,-100,4,1,0,80,0,0

[HitObjects]
256,192,1021,5,0,0:0:0:0:
256,192,1652,1,0,0:0:0:0:
256,192,2284,1,0,0:0:0:0:
256,192,2915,1,0,0:0:0:0:
256,192,3231,1,8,0:0:0:0:
256,192,3547,1,0,0:0:0:0:
256,192,4178,1,0,0:0:0:0:
256,192,4810,1,0,0:0:0:0:
256,192,5442,1,0,0:0:0:0:
256,192,5757,1,8,0:0:0:0:
256,192,6073,1,0,0:0:0:0:
256,192,6705,1,0,0:0:0:0:
256,192,7337,1,0,0:0:0:0:
256,192,7968,1,0,0:0:0:0:
256,192,8284,1,8,0:0:0:0:
256,192,8600,1,0,0:0:0:0:
256,192,9231,1,0,0:0:0:0:
256,192,9863,1,0,0:0:0:0:
256,192,10494,1,0,0:0:0:0:
256,192,10810,1,8,0:0:0:0:
256,192,10968,1,8,0:0:0:0:
256,192,11126,1,0,0:0:0:0:
256,192,11757,1,0,0:0:0:0:
256,192,12389,1,0,0:0:0:0:
256,192,13021,1,0,0:0:0:0:
256,192,13652,1,0,0:0:0:0:
256,192,14284,1,0,0:0:0:0:
256,192,14915,1,0,0:0:0:0:
256,192,15547,1,0,0:0:0:0:
256,192,16178,1,0,0:0:0:0:
256,192,16494,1,0,0:0:0:0:
256,192,16810,1,0,0:0:0:0:
256,192,17126,1,0,0:0:0:0:
256,192,17442,1,0,0:0:0:0:
256,192,17757,1,0,0:0:0:0:
256,192,18073,1,0,0:0:0:0:
256,192,18389,1,0,0:0:0:0:
256,192,18705,1,0,0:0:0:0:
256,192,18863,1,0,0:0:0:0:
256,192,19021,1,0,0:0:0:0:
256,192,19336,1,0,0:0:0:0:
256,192,19494,1,0,0:0:0:0:
256,192,19652,1,0,0:0:0:0:
256,192,19968,2,0,L|448:288,1,180
256,192,20599,12,0,21231,0:0:0:0:
256,192,22494,5,0,0:0:0:0:
256,192,22968,1,0,0:0:0:0:
256,192,23284,1,0,0:0:0:0:
256,192,23442,1,12,0:0:0:0:
256,192,23757,1,0,0:0:0:0:
256,192,24073,1,0,0:0:0:0:
256,192,24389,1,0,0:0:0:0:
256,192,24705,1,0,0:0:0:0:
256,192,24863,1,8,0:0:0:0:
256,192,25021,1,0,0:0:0:0:
256,192,25336,1,0,0:0:0:0:
256,192,25652,1,0,0:0:0:0:
256,192,25968,1,0,0:0:0:0:
256,192,26126,1,8,0:0:0:0:
256,192,26284,1,0,0:0:0:0:
256,192,26599,1,8,0:0:0:0:
256,192,26915,1,0,0:0:0:0:
256,192,27231,1,8,0:0:0:0:
256,192,27547,1,0,0:0:0:0:
256,192,27863,1,8,0:0:0:0:
256,192,28021,1,8,0:0:0:0:
256,192,28178,1,0,0:0:0:0:
256,192,28810,1,0,0:0:0:0:
256,192,29126,1,0,0:0:0:0:
256,192,29442,1,0,0:0:0:0:
256,192,29757,1,8,0:0:0:0:
256,192,29915,1,0,0:0:0:0:
256,192,30073,1,8,0:0:0:0:
256,192,30389,1,0,0:0:0:0:
256,192,30705,1,0,0:0:0:0:
256,192,31021,1,8,0:0:0:0:
256,192,31178,1,0,0:0:0:0:
256,192,31336,1,8,0:0:0:0:
256,192,31652,1,0,0:0:0:0:
256,192,31968,1,8,0:0:0:0:
256,192,32284,1,0,0:0:0:0:
256,192,32599,1,8,0:0:0:0:
256,192,32757,1,8,0:0:0:0:
256,192,32915,1,0,0:0:0:0:
256,192,33231,1,8,0:0:0:0:
256,192,33863,1,4,0:0:0:0:
256,192,34178,1,0,0:0:0:0:
256,192,34494,1,0,0:0:0:0:
256,192,34810,1,8,0:0:0:0:
256,192,34968,1,8,0:0:0:0:
256,192,35126,1,0,0:0:0:0:
256,192,35442,1,0,0:0:0:0:
256,192,35757,1,0,0:0:0:0:
256,192,36073,1,8,0:0:0:0:
256,192,36231,1,8,0:0:0:0:
256,192,36389,1,0,0:0:0:0:
256,192,36705,1,8,0:0:0:0:
256,192,37021,1,0,0:0:0:0:
256,192,37336,1,8,0:0:0:0:
256,192,37652,1,0,0:0:0:0:
256,192,37810,1,0,0:0:0:0:
256,192,37968,1,8,0:0:0:0:
256,192,38284,1,12,0:0:0:0:
256,192,38599,1,4,0:0:0:0:
256,192,38915,1,8,0:0:0:0:
256,192,39389,1,8,0:0:0:0:
256,192,39863,1,8,0:0:0:0:
256,192,40178,1,0,0:0:0:0:
256,192,40336,1,0,0:0:0:0:
256,192,40494,1,8,0:0:0:0:
256,192,40810,1,0,0:0:0:0:
256,192,41442,1,0,0:0:0:0:
256,192,41757,1,8,0:0:0:0:
256,192,42073,1,0,0:0:0:0:
256,192,42389,1,8,0:0:0:0:
256,192,42705,1,0,0:0:0:0:
256,192,42863,1,0,0:0:0:0:
256,192,43021,1,8,0:0:0:0:
256,192,43336,1,0,0:0:0:0:
256,192,43968,1,0,0:0:0:0:
256,192,44599,1,8,0:0:0:0:
256,192,45231,1,0,0:0:0:0:
256,192,46494,1,0,0:0:0:0:
256,192,47126,1,8,0:0:0:0:
256,192,47757,1,0,0:0:0:0:
256,192,49021,1,0,0:0:0:0:
256,192,49652,1,8,0:0:0:0:
256,192,50284,1,0,0:0:0:0:
256,192,51547,1,0,0:0:0:0:
256,192,52178,1,8,0:0:0:0:
256,192,52810,1,0,0:0:0:0:
256,192,54073,1,4,0:0:0:0:
256,192,54705,1,4,0:0:0:0:
256,192,55337,1,4,0:0:0:0:
256,192,55969,1,4,0:0:0:0:
256,192,56600,1,4,0:0:0:0:
256,192,57232,1,4,0:0:0:0:
256,192,57863,1,4,0:0:0:0:
256,192,58495,1,4,0:0:0:0:
256,192,59126,1,0,0:0:0:0:
256,192,59442,1,0,0:0:0:0:
256,192,59758,1,0,0:0:0:0:
256,192,60073,1,0,0:0:0:0:
256,192,60389,1,0,0:0:0:0:
256,192,60705,1,0,0:0:0:0:
256,192,61021,1,0,0:0:0:0:
256,192,61336,1,0,0:0:0:0:
256,192,61652,1,0,0:0:0:0:
256,192,61810,1,0,0:0:0:0:
256,192,61968,1,0,0:0:0:0:
256,192,62284,1,0,0:0:0:0:
256,192,62442,1,0,0:0:0:0:
256,192,62599,1,0,0:0:0:0:
34,64,62915,2,0,B|256:64,1,197.954951474819
256,192,63547,12,8,64021,0:0:0:0:
256,192,64178,5,0,0:0:0:0:
256,192,65126,5,12,0:0:0:0:
256,192,65442,1,0,0:0:0:0:
256,192,65757,1,8,0:0:0:0:
256,192,66073,1,0,0:0:0:0:
256,192,66231,1,0,0:0:0:0:
256,192,66389,1,8,0:0:0:0:
256,192,66705,1,0,0:0:0:0:
256,192,67021,1,8,0:0:0:0:
256,192,67178,1,8,0:0:0:0:
256,192,67336,1,0,0:0:0:0:
256,192,67968,1,0,0:0:0:0:
256,192,68284,1,8,0:0:0:0:
256,192,68599,1,0,0:0:0:0:
256,192,68757,1,0,0:0:0:0:
256,192,68915,1,8,0:0:0:0:
256,192,69231,1,0,0:0:0:0:
256,192,69389,1,0,0:0:0:0:
256,192,69547,1,8,0:0:0:0:
256,192,69705,1,8,0:0:0:0:
256,192,69863,1,0,0:0:0:0:
256,192,70494,1,0,0:0:0:0:
256,192,70810,1,8,0:0:0:0:
256,192,71126,1,0,0:0:0:0:
256,192,71284,1,0,0:0:0:0:
256,192,71442,1,8,0:0:0:0:
256,192,71758,1,0,0:0:0:0:
256,192,72073,1,8,0:0:0:0:
256,192,72231,1,8,0:0:0:0:
256,192,72389,1,0,0:0:0:0:
256,192,73021,1,0,0:0:0:0:
256,192,73336,1,8,0:0:0:0:
256,192,73652,1,0,0:0:0:0:
256,192,73810,1,0,0:0:0:0:
256,192,73968,1,8,0:0:0:0:
256,192,74284,1,0,0:0:0:0:
256,192,74599,1,0,0:0:0:0:
256,192,74915,1,12,0:0:0:0:
256,192,75231,1,4,0:0:0:0:
256,192,75547,1,0,0:0:0:0:
256,192,75863,1,8,0:0:0:0:
256,192,76178,1,0,0:0:0:0:
256,192,76336,1,0,0:0:0:0:
256,192,76494,1,8,0:0:0:0:
256,192,76810,1,0,0:0:0:0:
256,192,76968,1,8,0:0:0:0:
256,192,77126,1,0,0:0:0:0:
256,192,77284,1,8,0:0:0:0:
256,192,77442,1,0,0:0:0:0:
256,192,78073,1,0,0:0:0:0:
256,192,78389,1,8,0:0:0:0:
256,192,78704,1,0,0:0:0:0:
256,192,78863,1,0,0:0:0:0:
256,192,79021,1,8,0:0:0:0:
256,192,79336,1,0,0:0:0:0:
256,192,79494,1,8,0:0:0:0:
256,192,79652,1,0,0:0:0:0:
256,192,79810,1,8,0:0:0:0:
256,192,79968,1,0,0:0:0:0:
256,192,80284,1,8,0:0:0:0:
256,192,80599,1,0,0:0:0:0:
256,192,80915,1,8,0:0:0:0:
256,192,81231,1,0,0:0:0:0:
256,192,81389,1,0,0:0:0:0:
256,192,81547,1,8,0:0:0:0:
256,192,81863,1,0,0:0:0:0:
256,192,82021,1,8,0:0:0:0:
256,192,82178,1,0,0:0:0:0:
256,192,82336,1,8,0:0:0:0:
256,192,82494,1,0,0:0:0:0:
256,192,83126,1,0,0:0:0:0:
256,192,83442,1,8,0:0:0:0:
256,192,83757,1,0,0:0:0:0:
256,192,83915,1,0,0:0:0:0:
256,192,84073,1,8,0:0:0:0:
256,192,84389,1,0,0:0:0:0:
256,192,84547,1,8,0:0:0:0:
256,192,84705,1,0,0:0:0:0:
256,192,85020,1,12,0:0:0:0:
256,192,85336,1,4,0:0:0:0:
256,192,85652,1,0,0:0:0:0:
256,192,85968,1,8,0:0:0:0:
256,192,86284,1,0,0:0:0:0:
256,192,86915,1,0,0:0:0:0:
256,192,87231,1,8,0:0:0:0:
256,192,87547,1,0,0:0:0:0:
256,192,88178,1,0,0:0:0:0:
256,192,88494,1,8,0:0:0:0:
256,192,88810,1,0,0:0:0:0:
256,192,88968,1,0,0:0:0:0:
256,192,89126,1,8,0:0:0:0:
256,192,89442,1,0,0:0:0:0:
256,192,89757,1,8,0:0:0:0:
256,192,90073,1,0,0:0:0:0:
256,192,90231,1,12,0:0:0:0:
256,192,90389,1,12,0:0:0:0:
256,192,90705,1,0,0:0:0:0:
256,192,91021,1,8,0:0:0:0:
256,192,91336,1,0,0:0:0:0:
256,192,91968,1,0,0:0:0:0:
256,192,92284,1,8,0:0:0:0:
256,192,92599,1,0,0:0:0:0:
256,192,92915,1,8,0:0:0:0:
256,192,93231,1,0,0:0:0:0:
256,192,93547,1,0,0:0:0:0:
256,192,93863,1,8,0:0:0:0:
256,192,94178,1,8,0:0:0:0:
256,192,94494,1,0,0:0:0:0:
256,192,94652,1,0,0:0:0:0:
256,192,94810,1,8,0:0:0:0:
256,192,94968,1,8,0:0:0:0:
256,192,95126,1,4,0:0:0:0:
256,192,95757,1,0,0:0:0:0:
256,192,96389,1,0,0:0:0:0:
256,192,97021,1,0,0:0:0:0:
256,192,97652,1,0,0:0:0:0:
256,192,98284,1,0,0:0:0:0:
256,192,98915,1,0,0:0:0:0:
256,192,99547,1,0,0:0:0:0:
256,192,100178,1,12,0:0:0:0:
256,192,100494,1,4,0:0:0:0:
256,192,100810,1,8,0:0:0:0:
256,192,101284,1,8,0:0:0:0:
256,192,101757,1,8,0:0:0:0:
256,192,102073,1,0,0:0:0:0:
256,192,102231,1,0,0:0:0:0:
256,192,102389,1,8,0:0:0:0:
256,192,102705,1,0,0:0:0:0:
256,192,103336,1,0,0:0:0:0:
256,192,103652,1,8,0:0:0:0:
256,192,103968,1,0,0:0:0:0:
256,192,104284,1,8,0:0:0:0:
256,192,104599,1,0,0:0:0:0:
256,192,104757,1,0,0:0:0:0:
256,192,104915,1,8,0:0:0:0:
256,192,105073,1,8,0:0:0:0:
256,192,105231,1,0,0:0:0:0:
256,192,105863,1,0,0:0:0:0:
256,192,106494,1,0,0:0:0:0:
256,192,107126,1,0,0:0:0:0:
256,192,107757,1,0,0:0:0:0:
256,192,108389,1,0,0:0:0:0:
256,192,109021,1,0,0:0:0:0:
256,192,109652,1,0,0:0:0:0:
256,192,110284,1,0,0:0:0:0:
256,192,110915,1,0,0:0:0:0:
256,192,111231,1,0,0:0:0:0:
256,192,111547,1,0,0:0:0:0:
256,192,111863,1,0,0:0:0:0:
256,192,112178,1,0,0:0:0:0:
256,192,112494,1,0,0:0:0:0:
256,192,112810,1,0,0:0:0:0:
256,192,113126,1,0,0:0:0:0:
256,192,113442,1,0,0:0:0:0:
256,192,113599,1,0,0:0:0:0:
256,192,113757,1,0,0:0:0:0:
256,192,113915,1,0,0:0:0:0:
256,192,114073,1,0,0:0:0:0:
256,192,114231,1,0,0:0:0:0:
256,192,114389,1,0,0:0:0:0:
32,64,114705,2,0,B|128:64,1,86.4000021093751
256,192,115336,1,12,0:0:0:0:
256,192,115652,1,4,0:0:0:0:
