osu file format v14

[General]
AudioFilename: audio.mp3
AudioLeadIn: 0
PreviewTime: 14225
Countdown: 0
SampleSet: Normal
StackLeniency: 0.2
Mode: 1
LetterboxInBreaks: 0
WidescreenStoryboard: 0

[Editor]
DistanceSpacing: 0.8
BeatDivisor: 2
GridSize: 32
TimelineZoom: 1.9

[Metadata]
Title:Ta Leme Meta
TitleUnicode:Ta Leme Meta
Artist:TOQUEL
ArtistUnicode:TOQUEL
Creator:Genjuro
Version:Futsuu
Source:
Tags:rap trap hip hop hip-hop hiphop greek 777 obiedaz
BeatmapID:2305217
BeatmapSetID:1102919

[Difficulty]
HPDrainRate:6
CircleSize:2
OverallDifficulty:4
ApproachRate:10
SliderMultiplier:1.4
SliderTickRate:1

[Events]
//Background and Video events
0,0,"bg.jpg",0,0
//Break Periods
//Storyboard Layer 0 (Background)
//Storyboard Layer 1 (Fail)
//Storyboard Layer 2 (Pass)
//Storyboard Layer 3 (Foreground)
//Storyboard Layer 4 (Overlay)
//Storyboard Sound Samples

[TimingPoints]
33,461.538461538462,4,1,0,5,1,0
10186,-100,4,1,0,10,0,0
11109,-100,4,1,0,15,0,0
12033,-100,4,1,0,20,0,0
12956,-100,4,1,0,25,0,0
13879,-100,4,1,0,30,0,0
14686,-100,4,1,0,60,0,0
44571,-100,4,1,0,55,0,0
48263,-100,4,1,0,50,0,0
51956,-100,4,1,0,45,0,0
55648,-100,4,1,0,40,0,0
58417,-100,4,1,0,60,0,0
72033,-100,4,1,0,5,0,0
74225,-100,4,1,0,60,0,0
75379,-100,4,1,0,80,0,0
75494,-100,4,1,0,80,0,1
87148,-100,4,1,0,60,0,1
87283,461.538461538462,4,1,0,60,1,8
88667,461.538461538462,4,1,0,60,1,0
89013,-100,4,1,0,50,0,8
101705,-100,4,1,0,30,0,8
102167,-100,4,1,0,50,0,8
116474,-100,4,1,0,30,0,8
116936,-100,4,1,0,50,0,8
117859,-100,4,1,0,30,0,8
118090,-100,4,1,0,50,0,8

[HitObjects]
256,192,10186,8,0,14340,0:0:0:0:
256,192,14802,5,0,0:0:0:0:
256,192,15494,1,0,0:0:0:0:
256,192,15725,1,8,0:0:0:0:
256,192,16417,1,0,0:0:0:0:
256,192,16879,1,8,0:0:0:0:
256,192,17109,1,0,0:0:0:0:
256,192,17571,1,8,0:0:0:0:
256,192,18263,1,8,0:0:0:0:
256,192,18494,1,0,0:0:0:0:
256,192,19186,1,0,0:0:0:0:
256,192,19417,1,8,0:0:0:0:
256,192,20109,1,0,0:0:0:0:
256,192,20571,1,8,0:0:0:0:
256,192,20802,1,0,0:0:0:0:
256,192,21263,1,8,0:0:0:0:
256,192,21494,1,0,0:0:0:0:
256,192,21725,1,8,0:0:0:0:
256,192,22186,1,0,0:0:0:0:
256,192,22879,1,0,0:0:0:0:
256,192,23109,1,8,0:0:0:0:
256,192,23802,1,0,0:0:0:0:
256,192,24263,1,8,0:0:0:0:
256,192,24494,1,0,0:0:0:0:
256,192,24956,1,8,0:0:0:0:
256,192,25417,1,0,0:0:0:0:
256,192,25648,1,8,0:0:0:0:
256,192,25879,1,0,0:0:0:0:
256,192,26109,1,0,0:0:0:0:
256,192,26571,1,0,0:0:0:0:
256,192,26802,1,8,0:0:0:0:
256,192,27494,1,0,0:0:0:0:
256,192,27956,1,8,0:0:0:0:
256,192,28186,1,0,0:0:0:0:
256,192,29571,1,0,0:0:0:0:
256,192,30263,1,0,0:0:0:0:
256,192,30494,1,8,0:0:0:0:
256,192,31186,1,0,0:0:0:0:
256,192,31648,1,8,0:0:0:0:
256,192,31879,1,0,0:0:0:0:
256,192,32340,1,8,0:0:0:0:
256,192,33033,1,8,0:0:0:0:
256,192,33263,1,0,0:0:0:0:
256,192,33956,1,0,0:0:0:0:
256,192,34186,1,8,0:0:0:0:
256,192,34879,1,0,0:0:0:0:
256,192,35340,1,8,0:0:0:0:
256,192,35571,1,0,0:0:0:0:
256,192,36033,1,8,0:0:0:0:
256,192,36263,1,0,0:0:0:0:
256,192,36494,1,8,0:0:0:0:
256,192,36956,1,0,0:0:0:0:
256,192,37648,1,0,0:0:0:0:
256,192,37879,1,8,0:0:0:0:
256,192,38571,1,0,0:0:0:0:
256,192,39033,1,8,0:0:0:0:
256,192,39263,1,0,0:0:0:0:
256,192,39725,1,8,0:0:0:0:
256,192,40186,1,0,0:0:0:0:
256,192,40417,1,8,0:0:0:0:
256,192,40648,1,0,0:0:0:0:
256,192,41340,1,0,0:0:0:0:
256,192,41571,1,8,0:0:0:0:
256,192,42263,1,0,0:0:0:0:
256,192,42725,1,8,0:0:0:0:
256,192,42956,1,0,0:0:0:0:
256,192,43417,1,8,0:0:0:0:
256,192,43879,1,0,0:0:0:0:
256,192,44109,1,8,0:0:0:0:
256,192,44340,1,0,0:0:0:0:
256,192,45033,1,0,0:0:0:0:
256,192,45263,1,8,0:0:0:0:
256,192,45956,1,0,0:0:0:0:
256,192,46648,1,0,0:0:0:0:
256,192,47109,1,8,0:0:0:0:
256,192,48033,1,0,0:0:0:0:
256,192,48725,1,0,0:0:0:0:
256,192,48956,1,8,0:0:0:0:
256,192,49648,1,0,0:0:0:0:
256,192,50340,1,0,0:0:0:0:
256,192,50802,1,8,0:0:0:0:
256,192,51033,1,0,0:0:0:0:
256,192,51263,1,8,0:0:0:0:
256,192,51725,1,0,0:0:0:0:
256,192,52648,1,8,0:0:0:0:
256,192,53340,1,0,0:0:0:0:
256,192,54033,1,0,0:0:0:0:
256,192,54494,1,8,0:0:0:0:
256,192,55417,1,0,0:0:0:0:
256,192,56340,1,8,0:0:0:0:
256,192,57033,1,0,0:0:0:0:
256,192,57725,1,0,0:0:0:0:
256,192,59109,1,0,0:0:0:0:
256,192,59802,1,0,0:0:0:0:
256,192,60033,1,8,0:0:0:0:
256,192,60725,1,0,0:0:0:0:
256,192,61186,1,8,0:0:0:0:
256,192,61417,1,0,0:0:0:0:
256,192,61879,1,8,0:0:0:0:
256,192,62571,1,8,0:0:0:0:
256,192,62802,1,0,0:0:0:0:
256,192,63494,1,0,0:0:0:0:
256,192,63725,1,8,0:0:0:0:
256,192,64417,1,0,0:0:0:0:
256,192,64879,1,8,0:0:0:0:
256,192,65109,1,0,0:0:0:0:
256,192,65571,1,8,0:0:0:0:
256,192,65802,1,0,0:0:0:0:
256,192,66033,1,8,0:0:0:0:
256,192,66494,1,0,0:0:0:0:
256,192,67186,1,0,0:0:0:0:
256,192,67417,1,8,0:0:0:0:
256,192,68109,1,0,0:0:0:0:
256,192,68571,1,8,0:0:0:0:
256,192,68802,1,0,0:0:0:0:
256,192,69263,1,8,0:0:0:0:
256,192,69725,1,0,0:0:0:0:
256,192,69956,1,8,0:0:0:0:
256,192,70186,1,0,0:0:0:0:
256,192,70879,1,0,0:0:0:0:
256,192,71109,1,8,0:0:0:0:
256,192,71802,1,0,0:0:0:0:
256,192,74340,1,8,0:0:0:0:
256,192,74802,1,8,0:0:0:0:
256,192,75494,1,0,0:0:0:0:
256,192,75725,1,0,0:0:0:0:
256,192,75956,1,8,0:0:0:0:
256,192,76186,1,0,0:0:0:0:
256,192,76648,1,8,0:0:0:0:
256,192,77109,1,0,0:0:0:0:
256,192,77340,1,8,0:0:0:0:
256,192,77571,1,0,0:0:0:0:
256,192,78263,1,0,0:0:0:0:
256,192,78494,1,8,0:0:0:0:
256,192,79186,1,0,0:0:0:0:
256,192,79417,1,8,0:0:0:0:
256,192,79648,1,8,0:0:0:0:
256,192,79879,1,0,0:0:0:0:
256,192,80340,1,8,0:0:0:0:
256,192,80571,1,0,0:0:0:0:
256,192,81263,1,0,0:0:0:0:
256,192,81956,1,0,0:0:0:0:
256,192,82186,1,8,0:0:0:0:
256,192,82879,1,0,0:0:0:0:
256,192,83109,1,0,0:0:0:0:
256,192,83340,1,8,0:0:0:0:
256,192,83571,1,0,0:0:0:0:
256,192,84033,1,8,0:0:0:0:
256,192,84494,1,0,0:0:0:0:
256,192,84725,1,8,0:0:0:0:
256,192,84956,1,0,0:0:0:0:
256,192,85648,1,0,0:0:0:0:
256,192,85879,1,8,0:0:0:0:
256,192,86571,1,0,0:0:0:0:
256,192,87283,1,8,0:0:0:0:
256,192,87744,1,8,0:0:0:0:
256,192,88206,1,8,0:0:0:0:
256,192,88667,1,0,0:0:0:0:
256,192,89128,1,8,0:0:0:0:
256,192,90051,1,0,0:0:0:0:
256,192,90513,1,8,0:0:0:0:
256,192,91436,1,8,0:0:0:0:
256,192,91897,1,8,0:0:0:0:
256,192,92359,1,0,0:0:0:0:
256,192,92820,1,8,0:0:0:0:
256,192,93743,1,0,0:0:0:0:
256,192,94205,1,0,0:0:0:0:
256,192,95128,1,0,0:0:0:0:
256,192,95590,1,8,0:0:0:0:
256,192,96051,1,0,0:0:0:0:
256,192,96513,1,8,0:0:0:0:
256,192,97436,1,0,0:0:0:0:
256,192,97897,1,8,0:0:0:0:
256,192,98820,1,8,0:0:0:0:
256,192,99282,1,8,0:0:0:0:
256,192,99743,1,0,0:0:0:0:
256,192,101820,1,8,0:0:0:0:
256,192,102282,1,8,0:0:0:0:
256,192,102743,1,8,0:0:0:0:
256,192,103205,1,8,0:0:0:0:
256,192,103436,1,0,0:0:0:0:
256,192,103897,1,8,0:0:0:0:
256,192,104820,1,0,0:0:0:0:
256,192,105282,1,8,0:0:0:0:
256,192,105743,1,0,0:0:0:0:
256,192,106205,1,8,0:0:0:0:
256,192,106667,1,8,0:0:0:0:
256,192,107128,1,0,0:0:0:0:
256,192,107590,1,8,0:0:0:0:
256,192,108513,1,0,0:0:0:0:
256,192,108974,1,0,0:0:0:0:
256,192,109897,1,0,0:0:0:0:
256,192,110359,1,8,0:0:0:0:
256,192,110820,1,0,0:0:0:0:
256,192,111282,1,8,0:0:0:0:
256,192,112205,1,0,0:0:0:0:
256,192,112667,1,8,0:0:0:0:
256,192,113590,1,8,0:0:0:0:
256,192,114051,1,8,0:0:0:0:
256,192,114513,1,0,0:0:0:0:
256,192,116590,1,8,0:0:0:0:
256,192,117051,1,8,0:0:0:0:
256,192,117513,1,8,0:0:0:0:
256,192,117974,1,8,0:0:0:0:
256,192,118205,1,0,0:0:0:0:
