osu file format v14

[General]
AudioFilename: audio.mp3
AudioLeadIn: 0
PreviewTime: 136685
Countdown: 0
SampleSet: Soft
StackLeniency: 0.7
Mode: 0
LetterboxInBreaks: 0
WidescreenStoryboard: 0

[Editor]
Bookmarks: 33645,45320,55699,67374,88131,99807,120564,130942,141320,165861,172455
DistanceSpacing: 0.6
BeatDivisor: 6
GridSize: 32
TimelineZoom: 1.9

[Metadata]
Title:Princess Danshi
TitleUnicode:Princess♂
Artist:TOPHAMHAT-KYO
ArtistUnicode:トップハムハット狂
Creator:Achilanx
Version:Insane
Source:
Tags:Watery Autumoon DEMONDICE DYES IWASAKI japanese pop leo16834
BeatmapID:2223706
BeatmapSetID:1061929

[Difficulty]
HPDrainRate:6
CircleSize:4
OverallDifficulty:8
ApproachRate:9
SliderMultiplier:1.45
SliderTickRate:1

[Events]
//Background and Video events
0,0,"BG.jpg",0,0
Video,-1987,"video.avi"
//Break Periods
2,118777,128355
2,129155,136139
//Storyboard Layer 0 (Background)
//Storyboard Layer 1 (Fail)
//Storyboard Layer 2 (Pass)
//Storyboard Layer 3 (Foreground)
//Storyboard Layer 4 (Overlay)
//Storyboard Sound Samples

[TimingPoints]
523,324.324324324324,4,2,1,60,1,0
523,-125,4,2,1,60,0,0
5712,-83.3333333333333,4,2,1,60,0,0
6360,-125,4,2,1,60,0,0
10901,-83.3333333333333,4,2,1,70,0,0
31658,-66.6666666666667,4,2,1,70,0,0
31982,-83.3333333333333,4,2,1,70,0,0
36847,-71.4285714285714,4,2,1,70,0,0
37279,-83.3333333333333,4,2,1,70,0,0
43333,-66.6666666666667,4,2,2,75,0,0
43874,-100,4,2,2,75,0,0
53712,-66.6666666666667,4,2,2,75,0,0
54253,-100,4,2,2,75,0,0
65387,-100,4,2,1,60,0,0
70901,-100,4,2,1,70,0,0
86144,-83.3333333333333,4,2,1,75,0,0
97820,-66.6666666666667,4,2,2,75,0,0
98361,-100,4,2,2,75,0,0
108198,-66.6666666666667,4,2,2,75,0,0
108740,-100,4,2,2,75,0,0
128955,-100,4,2,1,75,0,0
139333,-83.3333333333333,4,2,2,75,0,0
143874,-66.6666666666667,4,2,1,75,0,0
144198,-66.6666666666667,4,2,2,75,0,0
144523,-83.3333333333333,4,2,2,75,0,0
146794,-83.3333333333333,4,2,1,75,0,0
147117,-83.3333333333333,4,2,2,75,0,0
154252,-66.6666666666667,4,2,1,75,0,0
154577,-66.6666666666667,4,2,2,75,0,0
154901,-83.3333333333333,4,2,2,75,0,0
164631,-83.3333333333333,4,2,1,75,0,0
165279,-83.3333333333333,4,2,2,75,0,0
167550,-83.3333333333333,4,2,1,75,0,0
167874,-83.3333333333333,4,2,2,75,0,0
168847,-83.3333333333333,4,2,1,75,0,0
169171,-83.3333333333333,4,2,2,75,0,0
169820,-83.3333333333333,4,2,1,75,0,0
170144,-83.3333333333333,4,2,2,70,0,0
170468,-83.3333333333333,4,2,2,60,0,0

[Colours]
Combo1 : 148,148,73
Combo2 : 0,170,170
Combo3 : 0,128,192
Combo4 : 175,95,95

[HitObjects]
190,0,523,6,0,P|186:56|169:121,1,116,4|2,3:2|3:2,0:0:0:0:
325,116,1171,2,0,P|329:171|346:236,1,116,0|2,3:2|3:2,0:0:0:0:
256,380,1820,1,0,3:2:0:0:
138,327,2036,2,0,P|137:289|192:238,1,116,0|0,3:2|3:2,0:0:0:0:
206,145,2685,1,0,3:2:0:0:
206,145,2793,2,0,P|172:165|113:174,1,77.3333333333334,2|0,3:2|0:0,0:0:0:0:
36,142,3117,6,0,P|94:125|106:195,1,116,0|2,3:2|3:2,0:0:0:0:
164,336,3766,2,0,P|106:353|94:283,1,116,0|2,3:2|3:2,0:0:0:0:
293,302,4414,1,0,3:2:0:0:
307,107,4631,1,0,3:2:0:0:
307,107,4955,2,0,P|353:146|416:135,2,116,0|0|0,3:2|3:2|0:0,0:0:0:0:
297,1,5712,6,0,P|289:85|176:100,1,173.999994689942,4|2,3:2|3:2,0:0:0:0:
76,71,6360,2,0,P|136:125|146:168,1,116,0|2,3:2|3:2,0:0:0:0:
92,288,7009,5,0,3:2:0:0:
230,217,7225,1,0,3:2:0:0:
230,217,7550,2,0,L|213:313,1,77.3333333333333,0|0,3:2|0:0,0:0:0:0:
274,365,7874,2,0,P|300:364|322:349,1,38.6666666666667,0|2,3:2|3:2,0:0:0:0:
502,221,8306,6,0,B|390:190|433:290|316:258,1,193.333333333333,0|0,3:2|0:0,0:0:0:0:
186,94,8955,2,0,B|298:63|255:163|372:131,1,193.333333333333,0|0,3:2|0:0,0:0:0:0:
438,47,9604,1,0,3:2:0:0:
324,260,9820,1,0,3:2:0:0:
324,260,10144,1,0,3:2:0:0:
53,83,10901,6,0,P|111:129|101:206,1,115.999996459961,4|0,3:2|0:0,0:0:0:0:
83,243,11225,1,8,3:2:0:0:
31,384,11441,2,0,P|65:333|133:327,1,115.999996459961,0|0,3:2|0:0,0:0:0:0:
239,344,11766,1,0,3:2:0:0:
239,344,11874,2,0,P|210:284|237:251,1,115.999996459961,8|0,3:2|0:0,0:0:0:0:
328,154,12198,6,0,P|312:225|391:290,1,173.999994689942,0|8,3:2|3:2,0:0:0:0:
433,109,12739,2,0,P|498:162|486:245,1,173.999994689942,0|0,3:2|3:2,0:0:0:0:
411,214,13171,1,8,3:2:0:0:
322,14,13387,1,0,3:2:0:0:
322,14,13495,6,0,P|269:45|197:48,1,115.999996459961,0|0,3:2|0:0,0:0:0:0:
129,8,13820,1,8,3:2:0:0:
8,142,14036,2,0,P|74:169|102:229,1,115.999996459961,0|0,3:2|0:0,0:0:0:0:
98,323,14360,1,0,3:2:0:0:
98,323,14468,2,0,P|145:270|185:295,1,115.999996459961,8|0,3:2|0:0,0:0:0:0:
288,364,14793,5,0,3:2:0:0:
402,277,15009,1,0,0:0:0:0:
368,268,15117,1,8,3:2:0:0:
213,167,15333,1,0,3:2:0:0:
247,158,15441,1,0,0:0:0:0:
416,47,15658,1,0,3:2:0:0:
382,38,15766,2,0,L|417:162,1,115.999996459961,8|0,3:2|3:2,0:0:0:0:
493,228,16090,6,0,P|437:226|386:269,1,115.999996459961,0|0,3:2|0:0,0:0:0:0:
265,330,16414,2,0,P|321:328|367:362,1,115.999996459961,8|0,3:2|3:2,0:0:0:0:
457,324,16739,1,0,0:0:0:0:
314,208,16955,1,0,3:2:0:0:
346,194,17063,1,8,3:2:0:0:
361,65,17279,1,0,0:0:0:0:
329,51,17387,6,0,L|184:84,1,115.999996459961,0|0,3:2|0:0,0:0:0:0:
119,98,17712,1,8,3:2:0:0:
30,213,17928,1,0,3:2:0:0:
13,182,18036,1,0,0:0:0:0:
223,213,18252,1,0,3:2:0:0:
206,244,18360,1,8,3:2:0:0:
34,372,18577,1,0,3:2:0:0:
17,341,18685,6,0,P|90:322|143:366,1,115.999996459961,0|0,3:2|0:0,0:0:0:0:
211,369,19009,2,0,L|272:356,2,57.9999982299805,8|0|0,3:2|0:0|3:2,0:0:0:0:
206,244,19333,2,0,P|233:194|218:106,1,115.999996459961,0|0,0:0|3:2,0:0:0:0:
109,5,19658,2,0,P|112:66|168:58,1,115.999996459961,8|0,3:2|0:0,0:0:0:0:
244,12,19982,6,0,P|318:24|354:141,1,173.999994689942,0|8,3:2|3:2,0:0:0:0:
500,74,20523,1,0,3:2:0:0:
475,48,20631,2,0,L|440:200,1,115.999996459961,0|0,0:0|3:2,0:0:0:0:
384,217,20955,1,8,3:2:0:0:
472,374,21171,1,0,3:2:0:0:
489,344,21279,6,0,L|313:370,1,173.999994689942,4|8,3:2|3:2,0:0:0:0:
150,209,21820,1,0,3:2:0:0:
181,194,21928,2,0,P|237:213|221:294,1,115.999996459961,0|0,0:0|3:2,0:0:0:0:
93,325,22252,2,0,P|37:306|53:225,1,115.999996459961,8|0,3:2|0:0,0:0:0:0:
76,172,22577,6,0,L|53:-9,1,173.999994689942,0|8,3:2|3:2,0:0:0:0:
165,68,23117,1,0,3:2:0:0:
192,46,23225,2,0,P|241:33|314:44,1,115.999996459961,0|0,0:0|3:2,0:0:0:0:
388,133,23550,2,0,P|339:120|266:131,1,115.999996459961,8|0,3:2|3:2,0:0:0:0:
174,219,23874,6,0,P|176:300|281:272,1,173.999994689942,0|8,3:2|3:2,0:0:0:0:
438,230,24414,1,0,3:2:0:0:
464,252,24523,2,0,L|431:394,1,115.999996459961,0|0,0:0|3:2,0:0:0:0:
361,245,24847,2,0,L|387:132,1,115.999996459961,8|0,3:2|0:0,0:0:0:0:
476,55,25171,6,0,P|446:54|406:25,2,57.9999982299805,0|0|0,3:2|0:0|0:0,0:0:0:0:
341,0,25495,2,0,P|280:24|234:92,1,115.999996459961,8|0,3:2|3:2,0:0:0:0:
177,164,25820,1,0,0:0:0:0:
181,198,25928,1,0,0:0:0:0:
185,232,26036,1,0,3:2:0:0:
189,266,26144,1,8,3:2:0:0:
18,210,26360,1,0,0:0:0:0:
45,189,26468,6,0,L|61:122,1,57.9999982299805,0|0,3:2|0:0,0:0:0:0:
96,7,26685,1,0,0:0:0:0:
130,8,26793,2,0,L|143:64,1,57.9999982299805,8|0,3:2|0:0,0:0:0:0:
265,185,27009,1,0,3:2:0:0:
295,169,27117,2,0,L|308:112,2,57.9999982299805,0|0|0,0:0|0:0|3:2,0:0:0:0:
293,326,27441,1,8,3:2:0:0:
326,316,27550,1,0,0:0:0:0:
360,308,27658,1,0,0:0:0:0:
388,327,27766,6,0,P|367:256|438:195,1,173.999994689942,0|8,3:2|3:2,0:0:0:0:
486,108,28198,1,0,0:0:0:0:
474,75,28306,1,0,3:2:0:0:
461,42,28414,2,0,L|537:17,2,57.9999982299805,0|0|0,0:0|0:0|3:2,0:0:0:0:
355,94,28739,1,8,3:2:0:0:
149,18,28955,1,0,3:2:0:0:
183,14,29063,6,0,P|154:77|207:181,1,173.999994689942,0|8,3:2|3:2,0:0:0:0:
338,282,29604,1,0,3:2:0:0:
342,247,29712,2,0,B|239:238|288:320|154:302,1,173.999994689942,0|8,0:0|3:2,0:0:0:0:
49,249,30144,1,0,0:0:0:0:
81,238,30252,1,0,0:0:0:0:
114,246,30360,6,0,L|129:176,2,57.9999982299805,8|0|8,3:2|0:0|3:2,0:0:0:0:
57,96,30685,2,0,P|93:144|160:152,1,115.999996459961,8|8,3:2|3:2,0:0:0:0:
245,108,31009,1,8,3:2:0:0:
404,16,31225,1,8,3:2:0:0:
371,3,31333,1,8,3:2:0:0:
417,217,31550,1,0,3:2:0:0:
450,204,31658,6,0,P|357:212|364:328,1,217.500008296967,4|8,3:2|3:2,0:0:0:0:
259,372,32198,1,0,3:2:0:0:
249,338,32306,1,0,0:0:0:0:
182,209,32523,1,0,3:2:0:0:
172,243,32631,1,8,3:2:0:0:
37,318,32847,1,0,0:0:0:0:
27,284,32955,6,0,L|93:261,2,57.9999982299805,0|0|0,3:2|0:0|0:0,0:0:0:0:
4,116,33279,2,0,P|52:187|106:184,1,115.999996459961,8|0,3:2|3:2,0:0:0:0:
147,112,33604,1,0,0:0:0:0:
276,219,33820,1,0,3:2:0:0:
295,190,33928,2,0,L|352:199,2,57.9999982299805,8|0|0,3:2|0:0|3:2,0:0:0:0:
275,73,34252,6,0,P|261:56|252:12,2,57.9999982299805,0|0|0,3:2|0:0|0:0,0:0:0:0:
468,139,34577,2,0,P|461:167|444:190,2,57.9999982299805,8|0|0,3:2|0:0|3:2,0:0:0:0:
353,73,34901,2,0,L|367:239,1,115.999996459961,0|0,0:0|3:2,0:0:0:0:
372,288,35225,1,8,3:2:0:0:
217,180,35441,1,0,0:0:0:0:
198,209,35550,6,0,L|128:228,2,57.9999982299805,0|0|0,3:2|0:0|0:0,0:0:0:0:
113,138,35874,2,0,L|43:157,2,57.9999982299805,8|0|0,3:2|0:0|3:2,0:0:0:0:
292,10,36198,2,0,L|362:29,2,57.9999982299805,0|0|0,0:0|0:0|3:2,0:0:0:0:
135,3,36523,2,0,P|196:43|183:120,1,115.999996459961,8|0,3:2|3:2,0:0:0:0:
201,222,36847,6,0,P|266:165|260:250,1,202.999993804932,4|8,3:2|3:2,0:0:0:0:
469,294,37387,1,0,3:2:0:0:
482,262,37495,2,0,P|426:212|431:286,1,173.999994689942,0|8,0:0|3:2,0:0:0:0:
200,305,38036,1,0,0:0:0:0:
170,323,38144,6,0,P|112:310|183:276,1,173.999994689942,0|8,3:2|3:2,0:0:0:0:
265,130,38685,1,0,3:2:0:0:
295,148,38793,2,0,P|353:135|282:101,1,173.999994689942,0|8,0:0|3:2,0:0:0:0:
79,29,39333,1,0,3:2:0:0:
113,28,39441,6,0,P|162:118|149:203,1,173.999994689942,0|8,3:2|3:2,0:0:0:0:
37,279,39982,1,0,3:2:0:0:
63,256,40090,2,0,L|133:272,2,57.9999982299805,0|0|0,0:0|0:0|3:2,0:0:0:0:
155,186,40414,1,8,3:2:0:0:
247,341,40631,1,0,0:0:0:0:
271,316,40739,6,0,L|305:193,1,115.999996459961,0|0,3:2|0:0,0:0:0:0:
329,120,41063,1,8,3:2:0:0:
247,14,41279,1,0,3:2:0:0:
262,45,41387,1,0,0:0:0:0:
456,154,41604,1,0,3:2:0:0:
431,178,41712,1,8,3:2:0:0:
378,328,41928,1,0,3:2:0:0:
393,359,42036,6,0,L|454:333,2,57.9999982299805,0|0|0,3:2|0:0|0:0,0:0:0:0:
257,244,42360,2,0,L|310:266,2,57.9999982299805,0|0|0,0:0|0:0|0:0,0:0:0:0:
109,338,42685,6,0,L|88:261,1,57.9999982299805,8|0,3:2|2:2,3:2:0:0:
158,186,42901,1,0,3:2:0:0:
158,186,43009,2,0,L|179:109,1,57.9999982299805,8|0,3:2|2:2,3:2:0:0:
107,6,43225,1,8,3:2:0:0:
107,6,43333,6,0,P|170:51|320:65,1,217.500008296967,4|2,3:2|0:0,0:0:0:0:
476,28,43874,1,0,3:2:0:0:
448,20,43982,2,0,L|424:166,1,145,8|2,3:2|3:2,0:0:0:0:
402,328,44523,1,0,0:0:0:0:
426,312,44631,2,0,P|379:262|292:254,2,145,0|2|8,0:0|3:2|0:0,0:0:0:0:
241,382,45604,1,0,3:2:0:0:
241,382,45820,1,0,0:0:0:0:
218,363,45928,6,0,L|234:207,1,145,0|2,3:2|0:0,0:0:0:0:
296,62,46468,1,0,3:2:0:0:
308,88,46577,2,0,P|244:116|154:55,1,145,8|2,3:2|3:2,0:0:0:0:
27,20,47117,1,0,0:0:0:0:
54,27,47225,6,0,P|61:76|33:133,1,96.6666666666667,0|0,0:0|0:0,0:0:0:0:
203,164,47550,2,0,P|173:203|113:224,1,96.6666666666667,2|0,3:2|0:0,0:0:0:0:
170,356,47874,2,0,P|120:362|63:334,1,96.6666666666667,8|0,0:0|0:0,0:0:0:0:
0,242,48198,2,0,P|44:260|8:268,1,96.6666666666667,0|0,3:2|0:0,0:0:0:0:
7,347,48523,5,0,3:2:0:0:
131,222,48739,2,0,L|189:240,1,48.3333333333333,0|2,0:0|0:0,0:0:0:0:
52,106,49063,2,0,L|-6:124,1,48.3333333333333,0|8,3:2|3:2,0:0:0:0:
127,9,49387,2,0,L|185:27,1,48.3333333333333,0|2,0:0|3:2,0:0:0:0:
313,66,49712,1,0,0:0:0:0:
334,47,49820,6,0,P|444:38|460:88,1,145,0|2,0:0|3:2,0:0:0:0:
375,203,50468,2,0,L|363:155,2,48.3333333333333,8|0|0,0:0|0:0|0:0,0:0:0:0:
501,269,50793,2,0,L|513:218,2,48.3333333333333,0|0|0,3:2|0:0|0:0,0:0:0:0:
417,371,51117,5,0,3:2:0:0:
306,280,51333,1,0,0:0:0:0:
315,307,51441,1,2,0:0:0:0:
435,233,51658,1,0,3:2:0:0:
444,206,51766,1,8,3:2:0:0:
252,119,51982,1,0,0:0:0:0:
261,146,52090,1,2,3:2:0:0:
453,74,52306,1,0,0:0:0:0:
462,47,52414,5,0,0:0:0:0:
462,47,52739,2,0,L|398:34,2,48.3333333333333,2|0|0,3:2|0:0|0:0,0:0:0:0:
252,119,53063,2,0,L|316:106,2,48.3333333333333,8|0|0,0:0|0:0|0:0,0:0:0:0:
343,210,53387,2,0,P|367:256|353:302,1,96.6666666666667,0|0,3:2|0:0,0:0:0:0:
249,358,53712,6,0,P|212:295|113:267,1,145.000005531311,4|0,3:2|0:0,0:0:0:0:
5,200,54036,2,0,P|73:218|71:134,1,145.000005531311,2|0,0:0|3:2,0:0:0:0:
22,89,54360,1,8,3:2:0:0:
193,151,54577,1,0,0:0:0:0:
186,122,54685,1,2,3:2:0:0:
268,0,54901,1,0,0:0:0:0:
273,28,55009,6,0,P|340:42|346:97,1,96.6666666666667,0|0,0:0|0:0,0:0:0:0:
417,174,55333,2,0,P|441:134|425:90,1,96.6666666666667,2|0,3:2|0:0,0:0:0:0:
319,199,55658,2,0,L|251:188,2,48.3333333333333,8|0|0,0:0|0:0|0:0,0:0:0:0:
394,294,55982,2,0,L|462:283,2,48.3333333333333,0|0|0,3:2|0:0|0:0,0:0:0:0:
330,366,56306,5,0,3:2:0:0:
330,366,56631,1,2,0:0:0:0:
173,284,56847,1,0,3:2:0:0:
182,311,56955,1,8,3:2:0:0:
66,233,57279,1,2,3:2:0:0:
223,151,57495,1,0,0:0:0:0:
214,178,57604,6,0,L|183:33,1,145,0|2,0:0|3:2,0:0:0:0:
282,117,58252,2,0,P|344:114|375:87,1,96.6666666666667,8|0,0:0|0:0,0:0:0:0:
512,25,58577,2,0,P|471:0|424:1,1,96.6666666666667,0|0,3:2|0:0,0:0:0:0:
460,189,58901,5,0,3:2:0:0:
460,189,59225,1,2,0:0:0:0:
489,355,59441,1,0,3:2:0:0:
504,329,59550,1,8,3:2:0:0:
308,199,59874,1,2,3:2:0:0:
209,280,60090,1,0,0:0:0:0:
194,254,60198,6,0,P|137:258|93:299,1,96.6666666666667,0|0,0:0|0:0,0:0:0:0:
0,155,60523,2,0,P|40:180|88:181,1,96.6666666666667,2|0,3:2|0:0,0:0:0:0:
145,75,60847,2,0,L|131:25,2,48.3333333333333,8|0|0,0:0|0:0|0:0,0:0:0:0:
233,137,61171,2,0,L|246:183,2,48.3333333333333,0|0|0,3:2|0:0|0:0,0:0:0:0:
322,46,61495,5,0,3:2:0:0:
322,46,61820,1,2,0:0:0:0:
447,185,62036,1,0,3:2:0:0:
460,159,62144,1,8,3:2:0:0:
506,12,62468,1,2,3:2:0:0:
381,151,62684,1,0,0:0:0:0:
368,125,62793,6,0,L|342:226,1,96.6666666666667,0|0,0:0|0:0,0:0:0:0:
273,344,63117,2,0,L|248:250,1,96.6666666666667,2|0,3:2|0:0,0:0:0:0:
214,127,63441,5,8,0:0:0:0:
164,173,63550,1,0,0:0:0:0:
99,153,63658,1,0,0:0:0:0:
18,95,63766,5,0,3:2:0:0:
68,49,63875,1,0,0:0:0:0:
133,69,63983,1,0,0:0:0:0:
443,35,65387,6,0,B|413:121|473:103|429:204,1,145,4|0,3:2|0:0,0:0:0:0:
439,176,65928,1,0,3:2:0:0:
415,160,66036,2,0,P|344:168|313:239,1,145,8|0,3:2|3:2,0:0:0:0:
203,374,66685,6,0,B|173:288|233:306|189:205,1,145,0|0,3:2|0:0,0:0:0:0:
199,232,67226,1,0,3:2:0:0:
175,249,67334,2,0,P|104:241|73:170,1,145,8|0,3:2|3:2,0:0:0:0:
36,57,67982,6,0,L|135:42,1,96.6666666666667,0|0,3:2|0:0,0:0:0:0:
207,142,68306,2,0,L|302:156,1,96.6666666666667,0|0,0:0|3:2,0:0:0:0:
418,41,68631,2,0,P|379:99|390:158,1,96.6666666666667,8|0,3:2|3:2,0:0:0:0:
480,266,68955,2,0,P|472:218|440:183,1,96.6666666666667,0|0,3:2|0:0,0:0:0:0:
384,268,69279,5,0,3:2:0:0:
384,268,69604,1,0,3:2:0:0:
466,373,69820,1,0,3:2:0:0:
486,352,69928,1,8,3:2:0:0:
308,298,70144,1,0,3:2:0:0:
316,325,70252,1,8,3:2:0:0:
436,190,70468,1,0,3:2:0:0:
408,183,70576,5,0,3:2:0:0:
408,183,70901,2,0,P|384:128|401:71,1,96.6666666666667,8|0,3:2|3:2,0:0:0:0:
466,23,71225,1,0,0:0:0:0:
301,89,71441,1,0,3:2:0:0:
294,60,71550,1,8,3:2:0:0:
323,195,71766,1,0,0:0:0:0:
316,224,71875,5,0,3:2:0:0:
316,224,72198,2,0,P|264:192|193:198,1,96.6666666666667,8|0,3:2|3:2,0:0:0:0:
46,300,72739,1,0,3:2:0:0:
68,318,72847,2,0,L|38:194,1,96.6666666666667,8|0,3:2|3:2,0:0:0:0:
27,121,73171,5,0,3:2:0:0:
146,187,73387,1,0,0:0:0:0:
156,159,73495,1,8,3:2:0:0:
212,39,73712,1,0,3:2:0:0:
232,59,73820,2,0,L|345:42,1,96.6666666666667,0|0,0:0|3:2,0:0:0:0:
417,172,74144,2,0,L|304:155,1,96.6666666666667,8|0,3:2|0:0,0:0:0:0:
260,251,74468,5,0,3:2:0:0:
316,361,74685,1,0,0:0:0:0:
335,339,74793,1,8,3:2:0:0:
438,258,75009,1,0,3:2:0:0:
457,280,75117,1,0,0:0:0:0:
502,109,75333,1,0,3:2:0:0:
483,131,75441,2,0,L|380:103,1,96.6666666666667,8|0,3:2|3:2,0:0:0:0:
251,71,75766,5,4,3:2:0:0:
251,71,76090,2,0,P|262:124|226:182,1,96.6666666666667,8|0,3:2|3:2,0:0:0:0:
246,162,76631,1,0,3:2:0:0:
224,181,76739,2,0,P|213:234|249:292,1,96.6666666666667,8|0,3:2|0:0,0:0:0:0:
336,344,77063,6,0,P|378:316|449:305,1,96.6666666666667,0|0,3:2|0:0,0:0:0:0:
505,308,77387,1,8,3:2:0:0:
505,308,77604,2,0,P|457:207|461:122,1,193.333333333333,0|8,3:2|3:2,0:0:0:0:
364,29,78252,1,0,3:2:0:0:
346,52,78360,6,0,P|335:104|364:163,1,96.6666666666667,0|0,3:2|0:0,0:0:0:0:
181,162,78685,2,0,P|192:214|163:273,1,96.6666666666667,8|0,3:2|3:2,0:0:0:0:
355,324,79009,2,0,P|345:291|347:259,2,48.3333333333333,0|0|0,0:0|0:0|3:2,0:0:0:0:
263,376,79333,2,0,P|202:347|143:351,1,96.6666666666667,8|0,3:2|0:0,0:0:0:0:
32,352,79658,6,0,L|23:288,2,48.3333333333333,0|0|0,3:2|0:0|0:0,0:0:0:0:
94,219,79982,2,0,L|103:155,2,48.3333333333333,8|0|0,3:2|0:0|3:2,0:0:0:0:
37,54,80306,1,0,0:0:0:0:
37,54,80523,1,0,3:2:0:0:
60,70,80631,2,0,L|182:58,1,96.6666666666667,8|0,3:2|3:2,0:0:0:0:
270,9,80955,6,0,P|253:66|281:122,1,96.6666666666667,0|0,3:2|0:0,0:0:0:0:
383,166,81279,2,0,P|393:119|376:74,1,96.6666666666667,8|0,3:2|3:2,0:0:0:0:
303,185,81604,1,0,0:0:0:0:
401,337,81820,1,0,3:2:0:0:
422,317,81928,2,0,P|393:272|313:284,1,96.6666666666667,8|0,3:2|0:0,0:0:0:0:
225,321,82252,5,0,3:2:0:0:
74,234,82468,1,0,0:0:0:0:
102,226,82577,1,8,3:2:0:0:
225,122,82793,1,0,3:2:0:0:
197,114,82902,1,0,0:0:0:0:
68,23,83117,1,0,3:2:0:0:
96,16,83225,2,0,P|121:77|101:135,1,96.6666666666667,8|0,3:2|3:2,0:0:0:0:
0,150,83550,6,0,P|59:159|52:258,1,145,0|8,3:2|3:2,0:0:0:0:
6,317,83982,1,0,0:0:0:0:
6,317,84090,1,0,3:2:0:0:
6,317,84198,2,0,P|62:310|107:355,1,96.6666666666667,0|0,0:0|3:2,0:0:0:0:
192,384,84523,2,0,L|170:270,1,96.6666666666667,8|0,3:2|0:0,0:0:0:0:
153,203,84847,5,8,3:2:0:0:
280,269,85063,1,8,3:2:0:0:
331,243,85171,1,8,3:2:0:0:
384,266,85279,1,0,0:0:0:0:
435,240,85387,1,0,3:2:0:0:
491,253,85495,5,8,3:2:0:0:
464,135,85712,1,8,3:2:0:0:
451,160,85820,1,8,3:2:0:0:
345,372,86036,1,0,3:2:0:0:
332,347,86144,6,0,L|182:377,1,115.999996459961,4|0,3:2|0:0,0:0:0:0:
112,322,86468,1,8,3:2:0:0:
212,113,86685,1,0,3:2:0:0:
204,30,86793,2,0,P|144:36|154:110,1,115.999996459961,0|0,0:0|3:2,0:0:0:0:
58,154,87117,2,0,L|-5:141,2,57.9999982299805,8|0|0,3:2|0:0|0:0,0:0:0:0:
137,235,87441,5,0,3:2:0:0:
291,273,87658,2,0,P|256:195|280:106,1,173.999994689942,0|0,3:0|3:2,0:0:0:0:
381,49,88090,1,0,0:0:0:0:
487,307,88306,2,0,P|522:229|498:140,1,173.999994689942,0|0,3:2|3:2,0:0:0:0:
478,24,88739,6,0,P|465:120|350:135,1,173.999994689942,0|8,3:2|3:2,0:0:0:0:
203,11,89279,1,0,3:2:0:0:
236,21,89387,1,0,0:0:0:0:
126,224,89604,1,0,3:2:0:0:
93,234,89712,1,8,3:2:0:0:
5,113,89928,1,0,0:0:0:0:
36,98,90036,6,0,P|90:120|107:261,1,173.999994689942,0|8,3:2|3:2,0:0:0:0:
26,348,90577,1,0,3:2:0:0:
10,317,90685,2,0,L|124:349,1,115.999996459961,0|0,0:0|3:2,0:0:0:0:
211,376,91009,1,8,3:2:0:0:
374,291,91225,1,0,3:2:0:0:
354,319,91333,6,0,B|346:219|289:277|285:136,1,173.999994689942,4|8,3:2|3:2,0:0:0:0:
442,28,91874,1,0,3:2:0:0:
461,57,91982,1,0,0:0:0:0:
313,1,92198,1,0,3:2:0:0:
301,33,92306,1,8,3:2:0:0:
144,56,92523,1,0,0:0:0:0:
163,85,92631,6,0,P|107:114|106:189,1,115.999996459961,0|0,3:2|0:0,0:0:0:0:
60,269,92955,2,0,P|13:237|7:181,1,115.999996459961,8|0,3:2|3:2,0:0:0:0:
90,359,93279,2,0,P|145:370|189:336,1,115.999996459961,0|0,0:0|3:2,0:0:0:0:
151,248,93604,1,8,3:2:0:0:
337,320,93820,1,0,3:2:0:0:
310,343,93928,6,0,P|286:285|297:210,1,115.999996459961,0|0,3:2|0:0,0:0:0:0:
463,109,94468,2,0,B|490:120|494:158|414:187|345:116,1,173.999994689942,0|0,3:2|3:2,0:0:0:0:
246,65,94901,2,0,L|230:5,2,57.9999982299805,8|0|0,3:2|0:0|3:2,0:0:0:0:
182,200,95225,5,0,3:2:0:0:
63,89,95441,1,0,3:2:0:0:
31,74,95550,1,8,3:2:0:0:
5,277,95766,2,0,P|52:225|120:224,1,115.999996459961,0|0,3:2|0:0,0:0:0:0:
182,318,96090,1,0,3:2:0:0:
205,292,96198,2,0,L|347:260,1,115.999996459961,8|0,3:2|3:2,0:0:0:0:
504,266,96523,6,0,L|451:289,2,57.9999982299805,0|0|0,3:2|0:0|0:0,0:0:0:0:
376,188,96847,2,0,L|323:166,2,57.9999982299805,0|0|0,0:0|0:0|0:0,0:0:0:0:
181,138,97171,6,0,L|160:215,1,57.9999982299805,8|0,3:2|2:2,3:2:0:0:
230,290,97387,1,0,3:2:0:0:
230,290,97495,2,0,L|251:367,1,57.9999982299805,8|0,3:2|2:2,3:2:0:0:
98,365,97711,1,8,3:2:0:0:
98,365,97820,6,0,P|188:296|308:301,1,217.500008296967,4|2,3:2|0:0,0:0:0:0:
421,333,98360,1,0,3:2:0:0:
399,313,98468,2,0,L|378:205,1,96.6666666666667,8|0,3:2|0:0,0:0:0:0:
340,23,98793,2,0,L|358:117,1,96.6666666666667,2|0,3:2|0:0,0:0:0:0:
242,193,99117,6,0,P|230:144|124:101,2,145,0|2|8,0:0|3:2|0:0,0:0:0:0:
86,254,100090,1,0,3:2:0:0:
190,372,100306,1,0,0:0:0:0:
198,344,100414,6,0,P|137:306|49:282,1,145,0|2,3:2|0:0,0:0:0:0:
28,165,100955,1,0,3:2:0:0:
20,137,101063,2,0,P|81:99|169:75,1,145,8|2,3:2|3:2,0:0:0:0:
313,106,101604,1,0,0:0:0:0:
338,91,101712,6,0,P|350:45|333:1,1,96.6666666666667,0|0,0:0|0:0,0:0:0:0:
220,130,102036,2,0,P|203:174|215:220,1,96.6666666666667,2|0,3:2|0:0,0:0:0:0:
349,277,102360,2,0,L|457:258,1,96.6666666666667,8|0,0:0|0:0,0:0:0:0:
249,365,102685,2,0,L|141:346,1,96.6666666666667,0|0,3:2|0:0,0:0:0:0:
58,354,103009,5,0,3:2:0:0:
1,225,103225,2,0,L|61:251,1,48.3333333333333,0|2,0:0|0:0,0:0:0:0:
94,97,103550,2,0,L|138:77,1,48.3333333333333,0|8,3:2|3:2,0:0:0:0:
215,220,103874,2,0,L|259:239,1,48.3333333333333,0|2,0:0|3:2,0:0:0:0:
444,143,104198,1,0,0:0:0:0:
418,128,104306,6,0,P|385:88|386:12,1,96.6666666666667,0|0,0:0|0:0,0:0:0:0:
462,54,104631,2,0,L|516:39,2,48.3333333333333,2|0|0,3:2|0:0|0:0,0:0:0:0:
326,144,104955,2,0,P|296:108|220:102,1,96.6666666666667,8|0,0:0|0:0,0:0:0:0:
149,168,105279,1,0,3:2:0:0:
7,24,105495,1,0,0:0:0:0:
34,14,105604,5,0,3:2:0:0:
53,155,105820,2,0,L|6:194,1,48.3333333333333,0|2,0:0|0:0,0:0:0:0:
120,284,106144,2,0,L|185:310,1,48.3333333333333,0|8,3:2|3:2,0:0:0:0:
274,368,106468,2,0,L|339:321,1,48.3333333333333,0|2,0:0|3:2,0:0:0:0:
432,248,106793,1,0,0:0:0:0:
429,276,106901,6,0,P|372:232|367:149,1,145,0|2,0:0|3:2,0:0:0:0:
432,86,107333,1,0,0:0:0:0:
432,86,107441,1,0,0:0:0:0:
432,86,107550,2,0,P|370:66|341:14,1,96.6666666666667,8|0,0:0|0:0,0:0:0:0:
197,0,107874,2,0,P|254:39|243:93,1,96.6666666666667,0|0,3:2|0:0,0:0:0:0:
183,211,108198,6,0,P|209:157|84:117,1,217.500008296967,4|2,3:2|0:0,0:0:0:0:
8,170,108631,1,0,0:0:0:0:
25,209,108739,1,0,3:2:0:0:
43,246,108847,1,8,3:2:0:0:
101,379,109063,1,0,0:0:0:0:
118,356,109171,1,2,3:2:0:0:
238,276,109387,1,0,0:0:0:0:
253,297,109495,6,0,P|310:268|358:268,1,96.6666666666667,0|0,0:0|0:0,0:0:0:0:
455,199,109820,2,0,P|398:170|350:170,1,96.6666666666667,2|0,3:2|0:0,0:0:0:0:
272,125,110144,1,8,0:0:0:0:
344,340,110360,1,0,0:0:0:0:
353,367,110468,1,0,3:2:0:0:
489,68,110793,6,0,L|376:94,1,96.6666666666667,0|0,3:2|0:0,0:0:0:0:
272,125,111117,1,2,0:0:0:0:
377,14,111333,1,0,3:2:0:0:
349,23,111441,2,0,P|277:19|254:-4,1,96.6666666666667,8|0,3:2|0:0,0:0:0:0:
129,56,111766,1,2,3:2:0:0:
154,244,111982,1,0,0:0:0:0:
143,270,112090,6,0,P|183:244|230:237,1,96.6666666666667,0|0,0:0|0:0,0:0:0:0:
336,363,112414,2,0,P|295:336|248:329,1,96.6666666666667,2|0,3:2|0:0,0:0:0:0:
165,370,112739,1,8,0:0:0:0:
308,250,113063,2,0,P|330:204|310:136,1,96.6666666666667,0|0,3:2|0:0,0:0:0:0:
255,81,113387,5,0,3:2:0:0:
73,18,113712,1,2,0:0:0:0:
159,173,113928,1,0,3:2:0:0:
146,146,114036,2,0,L|30:168,1,96.6666666666667,8|0,3:2|0:0,0:0:0:0:
6,246,114360,1,2,3:2:0:0:
100,371,114577,1,0,0:0:0:0:
75,354,114685,6,0,P|119:312|194:317,1,96.6666666666667,0|0,0:0|0:0,0:0:0:0:
296,292,115009,2,0,P|252:250|177:255,1,96.6666666666667,2|0,3:2|0:0,0:0:0:0:
109,229,115333,1,8,0:0:0:0:
258,110,115550,1,0,0:0:0:0:
240,86,115658,1,0,3:2:0:0:
442,12,115982,6,0,L|414:126,1,96.6666666666667,0|0,3:2|0:0,0:0:0:0:
477,190,116306,1,2,0:0:0:0:
411,348,116523,1,0,3:2:0:0:
402,320,116631,2,0,L|373:208,1,96.6666666666667,8|0,3:2|0:0,0:0:0:0:
308,30,116955,1,2,3:2:0:0:
168,164,117171,1,0,0:0:0:0:
140,156,117279,5,0,0:0:0:0:
43,292,117495,2,0,L|117:271,1,48.3333333333333,0|2,0:0|3:2,0:0:0:0:
296,296,117820,1,0,0:0:0:0:
279,319,117928,2,0,P|244:280|248:217,1,96.6666666666667,8|0,0:0|0:0,0:0:0:0:
351,78,118252,2,0,P|345:125|312:159,1,96.6666666666667,0|0,3:2|0:0,0:0:0:0:
216,83,118577,5,4,3:2:0:0:
256,192,128955,5,4,3:2:0:0:
256,192,136739,12,0,138685,3:2:0:0:
85,19,139333,6,0,P|106:103|148:109,1,115.999996459961,4|0,3:2|0:0,0:0:0:0:
198,141,139658,2,0,L|271:118,2,57.9999982299805,2|0|0,0:0|0:0|3:2,0:0:0:0:
317,186,139982,2,0,P|296:270|254:276,1,115.999996459961,8|0,3:2|0:0,0:0:0:0:
195,254,140306,1,2,3:2:0:0:
76,350,140631,6,0,L|58:290,1,57.9999982299805,0|0,0:0|0:0,0:0:0:0:
60,364,140955,1,2,3:2:0:0:
109,230,141171,2,0,P|71:197|72:80,1,173.999994689942,0|0,3:2|0:0,0:0:0:0:
154,25,141604,2,0,L|221:41,1,57.9999982299805,0|0,3:2|0:0,0:0:0:0:
317,69,141820,1,0,0:0:0:0:
302,94,141928,6,0,L|416:66,1,115.999996459961,4|0,3:3|0:0,0:0:0:0:
479,13,142252,2,0,P|490:30|495:79,2,57.9999982299805,2|0|0,0:0|0:0|3:2,0:0:0:0:
502,146,142577,2,0,P|457:184|449:248,1,115.999996459961,8|0,3:2|0:0,0:0:0:0:
436,366,142901,2,0,P|421:320|362:285,1,115.999996459961,2|0,3:2|0:0,0:0:0:0:
248,328,143225,6,0,L|188:344,1,57.9999982299805
324,152,143550,2,0,L|384:168,2,57.9999982299805,2|0|0,3:2|0:0|0:0,0:0:0:0:
226,16,143874,6,0,P|256:94|204:132,1,145.000005531311,8|0,3:2|0:0,0:0:0:0:
44,107,144198,2,0,P|127:154|159:215,1,145.000005531311,0|0,3:2|0:0,0:0:0:0:
110,363,144523,6,0,P|55:337|57:281,1,115.999996459961,4|0,3:3|0:0,0:0:0:0:
190,285,144847,2,0,L|256:303,2,57.9999982299805,2|0|0,0:0|0:0|3:2,0:0:0:0:
152,194,145171,2,0,P|200:144|207:78,1,115.999996459961,8|0,3:2|0:0,0:0:0:0:
274,2,145495,2,0,P|289:57|331:96,1,115.999996459961,2|0,3:2|0:0,0:0:0:0:
480,94,145820,6,0,P|449:105|420:136,1,57.9999982299805,0|0,0:0|0:0,0:0:0:0:
502,114,146144,1,2,3:2:0:0:
390,305,146360,2,0,P|475:277|470:197,1,173.999994689942,0|0,3:0|0:0,0:0:0:0:
345,202,146793,2,0,L|202:190,1,115.999996459961,8|0,3:2|0:0,0:0:0:0:
116,257,147117,5,4,3:3:0:0:
116,257,147225,2,0,P|120:181|98:142,2,115.999996459961,0|2|0,0:0|0:0|3:2,0:0:0:0:
5,78,147874,1,0,0:0:0:0:
102,3,148090,1,4,3:3:0:0:
247,110,148306,1,0,0:0:0:0:
263,79,148414,6,0,P|317:56|401:64,1,115.999996459961,0|0,3:2|0:0,0:0:0:0:
508,65,148739,2,0,P|461:124|458:186,1,115.999996459961,2|0,3:2|0:0,0:0:0:0:
457,270,149063,1,4,3:0:0:0:
300,384,149387,2,0,P|288:320|329:277,1,115.999996459961,0|0,3:2|0:0,0:0:0:0:
221,218,149712,6,0,L|106:246,1,115.999996459961,4|0,3:2|0:0,0:0:0:0:
128,147,150036,1,2,0:0:0:0:
128,147,150144,2,0,L|49:163,1,57.9999982299805,0|0,0:0|3:2,0:0:0:0:
148,1,150360,1,8,3:2:0:0:
148,1,150685,2,0,P|197:41|165:102,1,115.999996459961,2|0,3:2|0:0,0:0:0:0:
269,133,151009,6,0,L|331:120,1,57.9999982299805,0|0,0:0|0:0,0:0:0:0:
259,154,151333,1,2,3:2:0:0:
459,45,151550,2,0,P|428:104|433:217,1,173.999994689942,0|0,3:2|0:0,0:0:0:0:
495,285,151982,1,0,3:2:0:0:
297,364,152306,6,0,P|318:305|301:236,1,115.999996459961,4|0,3:3|0:0,0:0:0:0:
165,166,152631,1,2,0:0:0:0:
165,166,152739,2,0,P|183:185|195:225,1,57.9999982299805,0|0,0:0|3:2,0:0:0:0:
67,357,152955,2,0,P|10:310|19:234,1,115.999996459961,8|0,3:2|0:0,0:0:0:0:
55,185,153279,1,2,3:2:0:0:
21,16,153604,6,0,P|58:68|147:90,1,115.999996459961,0|0,0:0|0:0,0:0:0:0:
192,33,153928,1,2,3:2:0:0:
192,33,154036,2,0,P|218:15|263:10,1,57.9999982299805,0|0,0:0|0:0,0:0:0:0:
373,6,154252,2,0,P|337:83|334:187,1,145.000005531311,8|0,3:2|0:0,0:0:0:0:
195,135,154577,2,0,P|231:212|234:316,1,145.000005531311,0|0,3:2|0:0,0:0:0:0:
158,354,154901,5,4,3:3:0:0:
10,221,155225,2,0,L|85:196,1,57.9999982299805,2|0,0:0|0:0,0:0:0:0:
134,74,155441,2,0,L|59:49,1,57.9999982299805,0|8,3:2|3:2,0:0:0:0:
191,230,155658,2,0,L|266:205,1,57.9999982299805,0|0,0:0|0:0,0:0:0:0:
356,32,155874,2,0,L|281:7,2,57.9999982299805,2|0|0,3:2|0:0|0:0,0:0:0:0:
494,39,156198,6,0,P|450:97|442:170,2,115.999996459961,0|0|0,0:0|0:0|0:0,0:0:0:0:
512,234,156847,2,0,L|446:225,1,57.9999982299805,8|0,0:0|0:0,0:0:0:0:
347,144,157063,2,0,L|281:135,1,57.9999982299805,0|0,0:0|3:2,0:0:0:0:
164,329,157279,6,0,P|92:269|110:226,1,115.999996459961,0|4,0:0|3:3,0:0:0:0:
328,236,157712,2,0,L|301:355,1,115.999996459961,0|0,0:0|0:0,0:0:0:0:
418,236,158036,2,0,L|397:323,1,57.9999982299805,0|8,3:2|3:2,0:0:0:0:
255,146,158252,2,0,L|234:233,1,57.9999982299805,0|0,0:0|0:0,0:0:0:0:
459,74,158468,2,0,L|438:161,1,57.9999982299805,4|0,3:3|0:0,0:0:0:0:
291,0,158685,2,0,L|270:87,1,57.9999982299805,0|0,0:0|3:2,0:0:0:0:
352,139,158901,5,0,0:0:0:0:
96,10,159117,2,0,P|192:52|196:94,1,115.999996459961,2|0,3:2|0:0,0:0:0:0:
48,188,159441,2,0,P|94:132|155:163,1,115.999996459961,4|0,3:3|0:0,0:0:0:0:
164,254,159766,2,0,P|170:182|105:160,1,115.999996459961,0|0,3:2|0:0,0:0:0:0:
20,305,160090,6,0,B|97:273|64:360|199:344,1,173.999994689942,4|2,3:2|0:0,0:0:0:0:
349,263,160631,1,0,3:2:0:0:
358,296,160739,1,8,3:2:0:0:
256,111,160955,1,0,0:0:0:0:
247,144,161063,1,2,3:2:0:0:
512,53,161279,1,0,0:0:0:0:
494,82,161387,6,0,P|440:47|424:-6,1,115.999996459961,8|0,3:2|0:0,0:0:0:0:
441,213,161712,2,0,P|461:159|510:131,1,115.999996459961,2|0,3:2|0:0,0:0:0:0:
376,118,162036,1,8,0:0:0:0:
376,118,162360,2,0,L|224:156,1,115.999996459961,0|0,3:2|0:0,0:0:0:0:
83,89,162685,6,0,P|139:154|82:225,1,173.999994689942,4|2,3:3|0:0,0:0:0:0:
0,163,163225,1,0,3:2:0:0:
9,196,163333,1,8,3:2:0:0:
130,338,163550,1,0,0:0:0:0:
121,305,163658,1,2,3:2:0:0:
213,57,163874,1,0,0:0:0:0:
222,90,163982,6,0,P|258:55|336:54,1,115.999996459961,8|0,3:2|0:0,0:0:0:0:
388,192,164306,2,0,P|383:160|353:126,2,57.9999982299805,2|0|0,3:2|0:0|0:0,0:0:0:0:
322,261,164631,2,0,P|310:316|266:352,1,115.999996459961,8|0,0:0|0:0,0:0:0:0:
102,202,164955,2,0,P|173:240|183:307,1,115.999996459961,8|0,3:2|0:0,0:0:0:0:
104,356,165279,5,4,3:3:0:0:
0,147,165604,2,0,P|53:114|86:48,1,115.999996459961,2|0,0:0|3:2,0:0:0:0:
13,14,165928,1,8,3:2:0:0:
194,105,166144,1,0,0:0:0:0:
209,74,166252,1,2,3:2:0:0:
376,15,166577,6,0,P|391:92|426:118,1,115.999996459961,8|0,3:2|0:0,0:0:0:0:
451,213,166901,2,0,P|422:227|372:227,1,57.9999982299805,2|0,3:2|0:0,0:0:0:0:
323,151,167117,1,0,3:0:0:0:
323,151,167550,2,0,L|138:194,1,173.999994689942,8|4,3:2|3:3,0:0:0:0:
20,65,168198,6,0,P|40:94|44:150,1,57.9999982299805,2|0,0:0|0:0,0:0:0:0:
4,209,168414,1,0,3:2:0:0:
16,241,168523,2,0,P|78:264|153:174,1,173.999994689942,8|8,3:2|3:2,0:0:0:0:
282,30,169063,1,0,0:0:0:0:
247,36,169171,6,0,L|115:62,1,115.999996459961,8|0,3:2|0:0,0:0:0:0:
305,128,169495,2,0,L|437:154,1,115.999996459961,2|0,3:2|0:0,0:0:0:0:
201,216,169820,2,0,L|69:242,1,115.999996459961,8|0,3:2|0:0,0:0:0:0:
323,308,170144,2,0,L|455:334,1,115.999996459961,0|0,3:2|0:0,0:0:0:0:
256,384,170468,5,0,3:2:0:0:
