osu file format v14

[General]
AudioFilename: audio.mp3
AudioLeadIn: 0
PreviewTime: 12030
Countdown: 1
SampleSet: Normal
StackLeniency: 0.7
Mode: 0
LetterboxInBreaks: 0
WidescreenStoryboard: 1

[Editor]
DistanceSpacing: 1.3
BeatDivisor: 8
GridSize: 32
TimelineZoom: 0.6999999

[Metadata]
Title:Intro
TitleUnicode:Intro
Artist:TOP Gear 3000
ArtistUnicode:TOP Gear 3000
Creator:HappyRocket88
Version:First Lap
Source:SNES
Tags:
BeatmapID:1735359
BeatmapSetID:828233

[Difficulty]
HPDrainRate:2
CircleSize:2
OverallDifficulty:2
ApproachRate:4
SliderMultiplier:1.6
SliderTickRate:2

[Events]
//Background and Video events
0,0,"c2c1e422-856c-4cb9-a621-0982e34378f0.jpg",0,0
//Break Periods
2,27305,34774
2,51275,58744
//Storyboard Layer 0 (Background)
//Storyboard Layer 1 (Fail)
//Storyboard Layer 2 (Pass)
//Storyboard Layer 3 (Foreground)
//Storyboard Sound Samples

[TimingPoints]
139,749.063670411985,4,1,0,35,1,0
36094,-100,4,1,0,50,0,1
48079,-100,4,1,0,35,0,0
60064,-100,4,1,0,50,0,1
72049,-100,4,1,0,35,0,0

[Colours]
Combo1 : 224,152,152
Combo2 : 165,153,221
Combo3 : 120,120,229
Combo4 : 255,255,91
Combo5 : 119,187,119
SliderBorder : 225,219,255
SliderTrackOverride : 39,39,76

[HitObjects]
80,244,139,6,0,B|128:184|188:228|192:227|196:225|248:268|312:196,1,240
336,108,1637,2,0,P|327:56|237:132,1,240
300,207,3135,6,0,P|336:228|364:312,2,120
200,236,4633,2,0,P|172:288|182:346,2,120
300,207,6131,6,0,B|360:224|364:296|364:296|384:224|464:224,1,240
464,120,7629,2,0,B|404:103|400:31|400:31|380:103|300:103,1,240
212,80,9127,6,0,B|174:95|174:95|145:132,1,79.9999999999999
144,176,9689,2,0,B|120:207|120:207|82:222,1,79.9999999999999
36,244,10251,1,0,0:0:0:0:
120,308,10625,2,0,B|156:293|156:293|196:299,1,79.9999999999999
240,324,11187,2,0,B|280:330|280:330|316:315,1,79.9999999999999
360,284,11749,1,0,0:0:0:0:
304,196,12124,6,0,B|276:144|276:144|244:88|276:32,1,160
364,84,13247,1,0,0:0:0:0:
452,28,13622,2,0,P|468:76|460:112,1,80
404,188,14371,1,0,0:0:0:0:
480,260,14745,1,0,0:0:0:0:
384,300,15120,6,0,B|340:293|317:260|317:260|280:290|233:272,1,160
172,200,16243,1,0,0:0:0:0:
76,236,16618,2,0,P|52:276|52:316,1,80
128,376,17367,2,0,P|152:336|152:296,1,80
76,236,18116,6,0,P|36:172|68:92,1,160
140,28,19240,1,0,0:0:0:0:
228,84,19614,2,0,B|286:111|338:71|338:71|374:95,1,160
452,168,20738,1,0,0:0:0:0:
420,268,21112,6,0,P|384:292|344:288,1,80
300,272,21674,2,0,P|272:264|220:284,1,80
188,316,22236,1,0,0:0:0:0:
112,244,22610,2,0,P|88:208|96:160,1,80
108,124,23172,2,0,P|116:76|96:40,1,80
54,31,23734,2,0,P|11:55|-2:93,1,80
256,192,24296,12,0,27105,0:0:0:0:
337,117,36094,6,0,L|433:117,2,80
257,50,37217,1,0,0:0:0:0:
178,118,37592,2,0,L|90:118,2,80
256,185,38715,1,0,0:0:0:0:
308,274,39090,6,0,L|308:355,1,80
260,374,39652,1,0,0:0:0:0:
203,355,39839,2,0,L|203:261,1,80
256,185,40588,1,0,0:0:0:0:
337,117,40962,1,0,0:0:0:0:
256,50,41337,1,0,0:0:0:0:
178,118,41712,1,0,0:0:0:0:
256,185,42086,6,0,L|256:282,1,80
284,308,42648,1,0,0:0:0:0:
308,354,42835,1,0,0:0:0:0:
203,353,43210,1,0,0:0:0:0:
152,261,43584,2,0,L|152:165,1,80
178,136,44146,1,0,0:0:0:0:
205,91,44333,1,0,0:0:0:0:
309,92,44708,1,0,0:0:0:0:
360,182,45082,6,0,P|389:209|441:209,1,80
433,264,45644,2,0,P|385:287|371:325,1,80
374,361,46206,1,0,0:0:0:0:
277,322,46580,2,0,P|247:296|207:293,1,80
200,243,47142,2,0,P|236:228|257:195,1,80
251,143,47704,2,0,B|238:122|238:122|239:99|239:99|226:86|226:86|224:57,1,80
256,192,48266,12,0,51075,0:0:0:0:
225,72,60064,6,0,L|150:124,1,80
71,172,60813,1,0,0:0:0:0:
124,260,61187,1,0,0:0:0:0:
213,206,61562,2,0,L|287:154,1,80
317,125,62124,1,0,0:0:0:0:
359,95,62311,1,0,0:0:0:0:
422,175,62685,1,0,0:0:0:0:
344,244,63060,6,0,L|247:321,2,120
422,175,64558,2,0,L|520:90,2,120
370,165,65869,1,0,0:0:0:0:
321,145,66056,6,0,P|292:117|288:64,1,80
180,79,66805,2,0,P|170:118|126:148,1,80
193,233,67554,2,0,P|231:221|279:244,1,80
305,269,68116,1,0,0:0:0:0:
332,316,68303,1,0,0:0:0:0:
229,332,68678,1,0,0:0:0:0:
127,309,69052,6,0,P|95:271|93:228,1,80
106,192,69614,2,0,P|108:149|82:107,1,80
57,77,70176,1,0,0:0:0:0:
157,51,70550,2,0,B|213:41|213:41|237:20,1,80
282,25,71112,2,0,B|299:40|299:40|355:50,1,80
401,75,71674,2,0,P|425:104|424:150,1,80
256,192,72236,12,0,75045,0:0:0:0:
273,56,78041,6,0,B|159:54|159:54|109:54|70:91|37:148|84:221|136:238|136:238|202:239|202:239|224:238|277:239|276:156|230:147|215:147|215:147|165:147,2,640
335,138,84408,6,0,P|347:215|307:292,1,160
208,286,85532,2,0,P|145:275|101:313,2,120
237,329,86843,6,0,P|285:365|348:358,1,120
414,285,87779,2,0,B|400:246|400:246|414:206,1,80
363,117,88528,2,0,P|306:98|244:122,2,120
399,153,89839,6,0,L|421:24,1,120
503,95,90775,2,0,L|488:186,1,80
416,247,91524,2,0,P|380:249|337:227,1,80
300,198,92086,2,0,P|258:179|220:189,1,80
183,215,92648,1,0,0:0:0:0:
173,266,92835,1,0,0:0:0:0:
256,192,93022,12,0,96019,0:0:0:0:
